  0
SECTION
  2
HEADER
  9
$ACADVER
  1
AC1015
  9
$ACADMAINTVER
 70
    14
  9
$DWGCODEPAGE
  3
ANSI_1252
  9
$INSBASE
 10
0.0
 20
0.0
 30
0.0
  9
$EXTMIN
 10
33.75
 20
15.11591568935182
 30
0.0
  9
$EXTMAX
 10
949.0180005688689
 20
587.25
 30
0.0
  9
$LIMMIN
 10
0.0
 20
0.0
  9
$LIMMAX
 10
510.9241598763287
 20
595.0000004330661
  9
$ORTHOMODE
 70
     1
  9
$REGENMODE
 70
     1
  9
$FILLMODE
 70
     1
  9
$QTEXTMODE
 70
     0
  9
$MIRRTEXT
 70
     1
  9
$LTSCALE
 40
8.0
  9
$ATTMODE
 70
     1
  9
$TEXTSIZE
 40
10.0
  9
$TRACEWID
 40
1.0
  9
$TEXTSTYLE
  7
NORM
  9
$CLAYER
  8
BEMASSUNG
  9
$CELTYPE
  6
BYLAYER
  9
$CECOLOR
 62
   256
  9
$CELTSCALE
 40
1.0
  9
$DISPSILH
 70
     0
  9
$DIMSCALE
 40
1.5
  9
$DIMASZ
 40
3.5
  9
$DIMEXO
 40
0.5
  9
$DIMDLI
 40
8.0
  9
$DIMRND
 40
0.0
  9
$DIMDLE
 40
0.0
  9
$DIMEXE
 40
1.3
  9
$DIMTP
 40
0.0
  9
$DIMTM
 40
0.0
  9
$DIMTXT
 40
3.5
  9
$DIMCEN
 40
1.5
  9
$DIMTSZ
 40
0.0
  9
$DIMTOL
 70
     0
  9
$DIMLIM
 70
     0
  9
$DIMTIH
 70
     0
  9
$DIMTOH
 70
     0
  9
$DIMSE1
 70
     0
  9
$DIMSE2
 70
     0
  9
$DIMTAD
 70
     1
  9
$DIMZIN
 70
     8
  9
$DIMBLK
  1

  9
$DIMASO
 70
     1
  9
$DIMSHO
 70
     1
  9
$DIMPOST
  1

  9
$DIMAPOST
  1

  9
$DIMALT
 70
     0
  9
$DIMALTD
 70
     2
  9
$DIMALTF
 40
25.39999999999999
  9
$DIMLFAC
 40
1.0
  9
$DIMTOFL
 70
     1
  9
$DIMTVP
 40
0.0
  9
$DIMTIX
 70
     1
  9
$DIMSOXD
 70
     0
  9
$DIMSAH
 70
     0
  9
$DIMBLK1
  1

  9
$DIMBLK2
  1

  9
$DIMSTYLE
  2
PROSPEKT
  9
$DIMCLRD
 70
     2
  9
$DIMCLRE
 70
     2
  9
$DIMCLRT
 70
     3
  9
$DIMTFAC
 40
0.5
  9
$DIMGAP
 40
1.0
  9
$DIMJUST
 70
     0
  9
$DIMSD1
 70
     0
  9
$DIMSD2
 70
     0
  9
$DIMTOLJ
 70
     1
  9
$DIMTZIN
 70
     8
  9
$DIMALTZ
 70
     8
  9
$DIMALTTZ
 70
     8
  9
$DIMUPT
 70
     0
  9
$DIMDEC
 70
     2
  9
$DIMTDEC
 70
     2
  9
$DIMALTU
 70
     2
  9
$DIMALTTD
 70
     2
  9
$DIMTXSTY
  7
NORM
  9
$DIMAUNIT
 70
     0
  9
$DIMADEC
 70
     0
  9
$DIMALTRND
 40
0.0
  9
$DIMAZIN
 70
     0
  9
$DIMDSEP
 70
    46
  9
$DIMATFIT
 70
     3
  9
$DIMFRAC
 70
     0
  9
$DIMLDRBLK
  1

  9
$DIMLUNIT
 70
     2
  9
$DIMLWD
 70
    -2
  9
$DIMLWE
 70
    -2
  9
$DIMTMOVE
 70
     2
  9
$LUNITS
 70
     2
  9
$LUPREC
 70
     2
  9
$SKETCHINC
 40
1.0
  9
$FILLETRAD
 40
0.0
  9
$AUNITS
 70
     0
  9
$AUPREC
 70
     0
  9
$MENU
  1
CADIM
  9
$ELEVATION
 40
0.0
  9
$PELEVATION
 40
0.0
  9
$THICKNESS
 40
0.0
  9
$LIMCHECK
 70
     0
  9
$CHAMFERA
 40
0.0
  9
$CHAMFERB
 40
0.0
  9
$CHAMFERC
 40
0.0
  9
$CHAMFERD
 40
0.0
  9
$SKPOLY
 70
     0
  9
$TDCREATE
 40
2450798.610737963
  9
$TDUCREATE
 40
2450798.527404629
  9
$TDUPDATE
 40
2452608.671982245
  9
$TDUUPDATE
 40
2452608.588648912
  9
$TDINDWG
 40
0.0528158681
  9
$TDUSRTIMER
 40
0.0528158681
  9
$USRTIMER
 70
     1
  9
$ANGBASE
 50
0.0
  9
$ANGDIR
 70
     0
  9
$PDMODE
 70
     0
  9
$PDSIZE
 40
-1.0
  9
$PLINEWID
 40
0.0
  9
$SPLFRAME
 70
     0
  9
$SPLINETYPE
 70
     6
  9
$SPLINESEGS
 70
     8
  9
$HANDSEED
  5
1D1
  9
$SURFTAB1
 70
    16
  9
$SURFTAB2
 70
    16
  9
$SURFTYPE
 70
     6
  9
$SURFU
 70
    12
  9
$SURFV
 70
    12
  9
$UCSBASE
  2

  9
$UCSNAME
  2

  9
$UCSORG
 10
0.0
 20
0.0
 30
0.0
  9
$UCSXDIR
 10
1.0
 20
0.0
 30
0.0
  9
$UCSYDIR
 10
0.0
 20
1.0
 30
0.0
  9
$UCSORTHOREF
  2

  9
$UCSORTHOVIEW
 70
     0
  9
$UCSORGTOP
 10
0.0
 20
0.0
 30
0.0
  9
$UCSORGBOTTOM
 10
0.0
 20
0.0
 30
0.0
  9
$UCSORGLEFT
 10
0.0
 20
0.0
 30
0.0
  9
$UCSORGRIGHT
 10
0.0
 20
0.0
 30
0.0
  9
$UCSORGFRONT
 10
0.0
 20
0.0
 30
0.0
  9
$UCSORGBACK
 10
0.0
 20
0.0
 30
0.0
  9
$PUCSBASE
  2

  9
$PUCSNAME
  2

  9
$PUCSORG
 10
0.0
 20
0.0
 30
0.0
  9
$PUCSXDIR
 10
1.0
 20
0.0
 30
0.0
  9
$PUCSYDIR
 10
0.0
 20
1.0
 30
0.0
  9
$PUCSORTHOREF
  2

  9
$PUCSORTHOVIEW
 70
     0
  9
$PUCSORGTOP
 10
0.0
 20
0.0
 30
0.0
  9
$PUCSORGBOTTOM
 10
0.0
 20
0.0
 30
0.0
  9
$PUCSORGLEFT
 10
0.0
 20
0.0
 30
0.0
  9
$PUCSORGRIGHT
 10
0.0
 20
0.0
 30
0.0
  9
$PUCSORGFRONT
 10
0.0
 20
0.0
 30
0.0
  9
$PUCSORGBACK
 10
0.0
 20
0.0
 30
0.0
  9
$USERI1
 70
     0
  9
$USERI2
 70
   100
  9
$USERI3
 70
     0
  9
$USERI4
 70
     0
  9
$USERI5
 70
     0
  9
$USERR1
 40
0.0
  9
$USERR2
 40
0.0
  9
$USERR3
 40
0.0
  9
$USERR4
 40
0.0
  9
$USERR5
 40
0.0
  9
$WORLDVIEW
 70
     1
  9
$SHADEDGE
 70
     3
  9
$SHADEDIF
 70
    70
  9
$TILEMODE
 70
     1
  9
$MAXACTVP
 70
    16
  9
$PINSBASE
 10
0.0
 20
0.0
 30
0.0
  9
$PLIMCHECK
 70
     0
  9
$PEXTMIN
 10
5.0
 20
5.0
 30
0.0
  9
$PEXTMAX
 10
415.0
 20
300.0
 30
0.0
  9
$PLIMMIN
 10
0.0
 20
0.0
  9
$PLIMMAX
 10
420.0
 20
297.0
  9
$UNITMODE
 70
     0
  9
$VISRETAIN
 70
     0
  9
$PLINEGEN
 70
     0
  9
$PSLTSCALE
 70
     0
  9
$TREEDEPTH
 70
  3020
  9
$CMLSTYLE
  2
STANDARD
  9
$CMLJUST
 70
     0
  9
$CMLSCALE
 40
1.0
  9
$PROXYGRAPHICS
 70
     1
  9
$MEASUREMENT
 70
     1
  9
$CELWEIGHT
370
    -1
  9
$ENDCAPS
280
     0
  9
$JOINSTYLE
280
     0
  9
$LWDISPLAY
290
     0
  9
$INSUNITS
 70
     4
  9
$HYPERLINKBASE
  1

  9
$STYLESHEET
  1

  9
$XEDIT
290
     1
  9
$CEPSNTYPE
380
     0
  9
$PSTYLEMODE
290
     1
  9
$FINGERPRINTGUID
  2
{D6C714D8-26B8-433A-B486-B4C09A974A0A}
  9
$VERSIONGUID
  2
{A3D772DD-0E29-402F-BA53-D46DF7864800}
  9
$EXTNAMES
290
     1
  9
$PSVPSCALE
 40
0.0
  9
$OLESTARTUP
290
     0
  0
ENDSEC
  0
SECTION
  2
CLASSES
  0
CLASS
  1
DICTIONARYVAR
  2
AcDbDictionaryVar
  3
AutoCAD 2000
 90
        0
280
     0
281
     0
  0
CLASS
  1
LWPOLYLINE
  2
AcDbPolyline
  3
AutoCAD 2000
 90
    32768
280
     0
281
     1
  0
CLASS
  1
XRECORD
  2
AcDbXrecord
  3
AutoCAD 2000
 90
    32768
280
     0
281
     0
  0
CLASS
  1
ACDBDICTIONARYWDFLT
  2
AcDbDictionaryWithDefault
  3
AutoCAD 2000
 90
        0
280
     0
281
     0
  0
CLASS
  1
ACDBPLACEHOLDER
  2
AcDbPlaceHolder
  3
AutoCAD 2000
 90
        0
280
     0
281
     0
  0
CLASS
  1
LAYOUT
  2
AcDbLayout
  3
AutoCAD 2000
 90
        0
280
     0
281
     0
  0
CLASS
  1
ACME_DOCUMENT
  2
AcMeDbDoc
  3
AcMeServices
 90
    32768
280
     0
281
     0
  0
CLASS
  1
AMGSETTINGSOBJ
  2
AmgSettingsObj
  3
"AcadM|Product Description: AutoCAD Mechanical 2000|Company: Autodesk"
 90
        0
280
     0
281
     0
  0
CLASS
  1
ACMESCOPE
  2
AcMeScope
  3
AcMeServices
 90
        0
280
     0
281
     0
  0
CLASS
  1
ACMECOMMANDHISTORY
  2
AcMeCommandHistory
  3
AcMeServices
 90
    32768
280
     0
281
     0
  0
CLASS
  1
ACIMSYSVARMAN
  2
AcImSysVarManager
  3
AcMeServices
 90
        0
280
     0
281
     0
  0
CLASS
  1
ACIMREALSYSVAR
  2
AcImRealSysVar
  3
AcMeServices
 90
    32768
280
     0
281
     0
  0
CLASS
  1
ACIMINTSYSVAR
  2
AcImIntSysVar
  3
AcMeServices
 90
    32768
280
     0
281
     0
  0
CLASS
  1
ACMEDRAWINGMAN
  2
AcMeDrawingMan
  3
AcMeServices
 90
    32768
280
     0
281
     0
  0
CLASS
  1
ACMEVIEW
  2
AcMeView
  3
AcMeServices
 90
    32768
280
     0
281
     0
  0
CLASS
  1
ACDBENTITYCACHE
  2
AcMeEntityCache
  3
AcMeServices
 90
    32768
280
     0
281
     0
  0
CLASS
  1
GSMANAGER
  2
AcMeGSManager
  3
AcMeServices
 90
    32768
280
     0
281
     0
  0
CLASS
  1
AMDTINTERNALREACTOR
  2
AmdtInternalReactor
  3
AcMeServices
 90
    32768
280
     0
281
     0
  0
CLASS
  1
ACMESTATEMGR
  2
AcMeStateMgr
  3
AcMeServices
 90
        0
280
     0
281
     0
  0
CLASS
  1
ACGREFMASTER
  2
AcGrefMaster
  3
AcAttribServices
 90
        0
280
     0
281
     0
  0
CLASS
  1
ACME_DATABASE
  2
AcMeDbDatabase
  3
AcMeServices
 90
    32768
280
     0
281
     0
  0
CLASS
  1
ACRFINSADJUSTERMGR
  2
AcRfInsAdjusterMgr
  3
AcMeServices
 90
    32768
280
     0
281
     0
  0
CLASS
  1
ACGREFACADMASTER
  2
AcGrefacadMaster
  3
AcGrefServices
 90
    32768
280
     0
281
     0
  0
CLASS
  1
AMIMASTER
  2
AmiMaster
  3
AmiServices
 90
    32768
280
     0
281
     0
  0
CLASS
  1
ACMDATADICTIONARY
  2
AcmDataDictionary
  3
"AcmSymBB|Product Description: AutoCAD Mechanical 2000|Company: Autodesk"
 90
    32768
280
     0
281
     0
  0
CLASS
  1
ACMDATAENTRYBLOCK
  2
AcmDataEntryBlock
  3
"AcmSymBB|Product Description: AutoCAD Mechanical 2000|Company: Autodesk"
 90
    32768
280
     0
281
     0
  0
CLASS
  1
ACIMSTRSYSVAR
  2
AcImStrSysVar
  3
AcMeServices
 90
        0
280
     0
281
     0
  0
CLASS
  1
ACMSTANDARDDIN
  2
AcmStandardDIN
  3
"Amdt_StdImp|Product Description: AutoCAD Mechanical 2000|Company: Autodesk"
 90
        0
280
     0
281
     0
  0
CLASS
  1
AMGOBJPROPCFG
  2
AmgObjPropCfg
  3
"AmgLay|Product Description: AutoCAD Mechanical 2000|Company: Autodesk"
 90
        1
280
     0
281
     0
  0
CLASS
  1
AMDTEDGESTANDARDDIN
  2
AmdtEdgeStdDIN
  3
"Amdt_StdImp|Product Description: AutoCAD Mechanical 2000|Company: Autodesk"
 90
        0
280
     0
281
     0
  0
CLASS
  1
ACMSURFSTANDARDDIN
  2
AcmSurfTextStdDIN
  3
"Amdt_StdImp|Product Description: AutoCAD Mechanical 2000|Company: Autodesk"
 90
        0
280
     0
281
     0
  0
CLASS
  1
ACMFCFSTANDARDDIN
  2
AcmFCFStdDIN
  3
"Amdt_StdImp|Product Description: AutoCAD Mechanical 2000|Company: Autodesk"
 90
        0
280
     0
281
     0
  0
CLASS
  1
ACMWELDSTANDARDDIN
  2
AcmWeldingStdDIN
  3
"Amdt_StdImp|Product Description: AutoCAD Mechanical 2000|Company: Autodesk"
 90
        0
280
     0
281
     0
  0
CLASS
  1
ACMIDSTANDARDDIN
  2
AcmIdStdDIN
  3
"Amdt_StdImp|Product Description: AutoCAD Mechanical 2000|Company: Autodesk"
 90
        0
280
     0
281
     0
  0
CLASS
  1
ACMDATUMSTANDARDDIN
  2
AcmDatumStdDIN
  3
"Amdt_StdImp|Product Description: AutoCAD Mechanical 2000|Company: Autodesk"
 90
        0
280
     0
281
     0
  0
CLASS
  1
ACMBOMSTANDARDDIN
  2
AcmBOMStdDIN
  3
"Amdt_StdImp|Product Description: AutoCAD Mechanical 2000|Company: Autodesk"
 90
        0
280
     0
281
     0
  0
CLASS
  1
ACMDETAILSTANDARDDIN
  2
AmdtDetailSymStdDIN
  3
"Amdt_StdImp|Product Description: AutoCAD Mechanical 2000|Company: Autodesk"
 90
        0
280
     0
281
     0
  0
CLASS
  1
ACMSECTIONSTANDARDDIN
  2
AmdtSectionSymStdDIN
  3
"Amdt_StdImp|Product Description: AutoCAD Mechanical 2000|Company: Autodesk"
 90
        0
280
     0
281
     0
  0
CLASS
  1
ACMCENTERLINESTANDARDDIN
  2
AmdtCenterLineStdDIN
  3
"Amdt_StdImp|Product Description: AutoCAD Mechanical 2000|Company: Autodesk"
 90
        0
280
     0
281
     0
  0
CLASS
  1
ACMNOTESTANDARDDIN
  2
AmdtNoteStdDIN
  3
"Amdt_StdImp|Product Description: AutoCAD Mechanical 2000|Company: Autodesk"
 90
        0
280
     0
281
     0
  0
CLASS
  1
ACAMGLAYSTD
  2
AcAmgLayStd
  3
"AcAmgLayStd|Product Description: AutoCAD Mechanical 2000|Company: Autodesk"
 90
        0
280
     0
281
     0
  0
CLASS
  1
ACAMGDIMSTD
  2
AcAmgDimStd
  3
"AcAmgDimStd|Product Description: AutoCAD Mechanical 2000|Company: Autodesk"
 90
        0
280
     0
281
     0
  0
CLASS
  1
ACAMGHOLECHARTSTDDIN
  2
AcAmgHoleChartStdDIN
  3
ACMSYMBB_MODULE_NAME
 90
        0
280
     0
281
     0
  0
CLASS
  1
ACAMGTITLESTD
  2
AcAmgTitleStd
  3
"TITLEAPP"
 90
        0
280
     0
281
     0
  0
CLASS
  1
ACAMGFILTERDAT
  2
AcAmgFilterDat
  3
"AcadM|Product Description: AutoCAD Mechanical 2000|Company: Autodesk"
 90
    32768
280
     0
281
     0
  0
CLASS
  1
LAYER_INDEX
  2
AcDbLayerIndex
  3
AutoCAD 2000
 90
    32768
280
     0
281
     0
  0
CLASS
  1
IDBUFFER
  2
AcDbIdBuffer
  3
AutoCAD 2000
 90
    32768
280
     0
281
     0
  0
ENDSEC
  0
SECTION
  2
TABLES
  0
TABLE
  2
VPORT
  5
1A
330
0
100
AcDbSymbolTable
 70
     1
  0
VPORT
  5
1B
330
1A
100
AcDbSymbolTableRecord
100
AcDbViewportTableRecord
  2
*Active
 70
     0
 10
0.0
 20
0.0
 11
1.0
 21
1.0
 12
517.5684598469804
 22
309.7476313119503
 13
0.0
 23
0.0
 14
50.0
 24
50.0
 15
20.0
 25
20.0
 16
0.0
 26
0.0
 36
1.0
 17
0.0
 27
0.0
 37
0.0
 40
631.9108320835755
 41
1.712406015037593
 42
50.0
 43
-210.0
 44
-210.0
 50
0.0
 51
0.0
 71
     0
 72
  5000
 73
     1
 74
     2
 75
     0
 76
     0
 77
     0
 78
     2
281
     0
 65
     1
110
0.0
120
0.0
130
0.0
111
1.0
121
0.0
131
0.0
112
0.0
122
1.0
132
0.0
 79
     0
146
0.0
  0
ENDTAB
  0
TABLE
  2
LTYPE
  5
15
330
0
100
AcDbSymbolTable
 70
    13
  0
LTYPE
  5
16
330
15
100
AcDbSymbolTableRecord
100
AcDbLinetypeTableRecord
  2
BYBLOCK
 70
     0
  3

 72
    65
 73
     0
 40
0.0
  0
LTYPE
  5
17
330
15
100
AcDbSymbolTableRecord
100
AcDbLinetypeTableRecord
  2
BYLAYER
 70
     0
  3

 72
    65
 73
     0
 40
0.0
  0
LTYPE
  5
9
330
15
100
AcDbSymbolTableRecord
100
AcDbLinetypeTableRecord
  2
CONTINUOUS
 70
     0
  3
Solid line
 72
    65
 73
     0
 40
0.0
  0
LTYPE
  5
29
330
15
100
AcDbSymbolTableRecord
100
AcDbLinetypeTableRecord
  2
STRICHPUNKT
 70
     0
  3
__ . __ . __ . __ . __ . __ . __ . __ . __ . __
 72
    65
 73
     4
 40
1.0
 49
0.5
 74
     0
 49
-0.25
 74
     0
 49
0.0
 74
     0
 49
-0.25
 74
     0
  0
LTYPE
  5
1AA
330
15
100
AcDbSymbolTableRecord
100
AcDbLinetypeTableRecord
  2
AM_ISO02W050
 70
     0
  3
__ __ __ __ __ __ __ __ __ __ __ __ __ __ __
 72
    65
 73
     2
 40
7.5
 49
6.0
 74
     0
 49
-1.5
 74
     0
  0
LTYPE
  5
1BC
330
15
100
AcDbSymbolTableRecord
100
AcDbLinetypeTableRecord
  2
ACDINWELD
 70
     0
  3
_ _ _ _ _
 72
    65
 73
     2
 40
2.0
 49
2.0
 74
     0
 49
-1.0
 74
     0
  0
LTYPE
  5
1BF
330
15
100
AcDbSymbolTableRecord
100
AcDbLinetypeTableRecord
  2
ACDINTGB
 70
     0
  3
__ . . __ . .
 72
    65
 73
     6
 40
9.0
 49
4.0
 74
     0
 49
-1.0
 74
     0
 49
1.0
 74
     0
 49
-1.0
 74
     0
 49
1.0
 74
     0
 49
-1.0
 74
     0
  0
LTYPE
  5
1C0
330
15
100
AcDbSymbolTableRecord
100
AcDbLinetypeTableRecord
  2
ACDINTGL
 70
     0
  3
_ _ _ _ _
 72
    65
 73
     2
 40
3.0
 49
2.0
 74
     0
 49
-1.0
 74
     0
  0
LTYPE
  5
1C4
330
15
100
AcDbSymbolTableRecord
100
AcDbLinetypeTableRecord
  2
CENTER
 70
     0
  3
__ . __
 72
    65
 73
     4
 40
7.0
 49
4.0
 74
     0
 49
-1.0
 74
     0
 49
1.0
 74
     0
 49
-1.0
 74
     0
  0
LTYPE
  5
1A5
330
15
100
AcDbSymbolTableRecord
100
AcDbLinetypeTableRecord
  2
gen3
 70
     0
  3
-- -- -- -- -- -- -- -- -- -- -- -- -- -- --
 72
    65
 73
     2
 40
6.25
 49
4.75
 74
     0
 49
-1.5
 74
     0
  0
LTYPE
  5
1A6
330
15
100
AcDbSymbolTableRecord
100
AcDbLinetypeTableRecord
  2
gen7
 70
     0
  3
____ . ____ . ____ . ____ . ____ . ____ . ____
 72
    65
 73
     4
 40
13.75
 49
9.75
 74
     0
 49
-1.5
 74
     0
 49
1.0
 74
     0
 49
-1.5
 74
     0
  0
LTYPE
  5
1A7
330
15
100
AcDbSymbolTableRecord
100
AcDbLinetypeTableRecord
  2
gen3a
 70
     0
  3
 - - - - -
 72
    65
 73
     2
 40
3.125
 49
2.25
 74
     0
 49
-0.875
 74
     0
  0
LTYPE
  5
1A8
330
15
100
AcDbSymbolTableRecord
100
AcDbLinetypeTableRecord
  2
gen7a
 70
     0
  3
__ . __ . __
 72
    65
 73
     4
 40
6.875
 49
4.75
 74
     0
 49
-0.875
 74
     0
 49
0.375
 74
     0
 49
-0.875
 74
     0
  0
LTYPE
  5
1A9
330
15
100
AcDbSymbolTableRecord
100
AcDbLinetypeTableRecord
  2
gen4a
 70
     0
  3
_____ . . _____ . . _____ . . ____ .. ____
 72
    65
 73
     6
 40
16.25
 49
9.75
 74
     0
 49
-1.5
 74
     0
 49
1.0
 74
     0
 49
-1.5
 74
     0
 49
1.0
 74
     0
 49
-1.5
 74
     0
  0
LTYPE
  5
1AB
330
15
100
AcDbSymbolTableRecord
100
AcDbLinetypeTableRecord
  2
genzigzag
 70
     0
  3
/\/-/\/-/\/-/\/-/\/-/\/
 72
    65
 73
     2
 40
12.0001
 49
0.0001
 74
     4
 75
   135
340
1AC
 46
2.0
 50
0.0
 44
0.0
 45
0.0
 49
-12.0
 74
     0
  0
ENDTAB
  0
TABLE
  2
LAYER
  5
11
330
0
100
AcDbSymbolTable
 70
     6
  0
LAYER
  5
5
330
11
100
AcDbSymbolTableRecord
100
AcDbLayerTableRecord
  2
0
 70
     0
 62
     7
  6
CONTINUOUS
370
    -3
390
6
  0
LAYER
  5
23
330
11
100
AcDbSymbolTableRecord
100
AcDbLayerTableRecord
  2
BEMASSUNG
 70
     0
 62
     2
  6
CONTINUOUS
370
    -3
390
6
  0
LAYER
  5
28
330
11
100
AcDbSymbolTableRecord
100
AcDbLayerTableRecord
  2
ACHSEN
 70
     0
 62
    12
  6
STRICHPUNKT
370
    -3
390
6
  0
LAYER
  5
34
330
11
100
AcDbSymbolTableRecord
100
AcDbLayerTableRecord
  2
DEFPOINTS
 70
     0
 62
     7
  6
CONTINUOUS
290
     0
370
    -3
390
6
  0
LAYER
  5
2B
330
11
100
AcDbSymbolTableRecord
100
AcDbLayerTableRecord
  2
LAYER1
 70
     0
 62
     3
  6
CONTINUOUS
370
    -3
390
6
  0
LAYER
  5
61
330
11
100
AcDbSymbolTableRecord
100
AcDbLayerTableRecord
  2
LAYER3
 70
     0
 62
     4
  6
CONTINUOUS
370
    -3
390
6
  0
ENDTAB
  0
TABLE
  2
STYLE
  5
12
330
0
100
AcDbSymbolTable
 70
     5
  0
STYLE
  5
13
330
12
100
AcDbSymbolTableRecord
100
AcDbTextStyleTableRecord
  2
STANDARD
 70
     0
 40
0.0
 41
1.0
 50
0.0
 71
     0
 42
3.5
  3
txt
  4

  0
STYLE
  5
24
330
12
100
AcDbSymbolTableRecord
100
AcDbTextStyleTableRecord
  2
NORM
 70
     0
 40
0.0
 41
1.0
 50
0.0
 71
     0
 42
10.0
  3
SIMPLEX
  4

  0
STYLE
  5
1B6
330
12
100
AcDbSymbolTableRecord
100
AcDbTextStyleTableRecord
  2
ACDINTS
 70
     0
 40
1.0
 41
1.0
 50
0.0
 71
     0
 42
10.0
  3
isocp.shx
  4

  0
STYLE
  5
1BA
330
12
100
AcDbSymbolTableRecord
100
AcDbTextStyleTableRecord
  2
ACDINGDT
 70
     0
 40
0.0
 41
1.0
 50
0.0
 71
     0
 42
10.0
  3
amgdt.shx
  4

  0
STYLE
  5
1AC
330
12
100
AcDbSymbolTableRecord
100
AcDbTextStyleTableRecord
  2

 70
     1
 40
0.0
 41
1.0
 50
0.0
 71
     0
 42
10.0
  3
genltshp.shx
  4

  0
ENDTAB
  0
TABLE
  2
VIEW
  5
18
330
0
100
AcDbSymbolTable
 70
     0
  0
ENDTAB
  0
TABLE
  2
UCS
  5
19
330
0
100
AcDbSymbolTable
 70
     0
  0
ENDTAB
  0
TABLE
  2
APPID
  5
1C
330
0
100
AcDbSymbolTable
 70
     1
  0
APPID
  5
1D
330
1C
100
AcDbSymbolTableRecord
100
AcDbRegAppTableRecord
  2
ACAD
 70
     0
  0
ENDTAB
  0
TABLE
  2
DIMSTYLE
  5
1E
330
0
100
AcDbSymbolTable
 70
     1
100
AcDbDimStyleTable
 71
     0
  0
DIMSTYLE
105
26
102
{ACAD_REACTORS
330
EA
330
B2
330
A4
330
126
330
80
330
119
330
72
330
62
330
10C
330
FD
330
53
330
133
330
8D
330
DB
330
46
330
39
330
2A
330
143
102
}
330
1E
100
AcDbSymbolTableRecord
100
AcDbDimStyleTableRecord
  2
PROSPEKT
 70
     0
 40
1.5
 41
3.5
 42
0.5
 43
8.0
 44
1.3
 73
     0
 74
     0
 77
     1
 78
     8
140
3.5
141
1.5
143
25.39999999999999
146
0.5
147
1.0
172
     1
174
     1
176
     2
177
     2
178
     3
271
     2
272
     2
279
     2
284
     8
285
     8
286
     8
340
24
  0
ENDTAB
  0
TABLE
  2
BLOCK_RECORD
  5
1
330
0
100
AcDbSymbolTable
 70
    18
  0
BLOCK_RECORD
  5
2
102
{ACAD_XDICTIONARY
360
3
102
}
330
1
100
AcDbSymbolTableRecord
100
AcDbBlockTableRecord
  2
*MODEL_SPACE
340
B
  0
BLOCK_RECORD
  5
D
330
1
100
AcDbSymbolTableRecord
100
AcDbBlockTableRecord
  2
*PAPER_SPACE
340
10
  0
BLOCK_RECORD
  5
144
330
1
100
AcDbSymbolTableRecord
100
AcDbBlockTableRecord
  2
*D0
340
0
  0
BLOCK_RECORD
  5
2C
330
1
100
AcDbSymbolTableRecord
100
AcDbBlockTableRecord
  2
*D1
340
0
  0
BLOCK_RECORD
  5
3A
330
1
100
AcDbSymbolTableRecord
100
AcDbBlockTableRecord
  2
*D2
340
0
  0
BLOCK_RECORD
  5
8E
330
1
100
AcDbSymbolTableRecord
100
AcDbBlockTableRecord
  2
*D3
340
0
  0
BLOCK_RECORD
  5
11A
330
1
100
AcDbSymbolTableRecord
100
AcDbBlockTableRecord
  2
*D4
340
0
  0
BLOCK_RECORD
  5
81
330
1
100
AcDbSymbolTableRecord
100
AcDbBlockTableRecord
  2
*D5
340
0
  0
BLOCK_RECORD
  5
63
330
1
100
AcDbSymbolTableRecord
100
AcDbBlockTableRecord
  2
*D6
340
0
  0
BLOCK_RECORD
  5
73
330
1
100
AcDbSymbolTableRecord
100
AcDbBlockTableRecord
  2
*D7
340
0
  0
BLOCK_RECORD
  5
A5
330
1
100
AcDbSymbolTableRecord
100
AcDbBlockTableRecord
  2
*D8
340
0
  0
BLOCK_RECORD
  5
B3
330
1
100
AcDbSymbolTableRecord
100
AcDbBlockTableRecord
  2
*D9
340
0
  0
BLOCK_RECORD
  5
FE
330
1
100
AcDbSymbolTableRecord
100
AcDbBlockTableRecord
  2
*D10
340
0
  0
BLOCK_RECORD
  5
10D
330
1
100
AcDbSymbolTableRecord
100
AcDbBlockTableRecord
  2
*D11
340
0
  0
BLOCK_RECORD
  5
127
330
1
100
AcDbSymbolTableRecord
100
AcDbBlockTableRecord
  2
*D12
340
0
  0
BLOCK_RECORD
  5
47
330
1
100
AcDbSymbolTableRecord
100
AcDbBlockTableRecord
  2
*D13
340
0
  0
BLOCK_RECORD
  5
54
330
1
100
AcDbSymbolTableRecord
100
AcDbBlockTableRecord
  2
*D14
340
0
  0
BLOCK_RECORD
  5
EB
330
1
100
AcDbSymbolTableRecord
100
AcDbBlockTableRecord
  2
*D15
340
0
  0
BLOCK_RECORD
  5
DC
330
1
100
AcDbSymbolTableRecord
100
AcDbBlockTableRecord
  2
*D16
340
0
  0
BLOCK_RECORD
  5
134
330
1
100
AcDbSymbolTableRecord
100
AcDbBlockTableRecord
  2
*D17
340
0
  0
ENDTAB
  0
ENDSEC
  0
SECTION
  2
BLOCKS
  0
BLOCK
  5
4
330
2
100
AcDbEntity
  8
0
100
AcDbBlockBegin
  2
*MODEL_SPACE
 70
     0
 10
0.0
 20
0.0
 30
0.0
  3
*MODEL_SPACE
  1

  0
ENDBLK
  5
A
330
2
100
AcDbEntity
  8
0
100
AcDbBlockEnd
  0
BLOCK
  5
E
330
D
100
AcDbEntity
 67
     1
  8
0
100
AcDbBlockBegin
  2
*PAPER_SPACE
 70
     0
 10
0.0
 20
0.0
 30
0.0
  3
*PAPER_SPACE
  1

  0
ENDBLK
  5
F
330
D
100
AcDbEntity
 67
     1
  8
0
100
AcDbBlockEnd
  0
BLOCK
  5
14E
330
144
100
AcDbEntity
  8
0
100
AcDbBlockBegin
  2
*D0
 70
     1
 10
0.0
 20
0.0
 30
0.0
  3
*D0
  1

  0
LINE
  5
145
330
144
100
AcDbEntity
  8
0
  6
ByBlock
 62
     2
100
AcDbLine
 10
366.9261804874606
 20
313.5683761686724
 30
0.0
 11
393.8979916337399
 21
313.5683761686724
 31
0.0
  0
LINE
  5
146
330
144
100
AcDbEntity
  8
0
  6
ByBlock
 62
     2
100
AcDbLine
 10
365.9261804874606
 20
360.5683761686724
 30
0.0
 11
393.8979916337399
 21
360.5683761686724
 31
0.0
  0
LINE
  5
147
330
144
100
AcDbEntity
  8
0
  6
ByBlock
 62
     2
100
AcDbLine
 10
391.9479916337399
 20
318.8183761686724
 30
0.0
 11
391.9479916337399
 21
355.3183761686724
 31
0.0
  0
SOLID
  5
148
330
144
100
AcDbEntity
  8
0
  6
ByBlock
 62
     2
100
AcDbTrace
 10
391.0729916337399
 20
318.8183761686724
 30
0.0
 11
392.8229916337399
 21
318.8183761686724
 31
0.0
 12
391.9479916337399
 22
313.5683761686724
 32
0.0
 13
391.9479916337399
 23
313.5683761686724
 33
0.0
  0
SOLID
  5
149
330
144
100
AcDbEntity
  8
0
  6
ByBlock
 62
     2
100
AcDbTrace
 10
391.0729916337399
 20
355.3183761686724
 30
0.0
 11
392.8229916337399
 21
355.3183761686724
 31
0.0
 12
391.9479916337399
 22
360.5683761686724
 32
0.0
 13
391.9479916337399
 23
360.5683761686724
 33
0.0
  0
MTEXT
  5
14A
330
144
100
AcDbEntity
  8
0
  6
ByBlock
 62
     3
100
AcDbMText
 10
387.8229916337399
 20
337.0683761686724
 30
0.0
 40
5.25
 41
0.0
 71
     5
 72
     1
  1
\A1;47
  7
NORM
 11
0.0000000000000001
 21
1.0
 31
0.0
 73
     1
 44
1.0
  0
POINT
  5
14B
330
144
100
AcDbEntity
  8
DEFPOINTS
  6
ByBlock
 62
     0
100
AcDbPoint
 10
366.1761804874606
 20
313.5683761686724
 30
0.0
  0
POINT
  5
14C
330
144
100
AcDbEntity
  8
DEFPOINTS
  6
ByBlock
 62
     0
100
AcDbPoint
 10
365.1761804874606
 20
360.5683761686724
 30
0.0
  0
POINT
  5
14D
330
144
100
AcDbEntity
  8
DEFPOINTS
  6
ByBlock
 62
     0
100
AcDbPoint
 10
391.9479916337399
 20
360.5683761686724
 30
0.0
  0
ENDBLK
  5
14F
330
144
100
AcDbEntity
  8
0
100
AcDbBlockEnd
  0
BLOCK
  5
37
330
2C
100
AcDbEntity
  8
0
100
AcDbBlockBegin
  2
*D1
 70
     1
 10
0.0
 20
0.0
 30
0.0
  3
*D1
  1

  0
LINE
  5
2D
330
2C
100
AcDbEntity
  8
0
  6
ByBlock
 62
     2
100
AcDbLine
 10
365.9261804874606
 20
280.5683761686724
 30
0.0
 11
405.8264625351661
 21
280.5683761686724
 31
0.0
  0
LINE
  5
2E
330
2C
100
AcDbEntity
  8
0
  6
ByBlock
 62
     2
100
AcDbLine
 10
365.9261804874606
 20
360.5683761686724
 30
0.0
 11
405.8264625351661
 21
360.5683761686724
 31
0.0
  0
LINE
  5
2F
330
2C
100
AcDbEntity
  8
0
  6
ByBlock
 62
     2
100
AcDbLine
 10
403.8764625351661
 20
285.8183761686724
 30
0.0
 11
403.8764625351661
 21
355.3183761686724
 31
0.0
  0
SOLID
  5
30
330
2C
100
AcDbEntity
  8
0
  6
ByBlock
 62
     2
100
AcDbTrace
 10
403.0014625351661
 20
285.8183761686724
 30
0.0
 11
404.7514625351661
 21
285.8183761686724
 31
0.0
 12
403.8764625351661
 22
280.5683761686724
 32
0.0
 13
403.8764625351661
 23
280.5683761686724
 33
0.0
  0
SOLID
  5
31
330
2C
100
AcDbEntity
  8
0
  6
ByBlock
 62
     2
100
AcDbTrace
 10
403.0014625351661
 20
355.3183761686724
 30
0.0
 11
404.7514625351661
 21
355.3183761686724
 31
0.0
 12
403.8764625351661
 22
360.5683761686724
 32
0.0
 13
403.8764625351661
 23
360.5683761686724
 33
0.0
  0
MTEXT
  5
32
330
2C
100
AcDbEntity
  8
0
  6
ByBlock
 62
     3
100
AcDbMText
 10
399.7514625351661
 20
320.5683761686724
 30
0.0
 40
5.25
 41
0.0
 71
     5
 72
     1
  1
\A1;80
  7
NORM
 11
0.0000000000000001
 21
1.0
 31
0.0
 73
     1
 44
1.0
  0
POINT
  5
33
330
2C
100
AcDbEntity
  8
DEFPOINTS
  6
ByBlock
 62
     0
100
AcDbPoint
 10
365.1761804874606
 20
280.5683761686724
 30
0.0
  0
POINT
  5
35
330
2C
100
AcDbEntity
  8
DEFPOINTS
  6
ByBlock
 62
     0
100
AcDbPoint
 10
365.1761804874606
 20
360.5683761686724
 30
0.0
  0
POINT
  5
36
330
2C
100
AcDbEntity
  8
DEFPOINTS
  6
ByBlock
 62
     0
100
AcDbPoint
 10
403.8764625351661
 20
360.5683761686724
 30
0.0
  0
ENDBLK
  5
38
330
2C
100
AcDbEntity
  8
0
100
AcDbBlockEnd
  0
BLOCK
  5
44
330
3A
100
AcDbEntity
  8
0
100
AcDbBlockBegin
  2
*D2
 70
     1
 10
0.0
 20
0.0
 30
0.0
  3
*D2
  1

  0
LINE
  5
3B
330
3A
100
AcDbEntity
  8
0
  6
ByBlock
 62
     2
100
AcDbLine
 10
365.9261804874606
 20
280.5683761686724
 30
0.0
 11
393.8979916337399
 21
280.5683761686724
 31
0.0
  0
LINE
  5
3C
330
3A
100
AcDbEntity
  8
0
  6
ByBlock
 62
     2
100
AcDbLine
 10
366.9261804874606
 20
313.5683761686724
 30
0.0
 11
393.8979916337399
 21
313.5683761686724
 31
0.0
  0
LINE
  5
3D
330
3A
100
AcDbEntity
  8
0
  6
ByBlock
 62
     2
100
AcDbLine
 10
391.9479916337399
 20
285.8183761686724
 30
0.0
 11
391.9479916337399
 21
308.3183761686724
 31
0.0
  0
SOLID
  5
3E
330
3A
100
AcDbEntity
  8
0
  6
ByBlock
 62
     2
100
AcDbTrace
 10
391.0729916337399
 20
285.8183761686724
 30
0.0
 11
392.8229916337399
 21
285.8183761686724
 31
0.0
 12
391.9479916337399
 22
280.5683761686724
 32
0.0
 13
391.9479916337399
 23
280.5683761686724
 33
0.0
  0
SOLID
  5
3F
330
3A
100
AcDbEntity
  8
0
  6
ByBlock
 62
     2
100
AcDbTrace
 10
391.0729916337399
 20
308.3183761686724
 30
0.0
 11
392.8229916337399
 21
308.3183761686724
 31
0.0
 12
391.9479916337399
 22
313.5683761686724
 32
0.0
 13
391.9479916337399
 23
313.5683761686724
 33
0.0
  0
MTEXT
  5
40
330
3A
100
AcDbEntity
  8
0
  6
ByBlock
 62
     3
100
AcDbMText
 10
387.8229916337399
 20
297.0683761686724
 30
0.0
 40
5.25
 41
0.0
 71
     5
 72
     1
  1
\A1;33
  7
NORM
 11
0.0000000000000001
 21
1.0
 31
0.0
 73
     1
 44
1.0
  0
POINT
  5
41
330
3A
100
AcDbEntity
  8
DEFPOINTS
  6
ByBlock
 62
     0
100
AcDbPoint
 10
365.1761804874606
 20
280.5683761686724
 30
0.0
  0
POINT
  5
42
330
3A
100
AcDbEntity
  8
DEFPOINTS
  6
ByBlock
 62
     0
100
AcDbPoint
 10
366.1761804874606
 20
313.5683761686724
 30
0.0
  0
POINT
  5
43
330
3A
100
AcDbEntity
  8
DEFPOINTS
  6
ByBlock
 62
     0
100
AcDbPoint
 10
391.9479916337399
 20
313.5683761686724
 30
0.0
  0
ENDBLK
  5
45
330
3A
100
AcDbEntity
  8
0
100
AcDbBlockEnd
  0
BLOCK
  5
98
330
8E
100
AcDbEntity
  8
0
100
AcDbBlockBegin
  2
*D3
 70
     1
 10
0.0
 20
0.0
 30
0.0
  3
*D3
  1

  0
LINE
  5
8F
330
8E
100
AcDbEntity
  8
0
  6
ByBlock
 62
     2
100
AcDbLine
 10
381.9261804874606
 20
207.3266387892615
 30
0.0
 11
393.5937157469076
 21
207.3266387892615
 31
0.0
  0
LINE
  5
90
330
8E
100
AcDbEntity
  8
0
  6
ByBlock
 62
     2
100
AcDbLine
 10
381.9261804874606
 20
193.3266387892615
 30
0.0
 11
393.5937157469076
 21
193.3266387892615
 31
0.0
  0
LINE
  5
91
330
8E
100
AcDbEntity
  8
0
  6
ByBlock
 62
     2
100
AcDbLine
 10
391.6437157469076
 20
202.0766387892614
 30
0.0
 11
391.6437157469076
 21
198.5766387892615
 31
0.0
  0
MTEXT
  5
92
330
8E
100
AcDbEntity
  8
0
  6
ByBlock
 62
     3
100
AcDbMText
 10
386.7734085941549
 20
200.3266387892614
 30
0.0
 40
5.25
 41
0.0
 71
     5
 72
     1
  1
\A1;14
  7
NORM
 11
0.0000000000000001
 21
1.0
 31
0.0
 73
     1
 44
1.0
  0
SOLID
  5
93
330
8E
100
AcDbEntity
  8
0
  6
ByBlock
 62
     2
100
AcDbTrace
 10
390.7687157469077
 20
202.0766387892614
 30
0.0
 11
392.5187157469076
 21
202.0766387892614
 31
0.0
 12
391.6437157469076
 22
207.3266387892615
 32
0.0
 13
391.6437157469076
 23
207.3266387892615
 33
0.0
  0
SOLID
  5
94
330
8E
100
AcDbEntity
  8
0
  6
ByBlock
 62
     2
100
AcDbTrace
 10
390.7687157469077
 20
198.5766387892615
 30
0.0
 11
392.5187157469076
 21
198.5766387892615
 31
0.0
 12
391.6437157469076
 22
193.3266387892615
 32
0.0
 13
391.6437157469076
 23
193.3266387892615
 33
0.0
  0
POINT
  5
95
330
8E
100
AcDbEntity
  8
DEFPOINTS
  6
ByBlock
 62
     0
100
AcDbPoint
 10
381.1761804874606
 20
207.3266387892615
 30
0.0
  0
POINT
  5
96
330
8E
100
AcDbEntity
  8
DEFPOINTS
  6
ByBlock
 62
     0
100
AcDbPoint
 10
381.1761804874606
 20
193.3266387892615
 30
0.0
  0
POINT
  5
97
330
8E
100
AcDbEntity
  8
DEFPOINTS
  6
ByBlock
 62
     0
100
AcDbPoint
 10
391.6437157469076
 20
193.3266387892615
 30
0.0
  0
ENDBLK
  5
99
330
8E
100
AcDbEntity
  8
0
100
AcDbBlockEnd
  0
BLOCK
  5
124
330
11A
100
AcDbEntity
  8
0
100
AcDbBlockBegin
  2
*D4
 70
     1
 10
0.0
 20
0.0
 30
0.0
  3
*D4
  1

  0
LINE
  5
11B
330
11A
100
AcDbEntity
  8
0
  6
ByBlock
 62
     2
100
AcDbLine
 10
329.1780678934179
 20
298.5683761686724
 30
0.0
 11
311.7310928226961
 21
298.5683761686724
 31
0.0
  0
LINE
  5
11C
330
11A
100
AcDbEntity
  8
0
  6
ByBlock
 62
     2
100
AcDbLine
 10
329.1780678934179
 20
328.5683761686724
 30
0.0
 11
311.7310928226961
 21
328.5683761686724
 31
0.0
  0
LINE
  5
11D
330
11A
100
AcDbEntity
  8
0
  6
ByBlock
 62
     2
100
AcDbLine
 10
313.6810928226961
 20
303.8183761686724
 30
0.0
 11
313.6810928226961
 21
323.3183761686724
 31
0.0
  0
SOLID
  5
11E
330
11A
100
AcDbEntity
  8
0
  6
ByBlock
 62
     2
100
AcDbTrace
 10
312.8060928226961
 20
303.8183761686724
 30
0.0
 11
314.5560928226961
 21
303.8183761686724
 31
0.0
 12
313.6810928226961
 22
298.5683761686724
 32
0.0
 13
313.6810928226961
 23
298.5683761686724
 33
0.0
  0
SOLID
  5
11F
330
11A
100
AcDbEntity
  8
0
  6
ByBlock
 62
     2
100
AcDbTrace
 10
312.8060928226961
 20
323.3183761686724
 30
0.0
 11
314.5560928226961
 21
323.3183761686724
 31
0.0
 12
313.6810928226961
 22
328.5683761686724
 32
0.0
 13
313.6810928226961
 23
328.5683761686724
 33
0.0
  0
MTEXT
  5
120
330
11A
100
AcDbEntity
  8
0
  6
ByBlock
 62
     3
100
AcDbMText
 10
309.5560928226961
 20
313.5683761686724
 30
0.0
 40
5.25
 41
0.0
 71
     5
 72
     1
  1
\A1;30
  7
NORM
 11
0.0000000000000001
 21
1.0
 31
0.0
 73
     1
 44
1.0
  0
POINT
  5
121
330
11A
100
AcDbEntity
  8
DEFPOINTS
  6
ByBlock
 62
     0
100
AcDbPoint
 10
329.9280678934179
 20
298.5683761686724
 30
0.0
  0
POINT
  5
122
330
11A
100
AcDbEntity
  8
DEFPOINTS
  6
ByBlock
 62
     0
100
AcDbPoint
 10
329.9280678934179
 20
328.5683761686724
 30
0.0
  0
POINT
  5
123
330
11A
100
AcDbEntity
  8
DEFPOINTS
  6
ByBlock
 62
     0
100
AcDbPoint
 10
313.6810928226961
 20
328.5683761686724
 30
0.0
  0
ENDBLK
  5
125
330
11A
100
AcDbEntity
  8
0
100
AcDbBlockEnd
  0
BLOCK
  5
8B
330
81
100
AcDbEntity
  8
0
100
AcDbBlockBegin
  2
*D5
 70
     1
 10
0.0
 20
0.0
 30
0.0
  3
*D5
  1

  0
LINE
  5
82
330
81
100
AcDbEntity
  8
0
  6
ByBlock
 62
     2
100
AcDbLine
 10
333.9322804358514
 20
207.5764440611556
 30
0.0
 11
319.3550860041712
 21
207.5764440611556
 31
0.0
  0
LINE
  5
83
330
81
100
AcDbEntity
  8
0
  6
ByBlock
 62
     2
100
AcDbLine
 10
333.9322804358514
 20
193.0768335173674
 30
0.0
 11
319.3550860041712
 21
193.0768335173674
 31
0.0
  0
LINE
  5
84
330
81
100
AcDbEntity
  8
0
  6
ByBlock
 62
     2
100
AcDbLine
 10
321.3050860041712
 20
202.3264440611555
 30
0.0
 11
321.3050860041712
 21
198.3268335173674
 31
0.0
  0
MTEXT
  5
85
330
81
100
AcDbEntity
  8
0
  6
ByBlock
 62
     3
100
AcDbMText
 10
315.2013148597724
 20
200.5137817918474
 30
0.0
 40
5.25
 41
0.0
 71
     5
 72
     1
  1
\A1;\U+220514.5
  7
NORM
 11
0.0000000000000001
 21
1.0
 31
0.0
 73
     1
 44
1.0
  0
SOLID
  5
86
330
81
100
AcDbEntity
  8
0
  6
ByBlock
 62
     2
100
AcDbTrace
 10
320.4300860041712
 20
202.3264440611555
 30
0.0
 11
322.1800860041712
 21
202.3264440611555
 31
0.0
 12
321.3050860041712
 22
207.5764440611556
 32
0.0
 13
321.3050860041712
 23
207.5764440611556
 33
0.0
  0
SOLID
  5
87
330
81
100
AcDbEntity
  8
0
  6
ByBlock
 62
     2
100
AcDbTrace
 10
320.4300860041712
 20
198.3268335173674
 30
0.0
 11
322.1800860041712
 21
198.3268335173674
 31
0.0
 12
321.3050860041712
 22
193.0768335173674
 32
0.0
 13
321.3050860041712
 23
193.0768335173674
 33
0.0
  0
POINT
  5
88
330
81
100
AcDbEntity
  8
DEFPOINTS
  6
ByBlock
 62
     0
100
AcDbPoint
 10
334.6822804358513
 20
207.5764440611556
 30
0.0
  0
POINT
  5
89
330
81
100
AcDbEntity
  8
DEFPOINTS
  6
ByBlock
 62
     0
100
AcDbPoint
 10
334.6822804358513
 20
193.0768335173674
 30
0.0
  0
POINT
  5
8A
330
81
100
AcDbEntity
  8
DEFPOINTS
  6
ByBlock
 62
     0
100
AcDbPoint
 10
321.3050860041712
 20
193.0768335173674
 30
0.0
  0
ENDBLK
  5
8C
330
81
100
AcDbEntity
  8
0
100
AcDbBlockEnd
  0
BLOCK
  5
6D
330
63
100
AcDbEntity
  8
0
100
AcDbBlockBegin
  2
*D6
 70
     1
 10
0.0
 20
0.0
 30
0.0
  3
*D6
  1

  0
LINE
  5
64
330
63
100
AcDbEntity
  8
0
  6
ByBlock
 62
     2
100
AcDbLine
 10
342.4261804874606
 20
280.5683761686724
 30
0.0
 11
311.7310928226961
 21
280.5683761686724
 31
0.0
  0
LINE
  5
65
330
63
100
AcDbEntity
  8
0
  6
ByBlock
 62
     2
100
AcDbLine
 10
329.1780678934179
 20
298.5683761686724
 30
0.0
 11
311.7310928226961
 21
298.5683761686724
 31
0.0
  0
LINE
  5
66
330
63
100
AcDbEntity
  8
0
  6
ByBlock
 62
     2
100
AcDbLine
 10
313.6810928226961
 20
285.8183761686724
 30
0.0
 11
313.6810928226961
 21
293.3183761686724
 31
0.0
  0
MTEXT
  5
67
330
63
100
AcDbEntity
  8
0
  6
ByBlock
 62
     3
100
AcDbMText
 10
308.8467832086108
 20
289.5683761686724
 30
0.0
 40
5.25
 41
0.0
 71
     5
 72
     1
  1
\A1;18
  7
NORM
 11
0.0000000000000001
 21
1.0
 31
0.0
 73
     1
 44
1.0
  0
SOLID
  5
68
330
63
100
AcDbEntity
  8
0
  6
ByBlock
 62
     2
100
AcDbTrace
 10
312.8060928226961
 20
285.8183761686724
 30
0.0
 11
314.5560928226961
 21
285.8183761686724
 31
0.0
 12
313.6810928226961
 22
280.5683761686724
 32
0.0
 13
313.6810928226961
 23
280.5683761686724
 33
0.0
  0
SOLID
  5
69
330
63
100
AcDbEntity
  8
0
  6
ByBlock
 62
     2
100
AcDbTrace
 10
312.8060928226961
 20
293.3183761686724
 30
0.0
 11
314.5560928226961
 21
293.3183761686724
 31
0.0
 12
313.6810928226961
 22
298.5683761686724
 32
0.0
 13
313.6810928226961
 23
298.5683761686724
 33
0.0
  0
POINT
  5
6A
330
63
100
AcDbEntity
  8
DEFPOINTS
  6
ByBlock
 62
     0
100
AcDbPoint
 10
343.1761804874606
 20
280.5683761686724
 30
0.0
  0
POINT
  5
6B
330
63
100
AcDbEntity
  8
DEFPOINTS
  6
ByBlock
 62
     0
100
AcDbPoint
 10
329.9280678934179
 20
298.5683761686724
 30
0.0
  0
POINT
  5
6C
330
63
100
AcDbEntity
  8
DEFPOINTS
  6
ByBlock
 62
     0
100
AcDbPoint
 10
313.6810928226961
 20
298.5683761686724
 30
0.0
  0
ENDBLK
  5
6E
330
63
100
AcDbEntity
  8
0
100
AcDbBlockEnd
  0
BLOCK
  5
7D
330
73
100
AcDbEntity
  8
0
100
AcDbBlockBegin
  2
*D7
 70
     1
 10
0.0
 20
0.0
 30
0.0
  3
*D7
  1

  0
LINE
  5
74
330
73
100
AcDbEntity
  8
0
  6
ByBlock
 62
     2
100
AcDbLine
 10
339.4261804874606
 20
250.5683761686724
 30
0.0
 11
311.7310928226961
 21
250.5683761686724
 31
0.0
  0
LINE
  5
75
330
73
100
AcDbEntity
  8
0
  6
ByBlock
 62
     2
100
AcDbLine
 10
342.4261804874606
 20
280.5683761686724
 30
0.0
 11
311.7310928226961
 21
280.5683761686724
 31
0.0
  0
LINE
  5
76
330
73
100
AcDbEntity
  8
0
  6
ByBlock
 62
     2
100
AcDbLine
 10
313.6810928226961
 20
255.8183761686724
 30
0.0
 11
313.6810928226961
 21
275.3183761686724
 31
0.0
  0
SOLID
  5
77
330
73
100
AcDbEntity
  8
0
  6
ByBlock
 62
     2
100
AcDbTrace
 10
312.8060928226961
 20
255.8183761686724
 30
0.0
 11
314.5560928226961
 21
255.8183761686724
 31
0.0
 12
313.6810928226961
 22
250.5683761686724
 32
0.0
 13
313.6810928226961
 23
250.5683761686724
 33
0.0
  0
SOLID
  5
78
330
73
100
AcDbEntity
  8
0
  6
ByBlock
 62
     2
100
AcDbTrace
 10
312.8060928226961
 20
275.3183761686724
 30
0.0
 11
314.5560928226961
 21
275.3183761686724
 31
0.0
 12
313.6810928226961
 22
280.5683761686724
 32
0.0
 13
313.6810928226961
 23
280.5683761686724
 33
0.0
  0
MTEXT
  5
79
330
73
100
AcDbEntity
  8
0
  6
ByBlock
 62
     3
100
AcDbMText
 10
309.5560928226961
 20
265.5683761686724
 30
0.0
 40
5.25
 41
0.0
 71
     5
 72
     1
  1
\A1;30
  7
NORM
 11
0.0000000000000001
 21
1.0
 31
0.0
 73
     1
 44
1.0
  0
POINT
  5
7A
330
73
100
AcDbEntity
  8
DEFPOINTS
  6
ByBlock
 62
     0
100
AcDbPoint
 10
340.1761804874606
 20
250.5683761686724
 30
0.0
  0
POINT
  5
7B
330
73
100
AcDbEntity
  8
DEFPOINTS
  6
ByBlock
 62
     0
100
AcDbPoint
 10
343.1761804874606
 20
280.5683761686724
 30
0.0
  0
POINT
  5
7C
330
73
100
AcDbEntity
  8
DEFPOINTS
  6
ByBlock
 62
     0
100
AcDbPoint
 10
313.6810928226961
 20
280.5683761686724
 30
0.0
  0
ENDBLK
  5
7E
330
73
100
AcDbEntity
  8
0
100
AcDbBlockEnd
  0
BLOCK
  5
AF
330
A5
100
AcDbEntity
  8
0
100
AcDbBlockBegin
  2
*D8
 70
     1
 10
0.0
 20
0.0
 30
0.0
  3
*D8
  1

  0
LINE
  5
A6
330
A5
100
AcDbEntity
  8
0
  6
ByBlock
 62
     2
100
AcDbLine
 10
340.1761804874606
 20
251.3183761686724
 30
0.0
 11
340.1761804874606
 21
256.8002841456239
 31
0.0
  0
LINE
  5
A7
330
A5
100
AcDbEntity
  8
0
  6
ByBlock
 62
     2
100
AcDbLine
 10
381.1761804874606
 20
295.8183761686724
 30
0.0
 11
381.1761804874606
 21
252.9002841456239
 31
0.0
  0
LINE
  5
A8
330
A5
100
AcDbEntity
  8
0
  6
ByBlock
 62
     2
100
AcDbLine
 10
345.4261804874606
 20
254.8502841456239
 30
0.0
 11
375.9261804874606
 21
254.8502841456239
 31
0.0
  0
SOLID
  5
A9
330
A5
100
AcDbEntity
  8
0
  6
ByBlock
 62
     2
100
AcDbTrace
 10
345.4261804874606
 20
255.7252841456239
 30
0.0
 11
345.4261804874606
 21
253.9752841456239
 31
0.0
 12
340.1761804874606
 22
254.8502841456239
 32
0.0
 13
340.1761804874606
 23
254.8502841456239
 33
0.0
  0
SOLID
  5
AA
330
A5
100
AcDbEntity
  8
0
  6
ByBlock
 62
     2
100
AcDbTrace
 10
375.9261804874606
 20
255.7252841456239
 30
0.0
 11
375.9261804874606
 21
253.9752841456239
 31
0.0
 12
381.1761804874606
 22
254.8502841456239
 32
0.0
 13
381.1761804874606
 23
254.8502841456239
 33
0.0
  0
MTEXT
  5
AB
330
A5
100
AcDbEntity
  8
0
  6
ByBlock
 62
     3
100
AcDbMText
 10
360.6761804874606
 20
258.9752841456239
 30
0.0
 40
5.25
 41
0.0
 71
     5
 72
     1
  1
\A1;41
  7
NORM
 73
     1
 44
1.0
  0
POINT
  5
AC
330
A5
100
AcDbEntity
  8
DEFPOINTS
  6
ByBlock
 62
     0
100
AcDbPoint
 10
340.1761804874606
 20
250.5683761686724
 30
0.0
  0
POINT
  5
AD
330
A5
100
AcDbEntity
  8
DEFPOINTS
  6
ByBlock
 62
     0
100
AcDbPoint
 10
381.1761804874606
 20
296.5683761686724
 30
0.0
  0
POINT
  5
AE
330
A5
100
AcDbEntity
  8
DEFPOINTS
  6
ByBlock
 62
     0
100
AcDbPoint
 10
381.1761804874606
 20
254.8502841456239
 30
0.0
  0
ENDBLK
  5
B0
330
A5
100
AcDbEntity
  8
0
100
AcDbBlockEnd
  0
BLOCK
  5
C0
330
B3
100
AcDbEntity
  8
0
100
AcDbBlockBegin
  2
*D9
 70
     1
 10
0.0
 20
0.0
 30
0.0
  3
*D9
  1

  0
LINE
  5
B4
330
B3
100
AcDbEntity
  8
0
  6
ByBlock
 62
     2
100
AcDbLine
 10
340.1761804874606
 20
249.8183761686724
 30
0.0
 11
340.1761804874606
 21
232.5028444897873
 31
0.0
  0
LINE
  5
B5
330
B3
100
AcDbEntity
  8
0
  6
ByBlock
 62
     2
100
AcDbLine
 10
343.1761804874606
 20
249.8183761686724
 30
0.0
 11
343.1761804874606
 21
232.5028444897873
 31
0.0
  0
LINE
  5
B6
330
B3
100
AcDbEntity
  8
0
  6
ByBlock
 62
     2
100
AcDbLine
 10
334.9261804874606
 20
234.4528444897873
 30
0.0
 11
329.6761804874606
 21
234.4528444897873
 31
0.0
  0
LINE
  5
B7
330
B3
100
AcDbEntity
  8
0
  6
ByBlock
 62
     2
100
AcDbLine
 10
348.4261804874606
 20
234.4528444897873
 30
0.0
 11
353.6761804874606
 21
234.4528444897873
 31
0.0
  0
MTEXT
  5
B8
330
B3
100
AcDbEntity
  8
0
  6
ByBlock
 62
     3
100
AcDbMText
 10
350.9873617269636
 20
239.7028444897873
 30
0.0
 40
5.25
 41
0.0
 71
     5
 72
     1
  1
\A1;3
  7
NORM
 73
     1
 44
1.0
  0
LINE
  5
B9
330
B3
100
AcDbEntity
  8
0
  6
ByBlock
 62
     2
100
AcDbLine
 10
340.1761804874606
 20
234.4528444897873
 30
0.0
 11
343.1761804874606
 21
234.4528444897873
 31
0.0
  0
LINE
  5
BA
330
B3
100
AcDbEntity
  8
0
  6
ByBlock
 62
     2
100
AcDbLine
 10
340.1761804874606
 20
234.4528444897873
 30
0.0
 11
343.1761804874606
 21
234.4528444897873
 31
0.0
  0
SOLID
  5
BB
330
B3
100
AcDbEntity
  8
0
  6
ByBlock
 62
     2
100
AcDbTrace
 10
334.9261804874606
 20
235.3278444897873
 30
0.0
 11
334.9261804874606
 21
233.5778444897873
 31
0.0
 12
340.1761804874606
 22
234.4528444897873
 32
0.0
 13
340.1761804874606
 23
234.4528444897873
 33
0.0
  0
SOLID
  5
BC
330
B3
100
AcDbEntity
  8
0
  6
ByBlock
 62
     2
100
AcDbTrace
 10
348.4261804874606
 20
235.3278444897873
 30
0.0
 11
348.4261804874606
 21
233.5778444897873
 31
0.0
 12
343.1761804874606
 22
234.4528444897873
 32
0.0
 13
343.1761804874606
 23
234.4528444897873
 33
0.0
  0
POINT
  5
BD
330
B3
100
AcDbEntity
  8
DEFPOINTS
  6
ByBlock
 62
     0
100
AcDbPoint
 10
340.1761804874606
 20
250.5683761686724
 30
0.0
  0
POINT
  5
BE
330
B3
100
AcDbEntity
  8
DEFPOINTS
  6
ByBlock
 62
     0
100
AcDbPoint
 10
343.1761804874606
 20
250.5683761686724
 30
0.0
  0
POINT
  5
BF
330
B3
100
AcDbEntity
  8
DEFPOINTS
  6
ByBlock
 62
     0
100
AcDbPoint
 10
343.1761804874606
 20
234.4528444897873
 30
0.0
  0
ENDBLK
  5
C1
330
B3
100
AcDbEntity
  8
0
100
AcDbBlockEnd
  0
BLOCK
  5
10A
330
FE
100
AcDbEntity
  8
0
100
AcDbBlockBegin
  2
*D10
 70
     1
 10
0.0
 20
0.0
 30
0.0
  3
*D10
  1

  0
LINE
  5
FF
330
FE
100
AcDbEntity
  8
0
  6
ByBlock
 62
     2
100
AcDbLine
 10
327.1761804874606
 20
314.3183761686724
 30
0.0
 11
327.1761804874606
 21
339.8517167723675
 31
0.0
  0
LINE
  5
100
330
FE
100
AcDbEntity
  8
0
  6
ByBlock
 62
     2
100
AcDbLine
 10
340.1761804874606
 20
338.6517167723675
 30
0.0
 11
340.1761804874606
 21
339.8517167723675
 31
0.0
  0
LINE
  5
101
330
FE
100
AcDbEntity
  8
0
  6
ByBlock
 62
     2
100
AcDbLine
 10
321.9261804874606
 20
337.9017167723675
 30
0.0
 11
316.6761804874606
 21
337.9017167723675
 31
0.0
  0
LINE
  5
102
330
FE
100
AcDbEntity
  8
0
  6
ByBlock
 62
     2
100
AcDbLine
 10
345.4261804874606
 20
337.9017167723675
 30
0.0
 11
350.6761804874606
 21
337.9017167723675
 31
0.0
  0
LINE
  5
103
330
FE
100
AcDbEntity
  8
0
  6
ByBlock
 62
     2
100
AcDbLine
 10
327.1761804874606
 20
337.9017167723675
 30
0.0
 11
340.1761804874606
 21
337.9017167723675
 31
0.0
  0
SOLID
  5
104
330
FE
100
AcDbEntity
  8
0
  6
ByBlock
 62
     2
100
AcDbTrace
 10
321.9261804874606
 20
338.7767167723676
 30
0.0
 11
321.9261804874606
 21
337.0267167723675
 31
0.0
 12
327.1761804874606
 22
337.9017167723675
 32
0.0
 13
327.1761804874606
 23
337.9017167723675
 33
0.0
  0
SOLID
  5
105
330
FE
100
AcDbEntity
  8
0
  6
ByBlock
 62
     2
100
AcDbTrace
 10
345.4261804874606
 20
338.7767167723676
 30
0.0
 11
345.4261804874606
 21
337.0267167723675
 31
0.0
 12
340.1761804874606
 22
337.9017167723675
 32
0.0
 13
340.1761804874606
 23
337.9017167723675
 33
0.0
  0
MTEXT
  5
106
330
FE
100
AcDbEntity
  8
0
  6
ByBlock
 62
     3
100
AcDbMText
 10
333.6761804874606
 20
342.0267167723675
 30
0.0
 40
5.25
 41
0.0
 71
     5
 72
     1
  1
\A1;13
  7
NORM
 73
     1
 44
1.0
  0
POINT
  5
107
330
FE
100
AcDbEntity
  8
DEFPOINTS
  6
ByBlock
 62
     0
100
AcDbPoint
 10
327.1761804874606
 20
313.5683761686724
 30
0.0
  0
POINT
  5
108
330
FE
100
AcDbEntity
  8
DEFPOINTS
  6
ByBlock
 62
     0
100
AcDbPoint
 10
340.1761804874606
 20
337.9017167723675
 30
0.0
  0
POINT
  5
109
330
FE
100
AcDbEntity
  8
DEFPOINTS
  6
ByBlock
 62
     0
100
AcDbPoint
 10
340.1761804874606
 20
337.9017167723675
 30
0.0
  0
ENDBLK
  5
10B
330
FE
100
AcDbEntity
  8
0
100
AcDbBlockEnd
  0
BLOCK
  5
117
330
10D
100
AcDbEntity
  8
0
100
AcDbBlockBegin
  2
*D11
 70
     1
 10
0.0
 20
0.0
 30
0.0
  3
*D11
  1

  0
LINE
  5
10E
330
10D
100
AcDbEntity
  8
0
  6
ByBlock
 62
     2
100
AcDbLine
 10
329.1780678934179
 20
328.5683761686724
 30
0.0
 11
311.7310928226961
 21
328.5683761686724
 31
0.0
  0
LINE
  5
10F
330
10D
100
AcDbEntity
  8
0
  6
ByBlock
 62
     2
100
AcDbLine
 10
342.4261804874606
 20
360.5683761686724
 30
0.0
 11
311.7310928226961
 21
360.5683761686724
 31
0.0
  0
LINE
  5
110
330
10D
100
AcDbEntity
  8
0
  6
ByBlock
 62
     2
100
AcDbLine
 10
313.6810928226961
 20
333.8183761686724
 30
0.0
 11
313.6810928226961
 21
355.3183761686724
 31
0.0
  0
SOLID
  5
111
330
10D
100
AcDbEntity
  8
0
  6
ByBlock
 62
     2
100
AcDbTrace
 10
312.8060928226961
 20
333.8183761686724
 30
0.0
 11
314.5560928226961
 21
333.8183761686724
 31
0.0
 12
313.6810928226961
 22
328.5683761686724
 32
0.0
 13
313.6810928226961
 23
328.5683761686724
 33
0.0
  0
SOLID
  5
112
330
10D
100
AcDbEntity
  8
0
  6
ByBlock
 62
     2
100
AcDbTrace
 10
312.8060928226961
 20
355.3183761686724
 30
0.0
 11
314.5560928226961
 21
355.3183761686724
 31
0.0
 12
313.6810928226961
 22
360.5683761686724
 32
0.0
 13
313.6810928226961
 23
360.5683761686724
 33
0.0
  0
MTEXT
  5
113
330
10D
100
AcDbEntity
  8
0
  6
ByBlock
 62
     3
100
AcDbMText
 10
309.5560928226961
 20
344.5683761686724
 30
0.0
 40
5.25
 41
0.0
 71
     5
 72
     1
  1
\A1;32
  7
NORM
 11
0.0000000000000001
 21
1.0
 31
0.0
 73
     1
 44
1.0
  0
POINT
  5
114
330
10D
100
AcDbEntity
  8
DEFPOINTS
  6
ByBlock
 62
     0
100
AcDbPoint
 10
329.9280678934179
 20
328.5683761686724
 30
0.0
  0
POINT
  5
115
330
10D
100
AcDbEntity
  8
DEFPOINTS
  6
ByBlock
 62
     0
100
AcDbPoint
 10
343.1761804874606
 20
360.5683761686724
 30
0.0
  0
POINT
  5
116
330
10D
100
AcDbEntity
  8
DEFPOINTS
  6
ByBlock
 62
     0
100
AcDbPoint
 10
313.6810928226961
 20
360.5683761686724
 30
0.0
  0
ENDBLK
  5
118
330
10D
100
AcDbEntity
  8
0
100
AcDbBlockEnd
  0
BLOCK
  5
131
330
127
100
AcDbEntity
  8
0
100
AcDbBlockBegin
  2
*D12
 70
     1
 10
0.0
 20
0.0
 30
0.0
  3
*D12
  1

  0
LINE
  5
128
330
127
100
AcDbEntity
  8
0
  6
ByBlock
 62
     2
100
AcDbLine
 10
342.4261804874606
 20
360.5683761686724
 30
0.0
 11
311.7310928226961
 21
360.5683761686724
 31
0.0
  0
LINE
  5
129
330
127
100
AcDbEntity
  8
0
  6
ByBlock
 62
     2
100
AcDbLine
 10
339.4261804874606
 20
390.5683761686724
 30
0.0
 11
311.7310928226961
 21
390.5683761686724
 31
0.0
  0
LINE
  5
12A
330
127
100
AcDbEntity
  8
0
  6
ByBlock
 62
     2
100
AcDbLine
 10
313.6810928226961
 20
365.8183761686724
 30
0.0
 11
313.6810928226961
 21
385.3183761686723
 31
0.0
  0
SOLID
  5
12B
330
127
100
AcDbEntity
  8
0
  6
ByBlock
 62
     2
100
AcDbTrace
 10
312.8060928226961
 20
365.8183761686724
 30
0.0
 11
314.5560928226961
 21
365.8183761686724
 31
0.0
 12
313.6810928226961
 22
360.5683761686724
 32
0.0
 13
313.6810928226961
 23
360.5683761686724
 33
0.0
  0
SOLID
  5
12C
330
127
100
AcDbEntity
  8
0
  6
ByBlock
 62
     2
100
AcDbTrace
 10
312.8060928226961
 20
385.3183761686723
 30
0.0
 11
314.5560928226961
 21
385.3183761686723
 31
0.0
 12
313.6810928226961
 22
390.5683761686724
 32
0.0
 13
313.6810928226961
 23
390.5683761686724
 33
0.0
  0
MTEXT
  5
12D
330
127
100
AcDbEntity
  8
0
  6
ByBlock
 62
     3
100
AcDbMText
 10
309.5560928226961
 20
375.5683761686724
 30
0.0
 40
5.25
 41
0.0
 71
     5
 72
     1
  1
\A1;30
  7
NORM
 11
0.0000000000000001
 21
1.0
 31
0.0
 73
     1
 44
1.0
  0
POINT
  5
12E
330
127
100
AcDbEntity
  8
DEFPOINTS
  6
ByBlock
 62
     0
100
AcDbPoint
 10
343.1761804874606
 20
360.5683761686724
 30
0.0
  0
POINT
  5
12F
330
127
100
AcDbEntity
  8
DEFPOINTS
  6
ByBlock
 62
     0
100
AcDbPoint
 10
340.1761804874606
 20
390.5683761686724
 30
0.0
  0
POINT
  5
130
330
127
100
AcDbEntity
  8
DEFPOINTS
  6
ByBlock
 62
     0
100
AcDbPoint
 10
313.6810928226961
 20
390.5683761686724
 30
0.0
  0
ENDBLK
  5
132
330
127
100
AcDbEntity
  8
0
100
AcDbBlockEnd
  0
BLOCK
  5
51
330
47
100
AcDbEntity
  8
0
100
AcDbBlockBegin
  2
*D13
 70
     1
 10
0.0
 20
0.0
 30
0.0
  3
*D13
  1

  0
LINE
  5
48
330
47
100
AcDbEntity
  8
0
  6
ByBlock
 62
     2
100
AcDbLine
 10
438.9530000624986
 20
260.5683761686724
 30
0.0
 11
423.5030000624986
 21
260.5683761686724
 31
0.0
  0
LINE
  5
49
330
47
100
AcDbEntity
  8
0
  6
ByBlock
 62
     2
100
AcDbLine
 10
438.9530000624986
 20
380.5683761686724
 30
0.0
 11
423.5030000624986
 21
380.5683761686724
 31
0.0
  0
LINE
  5
4A
330
47
100
AcDbEntity
  8
0
  6
ByBlock
 62
     2
100
AcDbLine
 10
425.4530000624986
 20
265.8183761686724
 30
0.0
 11
425.4530000624986
 21
375.3183761686724
 31
0.0
  0
SOLID
  5
4B
330
47
100
AcDbEntity
  8
0
  6
ByBlock
 62
     2
100
AcDbTrace
 10
424.5780000624986
 20
265.8183761686724
 30
0.0
 11
426.3280000624986
 21
265.8183761686724
 31
0.0
 12
425.4530000624986
 22
260.5683761686724
 32
0.0
 13
425.4530000624986
 23
260.5683761686724
 33
0.0
  0
SOLID
  5
4C
330
47
100
AcDbEntity
  8
0
  6
ByBlock
 62
     2
100
AcDbTrace
 10
424.5780000624986
 20
375.3183761686724
 30
0.0
 11
426.3280000624986
 21
375.3183761686724
 31
0.0
 12
425.4530000624986
 22
380.5683761686724
 32
0.0
 13
425.4530000624986
 23
380.5683761686724
 33
0.0
  0
MTEXT
  5
4D
330
47
100
AcDbEntity
  8
0
  6
ByBlock
 62
     3
100
AcDbMText
 10
421.3280000624986
 20
320.5683761686724
 30
0.0
 40
5.25
 41
0.0
 71
     5
 72
     1
  1
\A1;120
  7
NORM
 11
0.0000000000000001
 21
1.0
 31
0.0
 73
     1
 44
1.0
  0
POINT
  5
4E
330
47
100
AcDbEntity
  8
DEFPOINTS
  6
ByBlock
 62
     0
100
AcDbPoint
 10
439.7030000624987
 20
260.5683761686724
 30
0.0
  0
POINT
  5
4F
330
47
100
AcDbEntity
  8
DEFPOINTS
  6
ByBlock
 62
     0
100
AcDbPoint
 10
439.7030000624987
 20
380.5683761686724
 30
0.0
  0
POINT
  5
50
330
47
100
AcDbEntity
  8
DEFPOINTS
  6
ByBlock
 62
     0
100
AcDbPoint
 10
425.4530000624986
 20
380.5683761686724
 30
0.0
  0
ENDBLK
  5
52
330
47
100
AcDbEntity
  8
0
100
AcDbBlockEnd
  0
BLOCK
  5
5E
330
54
100
AcDbEntity
  8
0
100
AcDbBlockBegin
  2
*D14
 70
     1
 10
0.0
 20
0.0
 30
0.0
  3
*D14
  1

  0
LINE
  5
55
330
54
100
AcDbEntity
  8
0
  6
ByBlock
 62
     2
100
AcDbLine
 10
457.2030000624986
 20
390.5683761686724
 30
0.0
 11
469.4030000624985
 21
390.5683761686723
 31
0.0
  0
LINE
  5
56
330
54
100
AcDbEntity
  8
0
  6
ByBlock
 62
     2
100
AcDbLine
 10
457.2030000624986
 20
250.5683761686724
 30
0.0
 11
469.4030000624985
 21
250.5683761686724
 31
0.0
  0
LINE
  5
57
330
54
100
AcDbEntity
  8
0
  6
ByBlock
 62
     2
100
AcDbLine
 10
467.4530000624986
 20
385.3183761686723
 30
0.0
 11
467.4530000624986
 21
255.8183761686724
 31
0.0
  0
SOLID
  5
58
330
54
100
AcDbEntity
  8
0
  6
ByBlock
 62
     2
100
AcDbTrace
 10
466.5780000624986
 20
385.3183761686723
 30
0.0
 11
468.3280000624986
 21
385.3183761686723
 31
0.0
 12
467.4530000624986
 22
390.5683761686723
 32
0.0
 13
467.4530000624986
 23
390.5683761686723
 33
0.0
  0
SOLID
  5
59
330
54
100
AcDbEntity
  8
0
  6
ByBlock
 62
     2
100
AcDbTrace
 10
466.5780000624986
 20
255.8183761686724
 30
0.0
 11
468.3280000624986
 21
255.8183761686724
 31
0.0
 12
467.4530000624986
 22
250.5683761686724
 32
0.0
 13
467.4530000624986
 23
250.5683761686724
 33
0.0
  0
MTEXT
  5
5A
330
54
100
AcDbEntity
  8
0
  6
ByBlock
 62
     3
100
AcDbMText
 10
463.3280000624985
 20
320.5683761686724
 30
0.0
 40
5.25
 41
0.0
 71
     5
 72
     1
  1
\A1;140
  7
NORM
 11
0.0000000000000001
 21
1.0
 31
0.0
 73
     1
 44
1.0
  0
POINT
  5
5B
330
54
100
AcDbEntity
  8
DEFPOINTS
  6
ByBlock
 62
     0
100
AcDbPoint
 10
456.4530000624986
 20
390.5683761686724
 30
0.0
  0
POINT
  5
5C
330
54
100
AcDbEntity
  8
DEFPOINTS
  6
ByBlock
 62
     0
100
AcDbPoint
 10
456.4530000624986
 20
250.5683761686724
 30
0.0
  0
POINT
  5
5D
330
54
100
AcDbEntity
  8
DEFPOINTS
  6
ByBlock
 62
     0
100
AcDbPoint
 10
467.4530000624986
 20
250.5683761686724
 30
0.0
  0
ENDBLK
  5
5F
330
54
100
AcDbEntity
  8
0
100
AcDbBlockEnd
  0
BLOCK
  5
F5
330
EB
100
AcDbEntity
  8
0
100
AcDbBlockBegin
  2
*D15
 70
     1
 10
0.0
 20
0.0
 30
0.0
  3
*D15
  1

  0
LINE
  5
EC
330
EB
100
AcDbEntity
  8
0
  6
ByBlock
 62
     2
100
AcDbLine
 10
436.4530000624987
 20
249.8183761686724
 30
0.0
 11
436.4530000624987
 21
232.5028444897873
 31
0.0
  0
LINE
  5
ED
330
EB
100
AcDbEntity
  8
0
  6
ByBlock
 62
     2
100
AcDbLine
 10
456.4530000624986
 20
249.8183761686724
 30
0.0
 11
456.4530000624986
 21
232.5028444897873
 31
0.0
  0
LINE
  5
EE
330
EB
100
AcDbEntity
  8
0
  6
ByBlock
 62
     2
100
AcDbLine
 10
441.7030000624986
 20
234.4528444897873
 30
0.0
 11
451.2030000624987
 21
234.4528444897873
 31
0.0
  0
MTEXT
  5
EF
330
EB
100
AcDbEntity
  8
0
  6
ByBlock
 62
     3
100
AcDbMText
 10
446.9742339625597
 20
239.7028444897873
 30
0.0
 40
5.25
 41
0.0
 71
     5
 72
     1
  1
\A1;20
  7
NORM
 73
     1
 44
1.0
  0
SOLID
  5
F0
330
EB
100
AcDbEntity
  8
0
  6
ByBlock
 62
     2
100
AcDbTrace
 10
441.7030000624986
 20
235.3278444897873
 30
0.0
 11
441.7030000624986
 21
233.5778444897873
 31
0.0
 12
436.4530000624987
 22
234.4528444897873
 32
0.0
 13
436.4530000624987
 23
234.4528444897873
 33
0.0
  0
SOLID
  5
F1
330
EB
100
AcDbEntity
  8
0
  6
ByBlock
 62
     2
100
AcDbTrace
 10
451.2030000624987
 20
235.3278444897873
 30
0.0
 11
451.2030000624987
 21
233.5778444897873
 31
0.0
 12
456.4530000624986
 22
234.4528444897873
 32
0.0
 13
456.4530000624986
 23
234.4528444897873
 33
0.0
  0
POINT
  5
F2
330
EB
100
AcDbEntity
  8
DEFPOINTS
  6
ByBlock
 62
     0
100
AcDbPoint
 10
436.4530000624987
 20
250.5683761686724
 30
0.0
  0
POINT
  5
F3
330
EB
100
AcDbEntity
  8
DEFPOINTS
  6
ByBlock
 62
     0
100
AcDbPoint
 10
456.4530000624986
 20
250.5683761686724
 30
0.0
  0
POINT
  5
F4
330
EB
100
AcDbEntity
  8
DEFPOINTS
  6
ByBlock
 62
     0
100
AcDbPoint
 10
456.4530000624986
 20
234.4528444897873
 30
0.0
  0
ENDBLK
  5
F6
330
EB
100
AcDbEntity
  8
0
100
AcDbBlockEnd
  0
BLOCK
  5
E8
330
DC
100
AcDbEntity
  8
0
100
AcDbBlockBegin
  2
*D16
 70
     1
 10
0.0
 20
0.0
 30
0.0
  3
*D16
  1

  0
LINE
  5
DD
330
DC
100
AcDbEntity
  8
0
  6
ByBlock
 62
     2
100
AcDbLine
 10
435.7030000624987
 20
250.5683761686724
 30
0.0
 11
423.5030000624986
 21
250.5683761686724
 31
0.0
  0
LINE
  5
DE
330
DC
100
AcDbEntity
  8
0
  6
ByBlock
 62
     2
100
AcDbLine
 10
438.9530000624986
 20
260.5683761686724
 30
0.0
 11
423.5030000624986
 21
260.5683761686724
 31
0.0
  0
LINE
  5
DF
330
DC
100
AcDbEntity
  8
0
  6
ByBlock
 62
     2
100
AcDbLine
 10
425.4530000624986
 20
245.3183761686724
 30
0.0
 11
425.4530000624986
 21
240.0683761686724
 31
0.0
  0
LINE
  5
E0
330
DC
100
AcDbEntity
  8
0
  6
ByBlock
 62
     2
100
AcDbLine
 10
425.4530000624986
 20
265.8183761686724
 30
0.0
 11
425.4530000624986
 21
271.0683761686724
 31
0.0
  0
LINE
  5
E1
330
DC
100
AcDbEntity
  8
0
  6
ByBlock
 62
     2
100
AcDbLine
 10
425.4530000624986
 20
250.5683761686724
 30
0.0
 11
425.4530000624986
 21
260.5683761686724
 31
0.0
  0
SOLID
  5
E2
330
DC
100
AcDbEntity
  8
0
  6
ByBlock
 62
     2
100
AcDbTrace
 10
424.5780000624986
 20
245.3183761686724
 30
0.0
 11
426.3280000624986
 21
245.3183761686724
 31
0.0
 12
425.4530000624986
 22
250.5683761686724
 32
0.0
 13
425.4530000624986
 23
250.5683761686724
 33
0.0
  0
SOLID
  5
E3
330
DC
100
AcDbEntity
  8
0
  6
ByBlock
 62
     2
100
AcDbTrace
 10
424.5780000624986
 20
265.8183761686724
 30
0.0
 11
426.3280000624986
 21
265.8183761686724
 31
0.0
 12
425.4530000624986
 22
260.5683761686724
 32
0.0
 13
425.4530000624986
 23
260.5683761686724
 33
0.0
  0
MTEXT
  5
E4
330
DC
100
AcDbEntity
  8
0
  6
ByBlock
 62
     3
100
AcDbMText
 10
421.3280000624986
 20
255.5683761686724
 30
0.0
 40
5.25
 41
0.0
 71
     5
 72
     1
  1
\A1;10
  7
NORM
 11
0.0000000000000001
 21
1.0
 31
0.0
 73
     1
 44
1.0
  0
POINT
  5
E5
330
DC
100
AcDbEntity
  8
DEFPOINTS
  6
ByBlock
 62
     0
100
AcDbPoint
 10
436.4530000624987
 20
250.5683761686724
 30
0.0
  0
POINT
  5
E6
330
DC
100
AcDbEntity
  8
DEFPOINTS
  6
ByBlock
 62
     0
100
AcDbPoint
 10
439.7030000624987
 20
260.5683761686724
 30
0.0
  0
POINT
  5
E7
330
DC
100
AcDbEntity
  8
DEFPOINTS
  6
ByBlock
 62
     0
100
AcDbPoint
 10
425.4530000624986
 20
260.5683761686724
 30
0.0
  0
ENDBLK
  5
E9
330
DC
100
AcDbEntity
  8
0
100
AcDbBlockEnd
  0
BLOCK
  5
140
330
134
100
AcDbEntity
  8
0
100
AcDbBlockBegin
  2
*D17
 70
     1
 10
0.0
 20
0.0
 30
0.0
  3
*D17
  1

  0
LINE
  5
135
330
134
100
AcDbEntity
  8
0
  6
ByBlock
 62
     2
100
AcDbLine
 10
438.9530000624986
 20
380.5683761686724
 30
0.0
 11
423.5030000624986
 21
380.5683761686724
 31
0.0
  0
LINE
  5
136
330
134
100
AcDbEntity
  8
0
  6
ByBlock
 62
     2
100
AcDbLine
 10
435.7030000624987
 20
390.5683761686724
 30
0.0
 11
423.5030000624986
 21
390.5683761686724
 31
0.0
  0
LINE
  5
137
330
134
100
AcDbEntity
  8
0
  6
ByBlock
 62
     2
100
AcDbLine
 10
425.4530000624986
 20
375.3183761686724
 30
0.0
 11
425.4530000624986
 21
370.0683761686724
 31
0.0
  0
LINE
  5
138
330
134
100
AcDbEntity
  8
0
  6
ByBlock
 62
     2
100
AcDbLine
 10
425.4530000624986
 20
395.8183761686724
 30
0.0
 11
425.4530000624986
 21
401.0683761686724
 31
0.0
  0
LINE
  5
139
330
134
100
AcDbEntity
  8
0
  6
ByBlock
 62
     2
100
AcDbLine
 10
425.4530000624986
 20
380.5683761686724
 30
0.0
 11
425.4530000624986
 21
390.5683761686724
 31
0.0
  0
SOLID
  5
13A
330
134
100
AcDbEntity
  8
0
  6
ByBlock
 62
     2
100
AcDbTrace
 10
424.5780000624986
 20
375.3183761686724
 30
0.0
 11
426.3280000624986
 21
375.3183761686724
 31
0.0
 12
425.4530000624986
 22
380.5683761686724
 32
0.0
 13
425.4530000624986
 23
380.5683761686724
 33
0.0
  0
SOLID
  5
13B
330
134
100
AcDbEntity
  8
0
  6
ByBlock
 62
     2
100
AcDbTrace
 10
424.5780000624986
 20
395.8183761686724
 30
0.0
 11
426.3280000624986
 21
395.8183761686724
 31
0.0
 12
425.4530000624986
 22
390.5683761686724
 32
0.0
 13
425.4530000624986
 23
390.5683761686724
 33
0.0
  0
MTEXT
  5
13C
330
134
100
AcDbEntity
  8
0
  6
ByBlock
 62
     3
100
AcDbMText
 10
421.3280000624986
 20
385.5683761686724
 30
0.0
 40
5.25
 41
0.0
 71
     5
 72
     1
  1
\A1;10
  7
NORM
 11
0.0000000000000001
 21
1.0
 31
0.0
 73
     1
 44
1.0
  0
POINT
  5
13D
330
134
100
AcDbEntity
  8
DEFPOINTS
  6
ByBlock
 62
     0
100
AcDbPoint
 10
439.7030000624987
 20
380.5683761686724
 30
0.0
  0
POINT
  5
13E
330
134
100
AcDbEntity
  8
DEFPOINTS
  6
ByBlock
 62
     0
100
AcDbPoint
 10
436.4530000624987
 20
390.5683761686724
 30
0.0
  0
POINT
  5
13F
330
134
100
AcDbEntity
  8
DEFPOINTS
  6
ByBlock
 62
     0
100
AcDbPoint
 10
425.4530000624986
 20
390.5683761686724
 30
0.0
  0
ENDBLK
  5
141
330
134
100
AcDbEntity
  8
0
100
AcDbBlockEnd
  0
ENDSEC
  0
SECTION
  2
ENTITIES
  0
LINE
  5
27
330
2
100
AcDbEntity
  8
ACHSEN
100
AcDbLine
 10
446.4530000624987
 20
331.5683761686724
 30
0.0
 11
446.4530000624987
 21
295.5683761686724
 31
0.0
  0
DIMENSION
  5
2A
330
2
100
AcDbEntity
  8
LAYER1
  6
Continuous
100
AcDbDimension
  2
*D1
 10
403.8764625351661
 20
360.5683761686724
 30
0.0
 11
399.7514625351661
 21
320.5683761686724
 31
0.0
 71
     5
 42
-1.0
  3
PROSPEKT
100
AcDbAlignedDimension
 13
365.1761804874606
 23
280.5683761686724
 33
0.0
 14
365.1761804874606
 24
360.5683761686724
 34
0.0
 50
90.0
100
AcDbRotatedDimension
  0
DIMENSION
  5
39
330
2
100
AcDbEntity
  8
LAYER1
  6
Continuous
100
AcDbDimension
  2
*D2
 10
391.9479916337399
 20
313.5683761686724
 30
0.0
 11
387.8229916337399
 21
297.0683761686724
 31
0.0
 71
     5
 42
-1.0
  3
PROSPEKT
100
AcDbAlignedDimension
 13
365.1761804874606
 23
280.5683761686724
 33
0.0
 14
366.1761804874606
 24
313.5683761686724
 34
0.0
 50
90.0
100
AcDbRotatedDimension
  0
DIMENSION
  5
46
330
2
100
AcDbEntity
  8
LAYER1
  6
Continuous
100
AcDbDimension
  2
*D13
 10
425.4530000624986
 20
380.5683761686724
 30
0.0
 11
421.3280000624986
 21
320.5683761686724
 31
0.0
 71
     5
 42
-1.0
  3
PROSPEKT
100
AcDbAlignedDimension
 13
439.7030000624987
 23
260.5683761686724
 33
0.0
 14
439.7030000624987
 24
380.5683761686724
 34
0.0
 50
90.0
100
AcDbRotatedDimension
  0
DIMENSION
  5
53
330
2
100
AcDbEntity
  8
LAYER1
  6
Continuous
100
AcDbDimension
  2
*D14
 10
467.4530000624986
 20
250.5683761686724
 30
0.0
 11
463.3280000624985
 21
320.5683761686724
 31
0.0
 71
     5
 42
-1.0
  3
PROSPEKT
100
AcDbAlignedDimension
 13
456.4530000624986
 23
390.5683761686724
 33
0.0
 14
456.4530000624986
 24
250.5683761686724
 34
0.0
 50
90.0
100
AcDbRotatedDimension
  0
LWPOLYLINE
  5
60
330
2
100
AcDbEntity
  8
LAYER3
  6
Continuous
 62
     4
100
AcDbPolyline
 90
        4
 70
     1
 43
0.0
 10
456.4530000624986
 20
250.5683761686724
 10
456.4530000624986
 20
390.5683761686724
 10
436.4530000624987
 20
390.5683761686724
 10
436.4530000624987
 20
250.5683761686724
  0
DIMENSION
  5
62
330
2
100
AcDbEntity
  8
LAYER1
  6
Continuous
100
AcDbDimension
  2
*D6
 10
313.6810928226961
 20
298.5683761686724
 30
0.0
 11
308.8467832086108
 21
289.5683761686724
 31
0.0
 70
   128
 71
     5
 42
-1.0
  3
PROSPEKT
100
AcDbAlignedDimension
 13
343.1761804874606
 23
280.5683761686724
 33
0.0
 14
329.9280678934179
 24
298.5683761686724
 34
0.0
 50
90.0
100
AcDbRotatedDimension
  0
LINE
  5
6F
330
2
100
AcDbEntity
  8
ACHSEN
100
AcDbLine
 10
334.4261804874606
 20
331.5683761686724
 30
0.0
 11
334.4261804874606
 21
295.5683761686724
 31
0.0
  0
LWPOLYLINE
  5
70
330
2
100
AcDbEntity
  8
LAYER3
  6
Continuous
 62
     4
100
AcDbPolyline
 90
        4
 70
     1
 43
0.0
 10
340.1761804874606
 20
250.5683761686724
 10
343.1761804874606
 20
250.5683761686724
 10
343.1761804874606
 20
390.5683761686724
 10
340.1761804874606
 20
390.5683761686724
  0
LWPOLYLINE
  5
71
330
2
100
AcDbEntity
  8
LAYER3
  6
Continuous
 62
     4
100
AcDbPolyline
 90
        6
 70
     0
 43
0.0
 10
343.1761804874606
 20
360.5683761686724
 10
365.1761804874606
 20
360.5683761686724
 42
-0.4142135623730951
 10
381.1761804874606
 20
344.5683761686724
 10
381.1761804874606
 20
296.5683761686724
 42
-0.4142135623730951
 10
365.1761804874606
 20
280.5683761686724
 10
343.1761804874606
 20
280.5683761686724
  0
DIMENSION
  5
72
330
2
100
AcDbEntity
  8
LAYER1
  6
Continuous
100
AcDbDimension
  2
*D7
 10
313.6810928226961
 20
280.5683761686724
 30
0.0
 11
309.5560928226961
 21
265.5683761686724
 31
0.0
 71
     5
 42
-1.0
  3
PROSPEKT
100
AcDbAlignedDimension
 13
340.1761804874606
 23
250.5683761686724
 33
0.0
 14
343.1761804874606
 24
280.5683761686724
 34
0.0
 50
90.0
100
AcDbRotatedDimension
  0
LINE
  5
7F
330
2
100
AcDbEntity
  8
ACHSEN
100
AcDbLine
 10
334.4261804874606
 20
200.3266387892614
 30
0.0
 11
325.1761804874606
 21
200.3266387892614
 31
0.0
  0
DIMENSION
  5
80
330
2
100
AcDbEntity
  8
LAYER1
  6
Continuous
100
AcDbDimension
  2
*D5
 10
321.3050860041712
 20
193.0768335173674
 30
0.0
 11
315.2013148597724
 21
200.5137817918474
 31
0.0
 70
   128
  1
%%C<>
 71
     5
 42
-1.0
  3
PROSPEKT
100
AcDbAlignedDimension
 13
334.6822804358513
 23
207.5764440611556
 33
0.0
 14
334.6822804358513
 24
193.0768335173674
 34
0.0
 50
90.0
100
AcDbRotatedDimension
  0
DIMENSION
  5
8D
330
2
100
AcDbEntity
  8
LAYER1
  6
Continuous
100
AcDbDimension
  2
*D3
 10
391.6437157469076
 20
193.3266387892615
 30
0.0
 11
386.7734085941549
 21
200.3266387892614
 31
0.0
 70
   128
 71
     5
 42
-1.0
  3
PROSPEKT
100
AcDbAlignedDimension
 13
381.1761804874606
 23
207.3266387892615
 33
0.0
 14
381.1761804874606
 24
193.3266387892615
 34
0.0
 50
90.0
100
AcDbRotatedDimension
  0
LWPOLYLINE
  5
9A
330
2
100
AcDbEntity
  8
LAYER3
  6
Continuous
 62
     4
100
AcDbPolyline
 90
        4
 70
     1
 43
0.0
 10
340.1761804874606
 20
190.3266387892615
 10
340.1761804874606
 20
210.3266387892614
 10
343.1761804874606
 20
210.3266387892614
 10
343.1761804874606
 20
190.3266387892615
  0
ARC
  5
9B
330
2
100
AcDbEntity
  8
LAYER3
  6
Continuous
 62
     4
100
AcDbCircle
 10
334.4261804874606
 20
200.3266387892614
 30
0.0
 40
7.25
100
AcDbArc
 50
40.50374777704665
 51
319.4962522229533
  0
ARC
  5
9C
330
2
100
AcDbEntity
  8
LAYER3
  6
Continuous
 62
     4
100
AcDbCircle
 10
334.7354172368162
 20
200.3266387892614
 30
0.0
 40
4.5
100
AcDbArc
 50
90.0
 51
270.0
  0
LINE
  5
9D
330
2
100
AcDbEntity
  8
ACHSEN
100
AcDbLine
 10
334.4261804874606
 20
200.3266387892614
 30
0.0
 11
334.4261804874606
 21
209.5766387892615
 31
0.0
  0
LWPOLYLINE
  5
9E
330
2
100
AcDbEntity
  8
LAYER3
  6
Continuous
 62
     4
100
AcDbPolyline
 90
        5
 70
     0
 43
0.0
 10
343.1761804874606
 20
207.3266387892615
 10
381.1761804874606
 20
207.3266387892615
 10
381.1761804874606
 20
205.3266387892615
 10
345.1761804874606
 20
205.3266387892615
 10
345.1761804874606
 20
195.3266387892615
  0
LWPOLYLINE
  5
9F
330
2
100
AcDbEntity
  8
LAYER3
  6
Continuous
 62
     4
100
AcDbPolyline
 90
        4
 70
     0
 43
0.0
 10
343.1761804874606
 20
193.3266387892615
 10
381.1761804874606
 20
193.3266387892615
 10
381.1761804874606
 20
195.3266387892615
 10
343.1761804874606
 20
195.3266387892615
  0
LINE
  5
A0
330
2
100
AcDbEntity
  8
ACHSEN
100
AcDbLine
 10
334.4261804874606
 20
200.3266387892614
 30
0.0
 11
334.4261804874606
 21
191.0766387892614
 31
0.0
  0
LWPOLYLINE
  5
A1
330
2
100
AcDbEntity
  8
LAYER3
  6
Continuous
 62
     4
100
AcDbPolyline
 90
        2
 70
     0
 43
0.0
 10
334.7354172368162
 20
195.8266387892614
 10
340.248052487806
 20
195.8266387892614
  0
LINE
  5
A2
330
2
100
AcDbEntity
  8
ACHSEN
100
AcDbLine
 10
334.4261804874606
 20
200.3266387892614
 30
0.0
 11
343.6761804874606
 21
200.3266387892614
 31
0.0
  0
CIRCLE
  5
A3
330
2
100
AcDbEntity
  8
LAYER3
  6
Continuous
 62
     4
100
AcDbCircle
 10
334.4261804874606
 20
200.3266387892614
 30
0.0
 40
1.5
  0
DIMENSION
  5
A4
330
2
100
AcDbEntity
  8
LAYER1
  6
Continuous
100
AcDbDimension
  2
*D8
 10
381.1761804874606
 20
254.8502841456239
 30
0.0
 11
360.6761804874606
 21
258.9752841456239
 31
0.0
 71
     5
 42
-1.0
  3
PROSPEKT
100
AcDbAlignedDimension
 13
340.1761804874606
 23
250.5683761686724
 33
0.0
 14
381.1761804874606
 24
296.5683761686724
 34
0.0
100
AcDbRotatedDimension
  0
LWPOLYLINE
  5
B1
330
2
100
AcDbEntity
  8
LAYER3
  6
Continuous
 62
     4
100
AcDbPolyline
 90
        2
 70
     0
 43
0.0
 10
334.7354172368162
 20
204.8266387892614
 10
340.248052487806
 20
204.8266387892614
  0
DIMENSION
  5
B2
330
2
100
AcDbEntity
  8
BEMASSUNG
100
AcDbDimension
  2
*D9
 10
343.1761804874606
 20
234.4528444897873
 30
0.0
 11
350.9873617269636
 21
239.7028444897873
 31
0.0
 70
   128
 71
     5
 42
-1.0
  3
PROSPEKT
100
AcDbAlignedDimension
 13
340.1761804874606
 23
250.5683761686724
 33
0.0
 14
343.1761804874606
 24
250.5683761686724
 34
0.0
100
AcDbRotatedDimension
  0
CIRCLE
  5
C2
330
2
100
AcDbEntity
  8
LAYER3
 62
     4
100
AcDbCircle
 10
370.1761804874606
 20
293.5683761686724
 30
0.0
 40
3.5
  0
ARC
  5
C3
330
2
100
AcDbEntity
  8
LAYER3
  6
Continuous
 62
     4
100
AcDbCircle
 10
368.4740627722695
 20
293.3443406107645
 30
0.0
 40
0.3
100
AcDbArc
 50
180.0
 51
270.0
  0
ARC
  5
C4
330
2
100
AcDbEntity
  8
LAYER3
  6
Continuous
 62
     4
100
AcDbCircle
 10
368.4740627722695
 20
293.7443406107644
 30
0.0
 40
0.3
100
AcDbArc
 50
90.0
 51
180.0
  0
LINE
  5
C5
330
2
100
AcDbEntity
  8
LAYER3
  6
Continuous
 62
     4
100
AcDbLine
 10
368.1740627722695
 20
293.7443406107644
 30
0.0
 11
368.1740627722695
 21
293.3443406107645
 31
0.0
  0
ARC
  5
C6
330
2
100
AcDbEntity
  8
LAYER3
  6
Continuous
 62
     4
100
AcDbCircle
 10
370.3740627722694
 20
291.8443406107645
 30
0.0
 40
0.3
100
AcDbArc
 50
270.0
 51
0.0
  0
ARC
  5
C7
330
2
100
AcDbEntity
  8
LAYER3
  6
Continuous
 62
     4
100
AcDbCircle
 10
370.3740627722694
 20
295.2443406107644
 30
0.0
 40
0.3
100
AcDbArc
 50
0.0
 51
90.0
  0
LINE
  5
C8
330
2
100
AcDbEntity
  8
LAYER3
  6
Continuous
 62
     4
100
AcDbLine
 10
369.9740627722695
 20
291.5443406107645
 30
0.0
 11
370.3740627722694
 21
291.5443406107645
 31
0.0
  0
LINE
  5
C9
330
2
100
AcDbEntity
  8
LAYER3
  6
Continuous
 62
     4
100
AcDbLine
 10
368.4740627722695
 20
293.0443406107645
 30
0.0
 11
369.5740627722694
 21
293.0443406107645
 31
0.0
  0
LINE
  5
CA
330
2
100
AcDbEntity
  8
LAYER3
  6
Continuous
 62
     4
100
AcDbLine
 10
369.6740627722695
 20
292.9443406107644
 30
0.0
 11
369.6740627722695
 21
291.8443406107645
 31
0.0
  0
ARC
  5
CB
330
2
100
AcDbEntity
  8
LAYER3
  6
Continuous
 62
     4
100
AcDbCircle
 10
369.9740627722695
 20
291.8443406107645
 30
0.0
 40
0.3
100
AcDbArc
 50
180.0
 51
270.0
  0
ARC
  5
CC
330
2
100
AcDbEntity
  8
LAYER3
  6
Continuous
 62
     4
100
AcDbCircle
 10
369.5740627722694
 20
292.9443406107644
 30
0.0
 40
0.1
100
AcDbArc
 50
0.0
 51
90.0
  0
ARC
  5
CD
330
2
100
AcDbEntity
  8
LAYER3
  6
Continuous
 62
     4
100
AcDbCircle
 10
369.9740627722695
 20
295.2443406107644
 30
0.0
 40
0.3
100
AcDbArc
 50
90.0
 51
180.0
  0
LINE
  5
CE
330
2
100
AcDbEntity
  8
LAYER3
  6
Continuous
 62
     4
100
AcDbLine
 10
368.4740627722695
 20
294.0443406107645
 30
0.0
 11
369.5740627722694
 21
294.0443406107645
 31
0.0
  0
LINE
  5
CF
330
2
100
AcDbEntity
  8
LAYER3
  6
Continuous
 62
     4
100
AcDbLine
 10
369.6740627722695
 20
295.2443406107644
 30
0.0
 11
369.6740627722695
 21
294.1443406107645
 31
0.0
  0
ARC
  5
D0
330
2
100
AcDbEntity
  8
LAYER3
  6
Continuous
 62
     4
100
AcDbCircle
 10
369.5740627722694
 20
294.1443406107645
 30
0.0
 40
0.1
100
AcDbArc
 50
270.0
 51
0.0
  0
LINE
  5
D1
330
2
100
AcDbEntity
  8
LAYER3
  6
Continuous
 62
     4
100
AcDbLine
 10
369.9740627722695
 20
295.5443406107645
 30
0.0
 11
370.3740627722694
 21
295.5443406107645
 31
0.0
  0
LINE
  5
D2
330
2
100
AcDbEntity
  8
LAYER3
  6
Continuous
 62
     4
100
AcDbLine
 10
372.1740627722695
 20
293.7443406107644
 30
0.0
 11
372.1740627722695
 21
293.3443406107645
 31
0.0
  0
ARC
  5
D3
330
2
100
AcDbEntity
  8
LAYER3
  6
Continuous
 62
     4
100
AcDbCircle
 10
371.8740627722695
 20
293.3443406107645
 30
0.0
 40
0.3
100
AcDbArc
 50
270.0
 51
0.0
  0
LINE
  5
D4
330
2
100
AcDbEntity
  8
LAYER3
  6
Continuous
 62
     4
100
AcDbLine
 10
370.7740627722694
 20
293.0443406107645
 30
0.0
 11
371.8740627722695
 21
293.0443406107645
 31
0.0
  0
LINE
  5
D5
330
2
100
AcDbEntity
  8
LAYER3
  6
Continuous
 62
     4
100
AcDbLine
 10
370.6740627722695
 20
292.9443406107644
 30
0.0
 11
370.6740627722695
 21
291.8443406107645
 31
0.0
  0
ARC
  5
D6
330
2
100
AcDbEntity
  8
LAYER3
  6
Continuous
 62
     4
100
AcDbCircle
 10
370.7740627722694
 20
292.9443406107644
 30
0.0
 40
0.1
100
AcDbArc
 50
90.0
 51
180.0
  0
LINE
  5
D7
330
2
100
AcDbEntity
  8
LAYER3
  6
Continuous
 62
     4
100
AcDbLine
 10
370.7740627722694
 20
294.0443406107645
 30
0.0
 11
371.8740627722695
 21
294.0443406107645
 31
0.0
  0
LINE
  5
D8
330
2
100
AcDbEntity
  8
LAYER3
  6
Continuous
 62
     4
100
AcDbLine
 10
370.6740627722695
 20
295.2443406107644
 30
0.0
 11
370.6740627722695
 21
294.1443406107645
 31
0.0
  0
ARC
  5
D9
330
2
100
AcDbEntity
  8
LAYER3
  6
Continuous
 62
     4
100
AcDbCircle
 10
370.7740627722694
 20
294.1443406107645
 30
0.0
 40
0.1
100
AcDbArc
 50
180.0
 51
270.0
  0
ARC
  5
DA
330
2
100
AcDbEntity
  8
LAYER3
  6
Continuous
 62
     4
100
AcDbCircle
 10
371.8740627722695
 20
293.7443406107644
 30
0.0
 40
0.3
100
AcDbArc
 50
0.0
 51
90.0
  0
DIMENSION
  5
DB
330
2
100
AcDbEntity
  8
LAYER1
  6
Continuous
100
AcDbDimension
  2
*D16
 10
425.4530000624986
 20
260.5683761686724
 30
0.0
 11
421.3280000624986
 21
255.5683761686724
 31
0.0
 71
     5
 42
-1.0
  3
PROSPEKT
100
AcDbAlignedDimension
 13
436.4530000624987
 23
250.5683761686724
 33
0.0
 14
439.7030000624987
 24
260.5683761686724
 34
0.0
 50
90.0
100
AcDbRotatedDimension
  0
DIMENSION
  5
EA
330
2
100
AcDbEntity
  8
BEMASSUNG
100
AcDbDimension
  2
*D15
 10
456.4530000624986
 20
234.4528444897873
 30
0.0
 11
446.9742339625597
 21
239.7028444897873
 31
0.0
 70
   128
 71
     5
 42
-1.0
  3
PROSPEKT
100
AcDbAlignedDimension
 13
436.4530000624987
 23
250.5683761686724
 33
0.0
 14
456.4530000624986
 24
250.5683761686724
 34
0.0
100
AcDbRotatedDimension
  0
LINE
  5
F7
330
2
100
AcDbEntity
  8
ACHSEN
100
AcDbLine
 10
446.4530000624987
 20
260.5683761686724
 30
0.0
 11
446.4530000624987
 21
267.3183761686724
 31
0.0
  0
CIRCLE
  5
F8
330
2
100
AcDbEntity
  8
LAYER3
  6
Continuous
 62
     4
100
AcDbCircle
 10
446.4530000624987
 20
260.5683761686724
 30
0.0
 40
4.75
  0
CIRCLE
  5
F9
330
2
100
AcDbEntity
  8
LAYER3
  6
Continuous
 62
     4
100
AcDbCircle
 10
446.4530000624987
 20
260.5683761686724
 30
0.0
 40
2.6
  0
LINE
  5
FA
330
2
100
AcDbEntity
  8
ACHSEN
100
AcDbLine
 10
446.4530000624987
 20
260.5683761686724
 30
0.0
 11
453.2030000624986
 21
260.5683761686724
 31
0.0
  0
LINE
  5
FB
330
2
100
AcDbEntity
  8
ACHSEN
100
AcDbLine
 10
446.4530000624987
 20
260.5683761686724
 30
0.0
 11
439.7030000624987
 21
260.5683761686724
 31
0.0
  0
LINE
  5
FC
330
2
100
AcDbEntity
  8
ACHSEN
100
AcDbLine
 10
446.4530000624987
 20
260.5683761686724
 30
0.0
 11
446.4530000624987
 21
253.8183761686724
 31
0.0
  0
DIMENSION
  5
FD
330
2
100
AcDbEntity
  8
LAYER1
  6
Continuous
100
AcDbDimension
  2
*D10
 10
340.1761804874606
 20
337.9017167723675
 30
0.0
 11
333.6761804874606
 21
342.0267167723675
 31
0.0
 71
     5
 42
-1.0
  3
PROSPEKT
100
AcDbAlignedDimension
 13
327.1761804874606
 23
313.5683761686724
 33
0.0
 14
340.1761804874606
 24
337.9017167723675
 34
0.0
100
AcDbRotatedDimension
  0
DIMENSION
  5
10C
330
2
100
AcDbEntity
  8
LAYER1
  6
Continuous
100
AcDbDimension
  2
*D11
 10
313.6810928226961
 20
360.5683761686724
 30
0.0
 11
309.5560928226961
 21
344.5683761686724
 31
0.0
 71
     5
 42
-1.0
  3
PROSPEKT
100
AcDbAlignedDimension
 13
329.9280678934179
 23
328.5683761686724
 33
0.0
 14
343.1761804874606
 24
360.5683761686724
 34
0.0
 50
90.0
100
AcDbRotatedDimension
  0
DIMENSION
  5
119
330
2
100
AcDbEntity
  8
LAYER1
  6
Continuous
100
AcDbDimension
  2
*D4
 10
313.6810928226961
 20
328.5683761686724
 30
0.0
 11
309.5560928226961
 21
313.5683761686724
 31
0.0
 71
     5
 42
-1.0
  3
PROSPEKT
100
AcDbAlignedDimension
 13
329.9280678934179
 23
298.5683761686724
 33
0.0
 14
329.9280678934179
 24
328.5683761686724
 34
0.0
 50
90.0
100
AcDbRotatedDimension
  0
DIMENSION
  5
126
330
2
100
AcDbEntity
  8
LAYER1
  6
Continuous
100
AcDbDimension
  2
*D12
 10
313.6810928226961
 20
390.5683761686724
 30
0.0
 11
309.5560928226961
 21
375.5683761686724
 31
0.0
 71
     5
 42
-1.0
  3
PROSPEKT
100
AcDbAlignedDimension
 13
343.1761804874606
 23
360.5683761686724
 33
0.0
 14
340.1761804874606
 24
390.5683761686724
 34
0.0
 50
90.0
100
AcDbRotatedDimension
  0
DIMENSION
  5
133
330
2
100
AcDbEntity
  8
LAYER1
  6
Continuous
100
AcDbDimension
  2
*D17
 10
425.4530000624986
 20
390.5683761686724
 30
0.0
 11
421.3280000624986
 21
385.5683761686724
 31
0.0
 71
     5
 42
-1.0
  3
PROSPEKT
100
AcDbAlignedDimension
 13
439.7030000624987
 23
380.5683761686724
 33
0.0
 14
436.4530000624987
 24
390.5683761686724
 34
0.0
 50
90.0
100
AcDbRotatedDimension
  0
LWPOLYLINE
  5
142
330
2
100
AcDbEntity
  8
LAYER3
  6
Continuous
 62
     4
100
AcDbPolyline
 90
        5
 70
     1
 43
0.0
 10
369.3761804874607
 20
334.9683761686724
 10
367.1761804874606
 20
334.9683761686724
 10
367.1761804874606
 20
340.0683761686724
 10
367.1761804874606
 20
345.1683761686723
 10
369.3761804874607
 20
345.1683761686723
  0
DIMENSION
  5
143
330
2
100
AcDbEntity
  8
LAYER1
  6
Continuous
100
AcDbDimension
  2
*D0
 10
391.9479916337399
 20
360.5683761686724
 30
0.0
 11
387.8229916337399
 21
337.0683761686724
 31
0.0
 71
     5
 42
-1.0
  3
PROSPEKT
100
AcDbAlignedDimension
 13
366.1761804874606
 23
313.5683761686724
 33
0.0
 14
365.1761804874606
 24
360.5683761686724
 34
0.0
 50
90.0
100
AcDbRotatedDimension
  0
CIRCLE
  5
150
330
2
100
AcDbEntity
  8
LAYER3
  6
Continuous
 62
     4
100
AcDbCircle
 10
362.1761804874606
 20
313.5683761686724
 30
0.0
 40
2.0
  0
LINE
  5
151
330
2
100
AcDbEntity
  8
ACHSEN
100
AcDbLine
 10
362.1761804874606
 20
313.5683761686724
 30
0.0
 11
366.1761804874606
 21
313.5683761686724
 31
0.0
  0
ARC
  5
152
330
2
100
AcDbEntity
  8
LAYER3
  6
Continuous
 62
     4
100
AcDbCircle
 10
356.9417304769745
 20
313.5683761686724
 30
0.0
 40
29.76554998951382
100
AcDbArc
 50
155.1686597832756
 51
204.8313402167261
  0
LWPOLYLINE
  5
153
330
2
100
AcDbEntity
  8
LAYER3
  6
Continuous
 62
     4
100
AcDbPolyline
 90
        3
 70
     0
 43
0.0
 10
353.1761804874606
 20
313.5683761686724
 10
353.1761804874606
 20
326.5683761686724
 10
343.1761804874606
 20
326.5683761686724
  0
LWPOLYLINE
  5
154
330
2
100
AcDbEntity
  8
LAYER3
  6
Continuous
 62
     4
100
AcDbPolyline
 90
        3
 70
     0
 43
0.0
 10
353.1761804874606
 20
313.5683761686724
 10
353.1761804874606
 20
300.5683761686724
 10
343.1761804874606
 20
300.5683761686724
  0
LWPOLYLINE
  5
155
330
2
100
AcDbEntity
  8
LAYER3
  6
Continuous
 62
     4
100
AcDbPolyline
 90
        2
 70
     0
 43
0.0
 10
353.1761804874606
 20
301.5683761686724
 10
343.1761804874606
 20
301.5683761686724
  0
LWPOLYLINE
  5
156
330
2
100
AcDbEntity
  8
LAYER3
  6
Continuous
 62
     4
100
AcDbPolyline
 90
        3
 70
     0
 43
0.0
 10
329.9280678934179
 20
301.0683761686725
 10
329.9280678934179
 20
298.5683761686724
 10
340.1761804874606
 20
298.5683761686724
  0
LWPOLYLINE
  5
157
330
2
100
AcDbEntity
  8
LAYER3
  6
Continuous
 62
     4
100
AcDbPolyline
 90
        2
 70
     0
 43
0.0
 10
340.1761804874606
 20
301.0683761686725
 10
329.9280678934179
 20
301.0683761686725
  0
ARC
  5
158
330
2
100
AcDbEntity
  8
LAYER3
  6
Continuous
 62
     4
100
AcDbCircle
 10
333.5017091171073
 20
305.122312828304
 30
0.0
 40
6.844882006563733
100
AcDbArc
 50
323.6825874793108
 51
347.1882588435787
  0
LINE
  5
159
330
2
100
AcDbEntity
  8
ACHSEN
100
AcDbLine
 10
351.0199473169049
 20
313.5258811462491
 30
0.0
 11
351.0199473169049
 21
307.5258811462491
 31
0.0
  0
LINE
  5
15A
330
2
100
AcDbEntity
  8
ACHSEN
100
AcDbLine
 10
351.0199473169049
 20
313.5258811462491
 30
0.0
 11
357.0199473169049
 21
313.5258811462491
 31
0.0
  0
LINE
  5
15B
330
2
100
AcDbEntity
  8
ACHSEN
100
AcDbLine
 10
351.0199473169049
 20
313.5258811462491
 30
0.0
 11
351.0199473169049
 21
319.5258811462491
 31
0.0
  0
LINE
  5
15C
330
2
100
AcDbEntity
  8
ACHSEN
100
AcDbLine
 10
351.0199473169049
 20
313.5258811462491
 30
0.0
 11
345.0199473169049
 21
313.5258811462491
 31
0.0
  0
ARC
  5
15D
330
2
100
AcDbEntity
  8
LAYER3
  6
Continuous
 62
     4
100
AcDbCircle
 10
351.0199473169049
 20
313.5258811462491
 30
0.0
 40
4.000000000000007
100
AcDbArc
 50
90.10952896252561
 51
269.8904710374743
  0
LINE
  5
15E
330
2
100
AcDbEntity
  8
LAYER3
  6
Continuous
 62
     4
100
AcDbLine
 10
353.1761804874606
 20
309.5258884549897
 30
0.0
 11
351.0123007574727
 21
309.5258884549897
 31
0.0
  0
LINE
  5
15F
330
2
100
AcDbEntity
  8
LAYER3
  6
Continuous
 62
     4
100
AcDbLine
 10
351.0123007574727
 20
317.5258738375085
 30
0.0
 11
353.1761804874606
 21
317.5258738375085
 31
0.0
  0
LINE
  5
160
330
2
100
AcDbEntity
  8
ACHSEN
100
AcDbLine
 10
362.1761804874606
 20
313.5683761686724
 30
0.0
 11
362.1761804874606
 21
317.5683761686724
 31
0.0
  0
LINE
  5
161
330
2
100
AcDbEntity
  8
ACHSEN
100
AcDbLine
 10
362.1761804874606
 20
313.5683761686724
 30
0.0
 11
358.1761804874606
 21
313.5683761686724
 31
0.0
  0
LINE
  5
162
330
2
100
AcDbEntity
  8
ACHSEN
100
AcDbLine
 10
362.1761804874606
 20
313.5683761686724
 30
0.0
 11
362.1761804874606
 21
309.5683761686724
 31
0.0
  0
LWPOLYLINE
  5
163
330
2
100
AcDbEntity
  8
LAYER3
  6
Continuous
 62
     4
100
AcDbPolyline
 90
        2
 70
     0
 43
0.0
 10
353.1761804874606
 20
325.5683761686724
 10
343.1761804874606
 20
325.5683761686723
  0
LINE
  5
164
330
2
100
AcDbEntity
  8
LAYER3
  6
Continuous
 62
     4
100
AcDbLine
 10
340.1761804874606
 20
328.5683761686724
 30
0.0
 11
329.9280678934179
 21
328.5683761686724
 31
0.0
  0
LWPOLYLINE
  5
165
330
2
100
AcDbEntity
  8
LAYER3
  6
Continuous
 62
     4
100
AcDbPolyline
 90
        3
 70
     0
 43
0.0
 10
329.9280678934179
 20
328.5683761686724
 10
329.9280678934179
 20
326.0683761686724
 10
340.1761804874606
 20
326.0683761686724
  0
ARC
  5
166
330
2
100
AcDbEntity
  8
LAYER3
  6
Continuous
 62
     4
100
AcDbCircle
 10
333.5017091171061
 20
322.0144395090402
 30
0.0
 40
6.844882006565093
100
AcDbArc
 50
12.81174115642293
 51
36.31741252068659
  0
LINE
  5
167
330
2
100
AcDbEntity
  8
LAYER3
  6
Continuous
 62
     4
100
AcDbLine
 10
353.9740627722695
 20
353.5443406107645
 30
0.0
 11
354.3740627722694
 21
353.5443406107645
 31
0.0
  0
LINE
  5
168
330
2
100
AcDbEntity
  8
LAYER3
  6
Continuous
 62
     4
100
AcDbLine
 10
353.9740627722695
 20
349.5443406107645
 30
0.0
 11
354.3740627722694
 21
349.5443406107645
 31
0.0
  0
CIRCLE
  5
169
330
2
100
AcDbEntity
  8
LAYER3
 62
     4
100
AcDbCircle
 10
354.1761804874606
 20
351.5683761686724
 30
0.0
 40
3.5
  0
ARC
  5
16A
330
2
100
AcDbEntity
  8
LAYER3
  6
Continuous
 62
     4
100
AcDbCircle
 10
353.9740627722695
 20
353.2443406107645
 30
0.0
 40
0.3
100
AcDbArc
 50
90.0
 51
180.0
  0
ARC
  5
16B
330
2
100
AcDbEntity
  8
LAYER3
  6
Continuous
 62
     4
100
AcDbCircle
 10
352.4740627722695
 20
351.3443406107644
 30
0.0
 40
0.3
100
AcDbArc
 50
180.0
 51
270.0
  0
LINE
  5
16C
330
2
100
AcDbEntity
  8
LAYER3
  6
Continuous
 62
     4
100
AcDbLine
 10
352.4740627722695
 20
351.0443406107644
 30
0.0
 11
353.5740627722694
 21
351.0443406107644
 31
0.0
  0
ARC
  5
16D
330
2
100
AcDbEntity
  8
LAYER3
  6
Continuous
 62
     4
100
AcDbCircle
 10
353.5740627722694
 20
350.9443406107644
 30
0.0
 40
0.1
100
AcDbArc
 50
0.0
 51
90.0
  0
LINE
  5
16E
330
2
100
AcDbEntity
  8
LAYER3
  6
Continuous
 62
     4
100
AcDbLine
 10
352.1740627722695
 20
351.7443406107644
 30
0.0
 11
352.1740627722695
 21
351.3443406107644
 31
0.0
  0
LINE
  5
16F
330
2
100
AcDbEntity
  8
LAYER3
  6
Continuous
 62
     4
100
AcDbLine
 10
352.4740627722695
 20
352.0443406107645
 30
0.0
 11
353.5740627722694
 21
352.0443406107645
 31
0.0
  0
ARC
  5
170
330
2
100
AcDbEntity
  8
LAYER3
  6
Continuous
 62
     4
100
AcDbCircle
 10
352.4740627722695
 20
351.7443406107644
 30
0.0
 40
0.3
100
AcDbArc
 50
90.0
 51
180.0
  0
ARC
  5
171
330
2
100
AcDbEntity
  8
LAYER3
  6
Continuous
 62
     4
100
AcDbCircle
 10
353.5740627722694
 20
352.1443406107645
 30
0.0
 40
0.1
100
AcDbArc
 50
270.0
 51
0.0
  0
ARC
  5
172
330
2
100
AcDbEntity
  8
LAYER3
  6
Continuous
 62
     4
100
AcDbCircle
 10
353.9740627722695
 20
349.8443406107645
 30
0.0
 40
0.3
100
AcDbArc
 50
180.0
 51
270.0
  0
LINE
  5
173
330
2
100
AcDbEntity
  8
LAYER3
  6
Continuous
 62
     4
100
AcDbLine
 10
353.6740627722695
 20
350.9443406107644
 30
0.0
 11
353.6740627722695
 21
349.8443406107645
 31
0.0
  0
LINE
  5
174
330
2
100
AcDbEntity
  8
LAYER3
  6
Continuous
 62
     4
100
AcDbLine
 10
353.6740627722695
 20
353.2443406107645
 30
0.0
 11
353.6740627722695
 21
352.1443406107645
 31
0.0
  0
ARC
  5
175
330
2
100
AcDbEntity
  8
LAYER3
  6
Continuous
 62
     4
100
AcDbCircle
 10
354.3740627722694
 20
353.2443406107645
 30
0.0
 40
0.3
100
AcDbArc
 50
0.0
 51
90.0
  0
ARC
  5
176
330
2
100
AcDbEntity
  8
LAYER3
  6
Continuous
 62
     4
100
AcDbCircle
 10
355.8740627722694
 20
351.3443406107644
 30
0.0
 40
0.3
100
AcDbArc
 50
270.0
 51
0.0
  0
ARC
  5
177
330
2
100
AcDbEntity
  8
LAYER3
  6
Continuous
 62
     4
100
AcDbCircle
 10
355.8740627722694
 20
351.7443406107644
 30
0.0
 40
0.3
100
AcDbArc
 50
0.0
 51
90.0
  0
LINE
  5
178
330
2
100
AcDbEntity
  8
LAYER3
  6
Continuous
 62
     4
100
AcDbLine
 10
354.7740627722694
 20
351.0443406107644
 30
0.0
 11
355.8740627722694
 21
351.0443406107644
 31
0.0
  0
ARC
  5
179
330
2
100
AcDbEntity
  8
LAYER3
  6
Continuous
 62
     4
100
AcDbCircle
 10
354.7740627722694
 20
350.9443406107644
 30
0.0
 40
0.1
100
AcDbArc
 50
90.0
 51
180.0
  0
LINE
  5
17A
330
2
100
AcDbEntity
  8
LAYER3
  6
Continuous
 62
     4
100
AcDbLine
 10
354.7740627722694
 20
352.0443406107645
 30
0.0
 11
355.8740627722694
 21
352.0443406107645
 31
0.0
  0
ARC
  5
17B
330
2
100
AcDbEntity
  8
LAYER3
  6
Continuous
 62
     4
100
AcDbCircle
 10
354.7740627722694
 20
352.1443406107645
 30
0.0
 40
0.1
100
AcDbArc
 50
180.0
 51
270.0
  0
ARC
  5
17C
330
2
100
AcDbEntity
  8
LAYER3
  6
Continuous
 62
     4
100
AcDbCircle
 10
354.3740627722694
 20
349.8443406107645
 30
0.0
 40
0.3
100
AcDbArc
 50
270.0
 51
0.0
  0
LINE
  5
17D
330
2
100
AcDbEntity
  8
LAYER3
  6
Continuous
 62
     4
100
AcDbLine
 10
354.6740627722694
 20
350.9443406107644
 30
0.0
 11
354.6740627722694
 21
349.8443406107645
 31
0.0
  0
LINE
  5
17E
330
2
100
AcDbEntity
  8
LAYER3
  6
Continuous
 62
     4
100
AcDbLine
 10
356.1740627722695
 20
351.7443406107644
 30
0.0
 11
356.1740627722695
 21
351.3443406107644
 31
0.0
  0
LINE
  5
17F
330
2
100
AcDbEntity
  8
LAYER3
  6
Continuous
 62
     4
100
AcDbLine
 10
354.6740627722694
 20
353.2443406107645
 30
0.0
 11
354.6740627722694
 21
352.1443406107645
 31
0.0
  0
ARC
  5
180
330
2
100
AcDbEntity
  8
LAYER3
  6
Continuous
 62
     4
100
AcDbCircle
 10
471.2030000624987
 20
313.5683761686724
 30
0.0
 40
32.0
100
AcDbArc
 50
156.0729385111277
 51
203.9270614888721
  0
ARC
  5
181
330
2
100
AcDbEntity
  8
LAYER3
  6
Continuous
 62
     4
100
AcDbCircle
 10
421.7030000624986
 20
313.5683761686724
 30
0.0
 40
32.0
100
AcDbArc
 50
336.072938511128
 51
23.92706148887195
  0
LWPOLYLINE
  5
182
330
2
100
AcDbEntity
  8
LAYER3
  6
Continuous
 62
     4
100
AcDbPolyline
 90
        4
 70
     1
 43
0.0
 10
441.9530000624987
 20
301.0683761686725
 10
441.9530000624987
 20
298.5683761686724
 10
450.9530000624986
 20
298.5683761686724
 10
450.9530000624986
 20
301.0683761686725
  0
LWPOLYLINE
  5
183
330
2
100
AcDbEntity
  8
LAYER3
  6
Continuous
 62
     4
100
AcDbPolyline
 90
        4
 70
     1
 43
0.0
 10
441.9530000624987
 20
328.5683761686724
 10
441.9530000624987
 20
326.0683761686724
 10
450.9530000624986
 20
326.0683761686724
 10
450.9530000624986
 20
328.5683761686724
  0
ARC
  5
184
330
2
100
AcDbEntity
  8
LAYER3
  6
Continuous
 62
     4
100
AcDbCircle
 10
446.6508823473075
 20
338.3443406107645
 30
0.0
 40
0.3
100
AcDbArc
 50
270.0
 51
0.0
  0
ARC
  5
185
330
2
100
AcDbEntity
  8
LAYER3
  6
Continuous
 62
     4
100
AcDbCircle
 10
446.6508823473075
 20
341.7443406107644
 30
0.0
 40
0.3
100
AcDbArc
 50
0.0
 51
90.0
  0
CIRCLE
  5
186
330
2
100
AcDbEntity
  8
LAYER3
 62
     4
100
AcDbCircle
 10
446.4530000624987
 20
340.0683761686724
 30
0.0
 40
3.5
  0
LINE
  5
187
330
2
100
AcDbEntity
  8
LAYER3
  6
Continuous
 62
     4
100
AcDbLine
 10
446.2508823473075
 20
338.0443406107644
 30
0.0
 11
446.6508823473075
 21
338.0443406107644
 31
0.0
  0
LINE
  5
188
330
2
100
AcDbEntity
  8
LAYER3
  6
Continuous
 62
     4
100
AcDbLine
 10
446.2508823473075
 20
342.0443406107644
 30
0.0
 11
446.6508823473075
 21
342.0443406107644
 31
0.0
  0
ARC
  5
189
330
2
100
AcDbEntity
  8
LAYER3
  6
Continuous
 62
     4
100
AcDbCircle
 10
445.8508823473074
 20
340.6443406107645
 30
0.0
 40
0.1
100
AcDbArc
 50
270.0
 51
0.0
  0
LINE
  5
18A
330
2
100
AcDbEntity
  8
LAYER3
  6
Continuous
 62
     4
100
AcDbLine
 10
445.9508823473075
 20
341.7443406107644
 30
0.0
 11
445.9508823473075
 21
340.6443406107645
 31
0.0
  0
ARC
  5
18B
330
2
100
AcDbEntity
  8
LAYER3
  6
Continuous
 62
     4
100
AcDbCircle
 10
445.8508823473074
 20
339.4443406107644
 30
0.0
 40
0.1
100
AcDbArc
 50
0.0
 51
90.0
  0
LINE
  5
18C
330
2
100
AcDbEntity
  8
LAYER3
  6
Continuous
 62
     4
100
AcDbLine
 10
445.9508823473075
 20
339.4443406107644
 30
0.0
 11
445.9508823473075
 21
338.3443406107645
 31
0.0
  0
ARC
  5
18D
330
2
100
AcDbEntity
  8
LAYER3
  6
Continuous
 62
     4
100
AcDbCircle
 10
446.2508823473075
 20
338.3443406107645
 30
0.0
 40
0.3
100
AcDbArc
 50
180.0
 51
270.0
  0
ARC
  5
18E
330
2
100
AcDbEntity
  8
LAYER3
  6
Continuous
 62
     4
100
AcDbCircle
 10
446.2508823473075
 20
341.7443406107644
 30
0.0
 40
0.3
100
AcDbArc
 50
90.0
 51
180.0
  0
ARC
  5
18F
330
2
100
AcDbEntity
  8
LAYER3
  6
Continuous
 62
     4
100
AcDbCircle
 10
444.7508823473074
 20
340.2443406107644
 30
0.0
 40
0.3
100
AcDbArc
 50
90.0
 51
180.0
  0
LINE
  5
190
330
2
100
AcDbEntity
  8
LAYER3
  6
Continuous
 62
     4
100
AcDbLine
 10
444.4508823473074
 20
340.2443406107644
 30
0.0
 11
444.4508823473074
 21
339.8443406107645
 31
0.0
  0
ARC
  5
191
330
2
100
AcDbEntity
  8
LAYER3
  6
Continuous
 62
     4
100
AcDbCircle
 10
444.7508823473074
 20
339.8443406107645
 30
0.0
 40
0.3
100
AcDbArc
 50
180.0
 51
270.0
  0
LINE
  5
192
330
2
100
AcDbEntity
  8
LAYER3
  6
Continuous
 62
     4
100
AcDbLine
 10
444.7508823473074
 20
340.5443406107644
 30
0.0
 11
445.8508823473074
 21
340.5443406107644
 31
0.0
  0
LINE
  5
193
330
2
100
AcDbEntity
  8
LAYER3
  6
Continuous
 62
     4
100
AcDbLine
 10
444.7508823473074
 20
339.5443406107645
 30
0.0
 11
445.8508823473074
 21
339.5443406107645
 31
0.0
  0
ARC
  5
194
330
2
100
AcDbEntity
  8
LAYER3
  6
Continuous
 62
     4
100
AcDbCircle
 10
448.1508823473075
 20
340.2443406107644
 30
0.0
 40
0.3
100
AcDbArc
 50
0.0
 51
90.0
  0
LINE
  5
195
330
2
100
AcDbEntity
  8
LAYER3
  6
Continuous
 62
     4
100
AcDbLine
 10
448.4508823473074
 20
340.2443406107644
 30
0.0
 11
448.4508823473074
 21
339.8443406107645
 31
0.0
  0
ARC
  5
196
330
2
100
AcDbEntity
  8
LAYER3
  6
Continuous
 62
     4
100
AcDbCircle
 10
448.1508823473075
 20
339.8443406107645
 30
0.0
 40
0.3
100
AcDbArc
 50
270.0
 51
0.0
  0
ARC
  5
197
330
2
100
AcDbEntity
  8
LAYER3
  6
Continuous
 62
     4
100
AcDbCircle
 10
447.0508823473075
 20
340.6443406107645
 30
0.0
 40
0.1
100
AcDbArc
 50
180.0
 51
270.0
  0
LINE
  5
198
330
2
100
AcDbEntity
  8
LAYER3
  6
Continuous
 62
     4
100
AcDbLine
 10
446.9508823473074
 20
341.7443406107644
 30
0.0
 11
446.9508823473074
 21
340.6443406107645
 31
0.0
  0
ARC
  5
199
330
2
100
AcDbEntity
  8
LAYER3
  6
Continuous
 62
     4
100
AcDbCircle
 10
447.0508823473075
 20
339.4443406107644
 30
0.0
 40
0.1
100
AcDbArc
 50
90.0
 51
180.0
  0
LINE
  5
19A
330
2
100
AcDbEntity
  8
LAYER3
  6
Continuous
 62
     4
100
AcDbLine
 10
446.9508823473074
 20
339.4443406107644
 30
0.0
 11
446.9508823473074
 21
338.3443406107645
 31
0.0
  0
LINE
  5
19B
330
2
100
AcDbEntity
  8
LAYER3
  6
Continuous
 62
     4
100
AcDbLine
 10
447.0508823473075
 20
340.5443406107644
 30
0.0
 11
448.1508823473075
 21
340.5443406107644
 31
0.0
  0
LINE
  5
19C
330
2
100
AcDbEntity
  8
LAYER3
  6
Continuous
 62
     4
100
AcDbLine
 10
447.0508823473075
 20
339.5443406107645
 30
0.0
 11
448.1508823473075
 21
339.5443406107645
 31
0.0
  0
LINE
  5
19D
330
2
100
AcDbEntity
  8
ACHSEN
100
AcDbLine
 10
446.4530000624987
 20
380.5683761686724
 30
0.0
 11
446.4530000624987
 21
373.8183761686724
 31
0.0
  0
CIRCLE
  5
19E
330
2
100
AcDbEntity
  8
LAYER3
  6
Continuous
 62
     4
100
AcDbCircle
 10
446.4530000624987
 20
380.5683761686724
 30
0.0
 40
2.6
  0
CIRCLE
  5
19F
330
2
100
AcDbEntity
  8
LAYER3
  6
Continuous
 62
     4
100
AcDbCircle
 10
446.4530000624987
 20
380.5683761686724
 30
0.0
 40
4.75
  0
LINE
  5
1A0
330
2
100
AcDbEntity
  8
ACHSEN
100
AcDbLine
 10
446.4530000624987
 20
380.5683761686724
 30
0.0
 11
453.2030000624986
 21
380.5683761686724
 31
0.0
  0
LINE
  5
1A1
330
2
100
AcDbEntity
  8
ACHSEN
100
AcDbLine
 10
446.4530000624987
 20
380.5683761686724
 30
0.0
 11
439.7030000624987
 21
380.5683761686724
 31
0.0
  0
LINE
  5
1A2
330
2
100
AcDbEntity
  8
ACHSEN
100
AcDbLine
 10
446.4530000624987
 20
380.5683761686724
 30
0.0
 11
446.4530000624987
 21
387.3183761686723
 31
0.0
  0
ENDSEC
  0
SECTION
  2
OBJECTS
  0
DICTIONARY
  5
8
330
0
100
AcDbDictionary
281
     1
  3
ACAD_GROUP
350
20
  3
ACAD_LAYOUT
350
C
  3
ACAD_MLINESTYLE
350
21
  3
ACAD_PLOTSETTINGS
350
22
  3
ACAD_PLOTSTYLENAME
350
7
  3
AcDbVariableDictionary
350
1CE
  3
AcmDictionary
350
1B3
  3
AMG
350
1A4
  3
DWGPROPS
350
1CD
  0
DICTIONARY
  5
3
330
2
100
AcDbDictionary
280
     1
281
     1
  0
DICTIONARY
  5
20
102
{ACAD_REACTORS
330
8
102
}
330
8
100
AcDbDictionary
281
     1
  0
DICTIONARY
  5
C
102
{ACAD_REACTORS
330
8
102
}
330
8
100
AcDbDictionary
281
     1
  3
Layout1
350
10
  3
Model
350
B
  0
DICTIONARY
  5
21
102
{ACAD_REACTORS
330
8
102
}
330
8
100
AcDbDictionary
281
     1
  3
STANDARD
350
25
  0
DICTIONARY
  5
22
102
{ACAD_REACTORS
330
8
102
}
330
8
100
AcDbDictionary
281
     1
  0
ACDBDICTIONARYWDFLT
  5
7
102
{ACAD_REACTORS
330
8
102
}
330
8
100
AcDbDictionary
281
     1
  3
Normal
350
6
100
AcDbDictionaryWithDefault
340
6
  0
DICTIONARY
  5
1CE
102
{ACAD_REACTORS
330
8
102
}
330
8
100
AcDbDictionary
281
     1
  3
DIMASSOC
350
1D0
  3
HIDETEXT
350
1CF
  0
DICTIONARY
  5
1B3
102
{ACAD_REACTORS
330
8
102
}
330
8
100
AcDbDictionary
281
     1
  3
AcmStdDictionary
350
1B4
  0
DICTIONARY
  5
1A4
102
{ACAD_REACTORS
330
8
102
}
330
8
100
AcDbDictionary
281
     1
  3
AcMgSettings
350
1AE
  3
AMGLAYCFG
350
1A3
  0
XRECORD
  5
1CD
102
{ACAD_REACTORS
330
8
102
}
330
8
100
AcDbXrecord
280
     1
  1
DWGPROPS COOKIE
  2

  3

  4

  6

  7

  8

  9

300
AmdtFileType=84
301
=
302
=
303
=
304
=
305
=
306
=
307
=
308
=
309
=
 40
0.0528157523148148
 41
2450798.610737963
 42
2452608.671982245
  1

 90
        1
  0
LAYOUT
  5
10
102
{ACAD_REACTORS
330
C
102
}
330
C
100
AcDbPlotSettings
  1

  2
G:\VORLAGEN\AutoCAD2002\Plotten\A3hoch-MSL.pc3
  4

  6

 40
0.0
 41
0.0
 42
0.0
 43
0.0
 44
0.0
 45
0.0
 46
0.0
 47
0.0
 48
0.0
 49
0.0
140
0.0
141
0.0
142
1.0
143
1.0
 70
   688
 72
     0
 73
     0
 74
     5
  7
monochrome.ctb
 75
    16
147
1.0
148
0.0
149
0.0
100
AcDbLayout
  1
Layout1
 70
     0
 71
     1
 10
0.0
 20
0.0
 11
420.0
 21
297.0
 12
0.0
 22
0.0
 32
0.0
 14
5.0
 24
5.0
 34
0.0
 15
415.0
 25
300.0
 35
0.0
146
0.0
 13
0.0
 23
0.0
 33
0.0
 16
1.0
 26
0.0
 36
0.0
 17
0.0
 27
1.0
 37
0.0
 76
     0
330
D
  0
LAYOUT
  5
B
102
{ACAD_REACTORS
330
C
102
}
330
C
100
AcDbPlotSettings
  1

  2
G:\VORLAGEN\AutoCAD2002\Plotten\A3hoch-MSL.pc3
  4

  6

 40
0.0
 41
0.0
 42
0.0
 43
0.0
 44
0.0
 45
0.0
 46
0.0
 47
0.0
 48
0.0
 49
0.0
140
0.0
141
0.0
142
1.0
143
1.0
 70
  1712
 72
     0
 73
     0
 74
     0
  7
monochrome.ctb
 75
     0
147
1.0
148
0.0
149
0.0
100
AcDbLayout
  1
Model
 70
     1
 71
     0
 10
0.0
 20
0.0
 11
12.0
 21
9.0
 12
0.0
 22
0.0
 32
0.0
 14
0.0
 24
0.0
 34
0.0
 15
0.0
 25
0.0
 35
0.0
146
0.0
 13
0.0
 23
0.0
 33
0.0
 16
1.0
 26
0.0
 36
0.0
 17
0.0
 27
1.0
 37
0.0
 76
     0
330
2
  0
MLINESTYLE
  5
25
102
{ACAD_REACTORS
330
21
102
}
330
21
100
AcDbMlineStyle
  2
STANDARD
 70
     0
  3

 62
   256
 51
90.0
 52
90.0
 71
     2
 49
0.5
 62
   256
  6
BYLAYER
 49
-0.5
 62
   256
  6
BYLAYER
  0
ACDBPLACEHOLDER
  5
6
102
{ACAD_REACTORS
330
7
102
}
330
7
  0
DICTIONARYVAR
  5
1D0
102
{ACAD_REACTORS
330
1CE
102
}
330
1CE
100
DictionaryVariables
280
     0
  1
1
  0
DICTIONARYVAR
  5
1CF
102
{ACAD_REACTORS
330
1CE
102
}
330
1CE
100
DictionaryVariables
280
     0
  1
1
  0
DICTIONARY
  5
1B4
102
{ACAD_REACTORS
330
1B3
102
}
330
1B3
100
AcDbDictionary
281
     1
  3
DIN
350
1B5
  0
DICTIONARY
  5
1AE
102
{ACAD_REACTORS
330
1A4
102
}
330
1A4
100
AcDbDictionary
281
     1
  3
DWGSETTINGS
350
1AD
  3
TRANSSETTINGS
350
1AF
  0
ENDSEC
  0
EOF
