  0
SECTION
  2
HEADER
  9
$ACADVER
  1
AC1015
  9
$ACADMAINTVER
 70
    14
  9
$DWGCODEPAGE
  3
ANSI_1252
  9
$INSBASE
 10
0.0
 20
0.0
 30
0.0
  9
$EXTMIN
 10
33.74999999999996
 20
11.12208407501165
 30
0.0
  9
$EXTMAX
 10
966.6992513680048
 20
587.25
 30
0.0
  9
$LIMMIN
 10
0.0
 20
0.0
  9
$LIMMAX
 10
511.7227517472551
 20
593.6924905283565
  9
$ORTHOMODE
 70
     1
  9
$REGENMODE
 70
     1
  9
$FILLMODE
 70
     1
  9
$QTEXTMODE
 70
     0
  9
$MIRRTEXT
 70
     0
  9
$LTSCALE
 40
12.0
  9
$ATTMODE
 70
     1
  9
$TEXTSIZE
 40
10.0
  9
$TRACEWID
 40
1.0
  9
$TEXTSTYLE
  7
NORM
  9
$CLAYER
  8
UMRISS05
  9
$CELTYPE
  6
BYLAYER
  9
$CECOLOR
 62
   256
  9
$CELTSCALE
 40
1.0
  9
$DISPSILH
 70
     0
  9
$DIMSCALE
 40
1.199999999999999
  9
$DIMASZ
 40
3.5
  9
$DIMEXO
 40
0.5
  9
$DIMDLI
 40
8.0
  9
$DIMRND
 40
0.0
  9
$DIMDLE
 40
0.0
  9
$DIMEXE
 40
0.5
  9
$DIMTP
 40
0.0
  9
$DIMTM
 40
0.0
  9
$DIMTXT
 40
3.5
  9
$DIMCEN
 40
1.5
  9
$DIMTSZ
 40
0.0
  9
$DIMTOL
 70
     0
  9
$DIMLIM
 70
     0
  9
$DIMTIH
 70
     0
  9
$DIMTOH
 70
     0
  9
$DIMSE1
 70
     0
  9
$DIMSE2
 70
     0
  9
$DIMTAD
 70
     1
  9
$DIMZIN
 70
     8
  9
$DIMBLK
  1

  9
$DIMASO
 70
     1
  9
$DIMSHO
 70
     1
  9
$DIMPOST
  1

  9
$DIMAPOST
  1

  9
$DIMALT
 70
     0
  9
$DIMALTD
 70
     2
  9
$DIMALTF
 40
25.39999999999999
  9
$DIMLFAC
 40
1.0
  9
$DIMTOFL
 70
     1
  9
$DIMTVP
 40
0.0
  9
$DIMTIX
 70
     1
  9
$DIMSOXD
 70
     0
  9
$DIMSAH
 70
     0
  9
$DIMBLK1
  1

  9
$DIMBLK2
  1

  9
$DIMSTYLE
  2
PROSPEKT
  9
$DIMCLRD
 70
     2
  9
$DIMCLRE
 70
     2
  9
$DIMCLRT
 70
     3
  9
$DIMTFAC
 40
0.5
  9
$DIMGAP
 40
1.0
  9
$DIMJUST
 70
     0
  9
$DIMSD1
 70
     0
  9
$DIMSD2
 70
     0
  9
$DIMTOLJ
 70
     1
  9
$DIMTZIN
 70
     8
  9
$DIMALTZ
 70
     8
  9
$DIMALTTZ
 70
     8
  9
$DIMUPT
 70
     0
  9
$DIMDEC
 70
     2
  9
$DIMTDEC
 70
     2
  9
$DIMALTU
 70
     2
  9
$DIMALTTD
 70
     2
  9
$DIMTXSTY
  7
NORM
  9
$DIMAUNIT
 70
     0
  9
$DIMADEC
 70
     0
  9
$DIMALTRND
 40
0.0
  9
$DIMAZIN
 70
     0
  9
$DIMDSEP
 70
    46
  9
$DIMATFIT
 70
     3
  9
$DIMFRAC
 70
     0
  9
$DIMLDRBLK
  1

  9
$DIMLUNIT
 70
     2
  9
$DIMLWD
 70
    -2
  9
$DIMLWE
 70
    -2
  9
$DIMTMOVE
 70
     2
  9
$LUNITS
 70
     2
  9
$LUPREC
 70
     2
  9
$SKETCHINC
 40
1.0
  9
$FILLETRAD
 40
0.0
  9
$AUNITS
 70
     0
  9
$AUPREC
 70
     0
  9
$MENU
  1
CADIM
  9
$ELEVATION
 40
0.0
  9
$PELEVATION
 40
0.0
  9
$THICKNESS
 40
0.0
  9
$LIMCHECK
 70
     0
  9
$CHAMFERA
 40
0.0
  9
$CHAMFERB
 40
0.0
  9
$CHAMFERC
 40
0.0
  9
$CHAMFERD
 40
0.0
  9
$SKPOLY
 70
     0
  9
$TDCREATE
 40
2451009.398051504
  9
$TDUCREATE
 40
2451009.356384838
  9
$TDUPDATE
 40
2453073.309910845
  9
$TDUUPDATE
 40
2453073.268244178
  9
$TDINDWG
 40
0.4662271875
  9
$TDUSRTIMER
 40
0.4662271875
  9
$USRTIMER
 70
     1
  9
$ANGBASE
 50
0.0
  9
$ANGDIR
 70
     0
  9
$PDMODE
 70
     0
  9
$PDSIZE
 40
-1.0
  9
$PLINEWID
 40
0.0
  9
$SPLFRAME
 70
     0
  9
$SPLINETYPE
 70
     6
  9
$SPLINESEGS
 70
     8
  9
$HANDSEED
  5
14D
  9
$SURFTAB1
 70
    16
  9
$SURFTAB2
 70
    16
  9
$SURFTYPE
 70
     6
  9
$SURFU
 70
    12
  9
$SURFV
 70
    12
  9
$UCSBASE
  2

  9
$UCSNAME
  2

  9
$UCSORG
 10
0.0
 20
0.0
 30
0.0
  9
$UCSXDIR
 10
1.0
 20
0.0
 30
0.0
  9
$UCSYDIR
 10
0.0
 20
1.0
 30
0.0
  9
$UCSORTHOREF
  2

  9
$UCSORTHOVIEW
 70
     0
  9
$UCSORGTOP
 10
0.0
 20
0.0
 30
0.0
  9
$UCSORGBOTTOM
 10
0.0
 20
0.0
 30
0.0
  9
$UCSORGLEFT
 10
0.0
 20
0.0
 30
0.0
  9
$UCSORGRIGHT
 10
0.0
 20
0.0
 30
0.0
  9
$UCSORGFRONT
 10
0.0
 20
0.0
 30
0.0
  9
$UCSORGBACK
 10
0.0
 20
0.0
 30
0.0
  9
$PUCSBASE
  2

  9
$PUCSNAME
  2

  9
$PUCSORG
 10
0.0
 20
0.0
 30
0.0
  9
$PUCSXDIR
 10
1.0
 20
0.0
 30
0.0
  9
$PUCSYDIR
 10
0.0
 20
1.0
 30
0.0
  9
$PUCSORTHOREF
  2

  9
$PUCSORTHOVIEW
 70
     0
  9
$PUCSORGTOP
 10
0.0
 20
0.0
 30
0.0
  9
$PUCSORGBOTTOM
 10
0.0
 20
0.0
 30
0.0
  9
$PUCSORGLEFT
 10
0.0
 20
0.0
 30
0.0
  9
$PUCSORGRIGHT
 10
0.0
 20
0.0
 30
0.0
  9
$PUCSORGFRONT
 10
0.0
 20
0.0
 30
0.0
  9
$PUCSORGBACK
 10
0.0
 20
0.0
 30
0.0
  9
$USERI1
 70
     0
  9
$USERI2
 70
   100
  9
$USERI3
 70
     0
  9
$USERI4
 70
     0
  9
$USERI5
 70
     0
  9
$USERR1
 40
0.0
  9
$USERR2
 40
0.0
  9
$USERR3
 40
0.0
  9
$USERR4
 40
0.0
  9
$USERR5
 40
0.0
  9
$WORLDVIEW
 70
     1
  9
$SHADEDGE
 70
     3
  9
$SHADEDIF
 70
    70
  9
$TILEMODE
 70
     1
  9
$MAXACTVP
 70
    16
  9
$PINSBASE
 10
0.0
 20
0.0
 30
0.0
  9
$PLIMCHECK
 70
     0
  9
$PEXTMIN
 10
5.0
 20
5.0
 30
0.0
  9
$PEXTMAX
 10
415.0
 20
300.0
 30
0.0
  9
$PLIMMIN
 10
0.0
 20
0.0
  9
$PLIMMAX
 10
420.0
 20
297.0
  9
$UNITMODE
 70
     0
  9
$VISRETAIN
 70
     0
  9
$PLINEGEN
 70
     0
  9
$PSLTSCALE
 70
     0
  9
$TREEDEPTH
 70
  3020
  9
$CMLSTYLE
  2
STANDARD
  9
$CMLJUST
 70
     0
  9
$CMLSCALE
 40
1.0
  9
$PROXYGRAPHICS
 70
     1
  9
$MEASUREMENT
 70
     1
  9
$CELWEIGHT
370
    -1
  9
$ENDCAPS
280
     0
  9
$JOINSTYLE
280
     0
  9
$LWDISPLAY
290
     0
  9
$INSUNITS
 70
     4
  9
$HYPERLINKBASE
  1

  9
$STYLESHEET
  1

  9
$XEDIT
290
     1
  9
$CEPSNTYPE
380
     0
  9
$PSTYLEMODE
290
     1
  9
$FINGERPRINTGUID
  2
{2059FF65-FF82-49F6-8EFA-B8C0FA2409BD}
  9
$VERSIONGUID
  2
{E2FD5E95-B051-48A1-A9C2-0BEA4707AE03}
  9
$EXTNAMES
290
     1
  9
$PSVPSCALE
 40
0.0
  9
$OLESTARTUP
290
     0
  0
ENDSEC
  0
SECTION
  2
CLASSES
  0
CLASS
  1
DICTIONARYVAR
  2
AcDbDictionaryVar
  3
AutoCAD 2000
 90
        0
280
     0
281
     0
  0
CLASS
  1
LWPOLYLINE
  2
AcDbPolyline
  3
AutoCAD 2000
 90
    32768
280
     0
281
     1
  0
CLASS
  1
XRECORD
  2
AcDbXrecord
  3
AutoCAD 2000
 90
    32768
280
     0
281
     0
  0
CLASS
  1
HATCH
  2
AcDbHatch
  3
AutoCAD 2000
 90
    32768
280
     0
281
     1
  0
CLASS
  1
ACDBDICTIONARYWDFLT
  2
AcDbDictionaryWithDefault
  3
AutoCAD 2000
 90
        0
280
     0
281
     0
  0
CLASS
  1
ACDBPLACEHOLDER
  2
AcDbPlaceHolder
  3
AutoCAD 2000
 90
        0
280
     0
281
     0
  0
CLASS
  1
LAYOUT
  2
AcDbLayout
  3
AutoCAD 2000
 90
        0
280
     0
281
     0
  0
CLASS
  1
ACME_DOCUMENT
  2
AcMeDbDoc
  3
AcMeServices
 90
    32768
280
     0
281
     0
  0
CLASS
  1
AMGSETTINGSOBJ
  2
AmgSettingsObj
  3
"AcadM|Product Description: AutoCAD Mechanical 2000|Company: Autodesk"
 90
        0
280
     0
281
     0
  0
CLASS
  1
ACMESCOPE
  2
AcMeScope
  3
AcMeServices
 90
        0
280
     0
281
     0
  0
CLASS
  1
ACMECOMMANDHISTORY
  2
AcMeCommandHistory
  3
AcMeServices
 90
    32768
280
     0
281
     0
  0
CLASS
  1
ACIMSYSVARMAN
  2
AcImSysVarManager
  3
AcMeServices
 90
        0
280
     0
281
     0
  0
CLASS
  1
ACIMREALSYSVAR
  2
AcImRealSysVar
  3
AcMeServices
 90
    32768
280
     0
281
     0
  0
CLASS
  1
ACIMINTSYSVAR
  2
AcImIntSysVar
  3
AcMeServices
 90
    32768
280
     0
281
     0
  0
CLASS
  1
ACMEDRAWINGMAN
  2
AcMeDrawingMan
  3
AcMeServices
 90
    32768
280
     0
281
     0
  0
CLASS
  1
ACMEVIEW
  2
AcMeView
  3
AcMeServices
 90
    32768
280
     0
281
     0
  0
CLASS
  1
ACDBENTITYCACHE
  2
AcMeEntityCache
  3
AcMeServices
 90
    32768
280
     0
281
     0
  0
CLASS
  1
GSMANAGER
  2
AcMeGSManager
  3
AcMeServices
 90
    32768
280
     0
281
     0
  0
CLASS
  1
AMDTINTERNALREACTOR
  2
AmdtInternalReactor
  3
AcMeServices
 90
    32768
280
     0
281
     0
  0
CLASS
  1
ACMESTATEMGR
  2
AcMeStateMgr
  3
AcMeServices
 90
        0
280
     0
281
     0
  0
CLASS
  1
ACGREFMASTER
  2
AcGrefMaster
  3
AcAttribServices
 90
        0
280
     0
281
     0
  0
CLASS
  1
ACME_DATABASE
  2
AcMeDbDatabase
  3
AcMeServices
 90
    32768
280
     0
281
     0
  0
CLASS
  1
ACRFINSADJUSTERMGR
  2
AcRfInsAdjusterMgr
  3
AcMeServices
 90
    32768
280
     0
281
     0
  0
CLASS
  1
ACGREFACADMASTER
  2
AcGrefacadMaster
  3
AcGrefServices
 90
    32768
280
     0
281
     0
  0
CLASS
  1
AMIMASTER
  2
AmiMaster
  3
AmiServices
 90
    32768
280
     0
281
     0
  0
CLASS
  1
ACMDATADICTIONARY
  2
AcmDataDictionary
  3
"AcmSymBB|Product Description: AutoCAD Mechanical 2000|Company: Autodesk"
 90
    32768
280
     0
281
     0
  0
CLASS
  1
ACMDATAENTRYBLOCK
  2
AcmDataEntryBlock
  3
"AcmSymBB|Product Description: AutoCAD Mechanical 2000|Company: Autodesk"
 90
    32768
280
     0
281
     0
  0
CLASS
  1
ACIMSTRSYSVAR
  2
AcImStrSysVar
  3
AcMeServices
 90
        0
280
     0
281
     0
  0
CLASS
  1
ACMSTANDARDDIN
  2
AcmStandardDIN
  3
"Amdt_StdImp|Product Description: AutoCAD Mechanical 2000|Company: Autodesk"
 90
        0
280
     0
281
     0
  0
CLASS
  1
AMGOBJPROPCFG
  2
AmgObjPropCfg
  3
"AmgLay|Product Description: AutoCAD Mechanical 2000|Company: Autodesk"
 90
        1
280
     0
281
     0
  0
CLASS
  1
AMDTEDGESTANDARDDIN
  2
AmdtEdgeStdDIN
  3
"Amdt_StdImp|Product Description: AutoCAD Mechanical 2000|Company: Autodesk"
 90
        0
280
     0
281
     0
  0
CLASS
  1
ACMSURFSTANDARDDIN
  2
AcmSurfTextStdDIN
  3
"Amdt_StdImp|Product Description: AutoCAD Mechanical 2000|Company: Autodesk"
 90
        0
280
     0
281
     0
  0
CLASS
  1
ACMFCFSTANDARDDIN
  2
AcmFCFStdDIN
  3
"Amdt_StdImp|Product Description: AutoCAD Mechanical 2000|Company: Autodesk"
 90
        0
280
     0
281
     0
  0
CLASS
  1
ACMWELDSTANDARDDIN
  2
AcmWeldingStdDIN
  3
"Amdt_StdImp|Product Description: AutoCAD Mechanical 2000|Company: Autodesk"
 90
        0
280
     0
281
     0
  0
CLASS
  1
ACMIDSTANDARDDIN
  2
AcmIdStdDIN
  3
"Amdt_StdImp|Product Description: AutoCAD Mechanical 2000|Company: Autodesk"
 90
        0
280
     0
281
     0
  0
CLASS
  1
ACMDATUMSTANDARDDIN
  2
AcmDatumStdDIN
  3
"Amdt_StdImp|Product Description: AutoCAD Mechanical 2000|Company: Autodesk"
 90
        0
280
     0
281
     0
  0
CLASS
  1
ACMBOMSTANDARDDIN
  2
AcmBOMStdDIN
  3
"Amdt_StdImp|Product Description: AutoCAD Mechanical 2000|Company: Autodesk"
 90
        0
280
     0
281
     0
  0
CLASS
  1
ACMDETAILSTANDARDDIN
  2
AmdtDetailSymStdDIN
  3
"Amdt_StdImp|Product Description: AutoCAD Mechanical 2000|Company: Autodesk"
 90
        0
280
     0
281
     0
  0
CLASS
  1
ACMSECTIONSTANDARDDIN
  2
AmdtSectionSymStdDIN
  3
"Amdt_StdImp|Product Description: AutoCAD Mechanical 2000|Company: Autodesk"
 90
        0
280
     0
281
     0
  0
CLASS
  1
ACMCENTERLINESTANDARDDIN
  2
AmdtCenterLineStdDIN
  3
"Amdt_StdImp|Product Description: AutoCAD Mechanical 2000|Company: Autodesk"
 90
        0
280
     0
281
     0
  0
CLASS
  1
ACMNOTESTANDARDDIN
  2
AmdtNoteStdDIN
  3
"Amdt_StdImp|Product Description: AutoCAD Mechanical 2000|Company: Autodesk"
 90
        0
280
     0
281
     0
  0
CLASS
  1
ACAMGLAYSTD
  2
AcAmgLayStd
  3
"AcAmgLayStd|Product Description: AutoCAD Mechanical 2000|Company: Autodesk"
 90
        0
280
     0
281
     0
  0
CLASS
  1
ACAMGDIMSTD
  2
AcAmgDimStd
  3
"AcAmgDimStd|Product Description: AutoCAD Mechanical 2000|Company: Autodesk"
 90
        0
280
     0
281
     0
  0
CLASS
  1
ACAMGHOLECHARTSTDDIN
  2
AcAmgHoleChartStdDIN
  3
ACMSYMBB_MODULE_NAME
 90
        0
280
     0
281
     0
  0
CLASS
  1
ACAMGTITLESTD
  2
AcAmgTitleStd
  3
"TITLEAPP"
 90
        0
280
     0
281
     0
  0
CLASS
  1
ACAMGFILTERDAT
  2
AcAmgFilterDat
  3
"AcadM|Product Description: AutoCAD Mechanical 2000|Company: Autodesk"
 90
    32768
280
     0
281
     0
  0
CLASS
  1
LAYER_INDEX
  2
AcDbLayerIndex
  3
AutoCAD 2000
 90
    32768
280
     0
281
     0
  0
CLASS
  1
IDBUFFER
  2
AcDbIdBuffer
  3
AutoCAD 2000
 90
    32768
280
     0
281
     0
  0
ENDSEC
  0
SECTION
  2
TABLES
  0
TABLE
  2
VPORT
  5
1A
330
0
100
AcDbSymbolTable
 70
     1
  0
VPORT
  5
1B
330
1A
100
AcDbSymbolTableRecord
100
AcDbViewportTableRecord
  2
*Active
 70
     0
 10
0.0
 20
0.0
 11
1.0
 21
1.0
 12
651.7528211812163
 22
162.0536906710599
 13
0.0
 23
0.0
 14
50.0
 24
50.0
 15
20.0
 25
20.0
 16
0.0
 26
0.0
 36
1.0
 17
0.0
 27
0.0
 37
0.0
 40
239.5666217987454
 41
1.712406015037593
 42
50.0
 43
-210.0
 44
-210.0
 50
0.0
 51
0.0
 71
     0
 72
  5000
 73
     1
 74
     2
 75
     0
 76
     0
 77
     0
 78
     2
281
     0
 65
     1
110
0.0
120
0.0
130
0.0
111
1.0
121
0.0
131
0.0
112
0.0
122
1.0
132
0.0
 79
     0
146
0.0
  0
ENDTAB
  0
TABLE
  2
LTYPE
  5
15
330
0
100
AcDbSymbolTable
 70
    14
  0
LTYPE
  5
16
330
15
100
AcDbSymbolTableRecord
100
AcDbLinetypeTableRecord
  2
BYBLOCK
 70
     0
  3

 72
    65
 73
     0
 40
0.0
  0
LTYPE
  5
17
330
15
100
AcDbSymbolTableRecord
100
AcDbLinetypeTableRecord
  2
BYLAYER
 70
     0
  3

 72
    65
 73
     0
 40
0.0
  0
LTYPE
  5
9
330
15
100
AcDbSymbolTableRecord
100
AcDbLinetypeTableRecord
  2
CONTINUOUS
 70
     0
  3
Solid line
 72
    65
 73
     0
 40
0.0
  0
LTYPE
  5
5C
330
15
100
AcDbSymbolTableRecord
100
AcDbLinetypeTableRecord
  2
STRICHPUNKT
 70
     0
  3
__ . __ . __ . __ . __ . __ . __ . __ . __ . __
 72
    65
 73
     4
 40
1.0
 49
0.5
 74
     0
 49
-0.25
 74
     0
 49
0.0
 74
     0
 49
-0.25
 74
     0
  0
LTYPE
  5
29
330
15
100
AcDbSymbolTableRecord
100
AcDbLinetypeTableRecord
  2
VERDECKT
 70
     0
  3
_ _ _ _ _ _ _ _ _ _ _ _ _ _ _ _ _ _ _ _ _ _ _
 72
    65
 73
     2
 40
0.375
 49
0.25
 74
     0
 49
-0.125
 74
     0
  0
LTYPE
  5
126
330
15
100
AcDbSymbolTableRecord
100
AcDbLinetypeTableRecord
  2
AM_ISO02W050
 70
     0
  3
__ __ __ __ __ __ __ __ __ __ __ __ __ __ __
 72
    65
 73
     2
 40
7.5
 49
6.0
 74
     0
 49
-1.5
 74
     0
  0
LTYPE
  5
138
330
15
100
AcDbSymbolTableRecord
100
AcDbLinetypeTableRecord
  2
ACDINWELD
 70
     0
  3
_ _ _ _ _
 72
    65
 73
     2
 40
2.0
 49
2.0
 74
     0
 49
-1.0
 74
     0
  0
LTYPE
  5
13B
330
15
100
AcDbSymbolTableRecord
100
AcDbLinetypeTableRecord
  2
ACDINTGB
 70
     0
  3
__ . . __ . .
 72
    65
 73
     6
 40
9.0
 49
4.0
 74
     0
 49
-1.0
 74
     0
 49
1.0
 74
     0
 49
-1.0
 74
     0
 49
1.0
 74
     0
 49
-1.0
 74
     0
  0
LTYPE
  5
13C
330
15
100
AcDbSymbolTableRecord
100
AcDbLinetypeTableRecord
  2
ACDINTGL
 70
     0
  3
_ _ _ _ _
 72
    65
 73
     2
 40
3.0
 49
2.0
 74
     0
 49
-1.0
 74
     0
  0
LTYPE
  5
140
330
15
100
AcDbSymbolTableRecord
100
AcDbLinetypeTableRecord
  2
CENTER
 70
     0
  3
__ . __
 72
    65
 73
     4
 40
7.0
 49
4.0
 74
     0
 49
-1.0
 74
     0
 49
1.0
 74
     0
 49
-1.0
 74
     0
  0
LTYPE
  5
121
330
15
100
AcDbSymbolTableRecord
100
AcDbLinetypeTableRecord
  2
gen3
 70
     0
  3
-- -- -- -- -- -- -- -- -- -- -- -- -- -- --
 72
    65
 73
     2
 40
6.25
 49
4.75
 74
     0
 49
-1.5
 74
     0
  0
LTYPE
  5
122
330
15
100
AcDbSymbolTableRecord
100
AcDbLinetypeTableRecord
  2
gen7
 70
     0
  3
____ . ____ . ____ . ____ . ____ . ____ . ____
 72
    65
 73
     4
 40
13.75
 49
9.75
 74
     0
 49
-1.5
 74
     0
 49
1.0
 74
     0
 49
-1.5
 74
     0
  0
LTYPE
  5
123
330
15
100
AcDbSymbolTableRecord
100
AcDbLinetypeTableRecord
  2
gen3a
 70
     0
  3
 - - - - -
 72
    65
 73
     2
 40
3.125
 49
2.25
 74
     0
 49
-0.875
 74
     0
  0
LTYPE
  5
124
330
15
100
AcDbSymbolTableRecord
100
AcDbLinetypeTableRecord
  2
gen7a
 70
     0
  3
__ . __ . __
 72
    65
 73
     4
 40
6.875
 49
4.75
 74
     0
 49
-0.875
 74
     0
 49
0.375
 74
     0
 49
-0.875
 74
     0
  0
LTYPE
  5
125
330
15
100
AcDbSymbolTableRecord
100
AcDbLinetypeTableRecord
  2
gen4a
 70
     0
  3
_____ . . _____ . . _____ . . ____ .. ____
 72
    65
 73
     6
 40
16.25
 49
9.75
 74
     0
 49
-1.5
 74
     0
 49
1.0
 74
     0
 49
-1.5
 74
     0
 49
1.0
 74
     0
 49
-1.5
 74
     0
  0
LTYPE
  5
127
330
15
100
AcDbSymbolTableRecord
100
AcDbLinetypeTableRecord
  2
genzigzag
 70
     0
  3
/\/-/\/-/\/-/\/-/\/-/\/
 72
    65
 73
     2
 40
12.0001
 49
0.0001
 74
     4
 75
   135
340
128
 46
2.0
 50
0.0
 44
0.0
 45
0.0
 49
-12.0
 74
     0
  0
ENDTAB
  0
TABLE
  2
LAYER
  5
11
330
0
100
AcDbSymbolTable
 70
     6
  0
LAYER
  5
5
330
11
100
AcDbSymbolTableRecord
100
AcDbLayerTableRecord
  2
0
 70
     0
 62
     7
  6
CONTINUOUS
370
    -3
390
6
  0
LAYER
  5
23
330
11
100
AcDbSymbolTableRecord
100
AcDbLayerTableRecord
  2
UMRISS05
 70
     0
 62
     4
  6
CONTINUOUS
370
    -3
390
6
  0
LAYER
  5
2B
330
11
100
AcDbSymbolTableRecord
100
AcDbLayerTableRecord
  2
BEMASSUNG
 70
     0
 62
     2
  6
CONTINUOUS
370
    -3
390
6
  0
LAYER
  5
5B
330
11
100
AcDbSymbolTableRecord
100
AcDbLayerTableRecord
  2
ACHSEN
 70
     0
 62
     1
  6
STRICHPUNKT
370
    -3
390
6
  0
LAYER
  5
28
330
11
100
AcDbSymbolTableRecord
100
AcDbLayerTableRecord
  2
AVERDECKTE
 70
     0
 62
    13
  6
VERDECKT
370
    -3
390
6
  0
LAYER
  5
38
330
11
100
AcDbSymbolTableRecord
100
AcDbLayerTableRecord
  2
DEFPOINTS
 70
     0
 62
     7
  6
CONTINUOUS
290
     0
370
    -3
390
6
  0
ENDTAB
  0
TABLE
  2
STYLE
  5
12
330
0
100
AcDbSymbolTable
 70
     5
  0
STYLE
  5
13
330
12
100
AcDbSymbolTableRecord
100
AcDbTextStyleTableRecord
  2
STANDARD
 70
     0
 40
0.0
 41
1.0
 50
0.0
 71
     0
 42
3.5
  3
txt
  4

  0
STYLE
  5
24
330
12
100
AcDbSymbolTableRecord
100
AcDbTextStyleTableRecord
  2
NORM
 70
     0
 40
0.0
 41
1.0
 50
0.0
 71
     0
 42
10.0
  3
SIMPLEX
  4

  0
STYLE
  5
132
330
12
100
AcDbSymbolTableRecord
100
AcDbTextStyleTableRecord
  2
ACDINTS
 70
     0
 40
1.0
 41
1.0
 50
0.0
 71
     0
 42
10.0
  3
isocp.shx
  4

  0
STYLE
  5
136
330
12
100
AcDbSymbolTableRecord
100
AcDbTextStyleTableRecord
  2
ACDINGDT
 70
     0
 40
0.0
 41
1.0
 50
0.0
 71
     0
 42
10.0
  3
amgdt.shx
  4

  0
STYLE
  5
128
330
12
100
AcDbSymbolTableRecord
100
AcDbTextStyleTableRecord
  2

 70
     1
 40
0.0
 41
1.0
 50
0.0
 71
     0
 42
10.0
  3
genltshp.shx
  4

  0
ENDTAB
  0
TABLE
  2
VIEW
  5
18
330
0
100
AcDbSymbolTable
 70
     0
  0
ENDTAB
  0
TABLE
  2
UCS
  5
19
330
0
100
AcDbSymbolTable
 70
     0
  0
ENDTAB
  0
TABLE
  2
APPID
  5
1C
330
0
100
AcDbSymbolTable
 70
     1
  0
APPID
  5
1D
330
1C
100
AcDbSymbolTableRecord
100
AcDbRegAppTableRecord
  2
ACAD
 70
     0
  0
ENDTAB
  0
TABLE
  2
DIMSTYLE
  5
1E
330
0
100
AcDbSymbolTable
 70
     2
100
AcDbDimStyleTable
 71
     0
  0
DIMSTYLE
105
26
330
1E
100
AcDbSymbolTableRecord
100
AcDbDimStyleTableRecord
  2
PROSPEKT
 70
     0
 40
1.199999999999999
 41
3.5
 42
0.5
 43
8.0
 44
0.5
 73
     0
 74
     0
 77
     1
 78
     8
140
3.5
141
1.5
143
25.39999999999999
146
0.5
147
1.0
172
     1
174
     1
176
     2
177
     2
178
     3
271
     2
272
     2
279
     2
284
     8
285
     8
286
     8
340
24
  0
DIMSTYLE
105
2C
102
{ACAD_REACTORS
330
6A
330
5D
330
E5
330
3D
330
AE
330
BB
330
D7
330
4A
330
77
330
F8
330
2A
330
C8
330
98
330
107
330
88
102
}
330
1E
100
AcDbSymbolTableRecord
100
AcDbDimStyleTableRecord
  2
EPS
 70
     0
 40
1.199999999999999
 41
3.5
 42
0.5
 43
8.0
 44
0.5
 73
     0
 74
     0
 77
     1
 78
     8
140
3.5
141
1.5
143
25.39999999999999
146
0.5
147
1.0
172
     1
174
     1
176
     2
177
     2
178
     3
271
     2
272
     2
279
     2
284
     8
285
     8
286
     8
340
24
  0
ENDTAB
  0
TABLE
  2
BLOCK_RECORD
  5
1
330
0
100
AcDbSymbolTable
 70
    15
  0
BLOCK_RECORD
  5
2
102
{ACAD_XDICTIONARY
360
3
102
}
330
1
100
AcDbSymbolTableRecord
100
AcDbBlockTableRecord
  2
*MODEL_SPACE
340
B
  0
BLOCK_RECORD
  5
D
330
1
100
AcDbSymbolTableRecord
100
AcDbBlockTableRecord
  2
*PAPER_SPACE
340
10
  0
BLOCK_RECORD
  5
6B
330
1
100
AcDbSymbolTableRecord
100
AcDbBlockTableRecord
  2
*D0
340
0
  0
BLOCK_RECORD
  5
5E
330
1
100
AcDbSymbolTableRecord
100
AcDbBlockTableRecord
  2
*D1
340
0
  0
BLOCK_RECORD
  5
E6
330
1
100
AcDbSymbolTableRecord
100
AcDbBlockTableRecord
  2
*D2
340
0
  0
BLOCK_RECORD
  5
3E
330
1
100
AcDbSymbolTableRecord
100
AcDbBlockTableRecord
  2
*D3
340
0
  0
BLOCK_RECORD
  5
AF
330
1
100
AcDbSymbolTableRecord
100
AcDbBlockTableRecord
  2
*D4
340
0
  0
BLOCK_RECORD
  5
BC
330
1
100
AcDbSymbolTableRecord
100
AcDbBlockTableRecord
  2
*D5
340
0
  0
BLOCK_RECORD
  5
D8
330
1
100
AcDbSymbolTableRecord
100
AcDbBlockTableRecord
  2
*D6
340
0
  0
BLOCK_RECORD
  5
4B
330
1
100
AcDbSymbolTableRecord
100
AcDbBlockTableRecord
  2
*D7
340
0
  0
BLOCK_RECORD
  5
78
330
1
100
AcDbSymbolTableRecord
100
AcDbBlockTableRecord
  2
*D8
340
0
  0
BLOCK_RECORD
  5
F9
330
1
100
AcDbSymbolTableRecord
100
AcDbBlockTableRecord
  2
*D9
340
0
  0
BLOCK_RECORD
  5
2D
330
1
100
AcDbSymbolTableRecord
100
AcDbBlockTableRecord
  2
*D10
340
0
  0
BLOCK_RECORD
  5
C9
330
1
100
AcDbSymbolTableRecord
100
AcDbBlockTableRecord
  2
*D11
340
0
  0
BLOCK_RECORD
  5
89
330
1
100
AcDbSymbolTableRecord
100
AcDbBlockTableRecord
  2
*D12
340
0
  0
BLOCK_RECORD
  5
99
330
1
100
AcDbSymbolTableRecord
100
AcDbBlockTableRecord
  2
*D13
340
0
  0
BLOCK_RECORD
  5
108
330
1
100
AcDbSymbolTableRecord
100
AcDbBlockTableRecord
  2
*D14
340
0
  0
ENDTAB
  0
ENDSEC
  0
SECTION
  2
BLOCKS
  0
BLOCK
  5
4
330
2
100
AcDbEntity
  8
0
100
AcDbBlockBegin
  2
*MODEL_SPACE
 70
     0
 10
0.0
 20
0.0
 30
0.0
  3
*MODEL_SPACE
  1

  0
ENDBLK
  5
A
330
2
100
AcDbEntity
  8
0
100
AcDbBlockEnd
  0
BLOCK
  5
E
330
D
100
AcDbEntity
 67
     1
  8
0
100
AcDbBlockBegin
  2
*PAPER_SPACE
 70
     0
 10
0.0
 20
0.0
 30
0.0
  3
*PAPER_SPACE
  1

  0
ENDBLK
  5
F
330
D
100
AcDbEntity
 67
     1
  8
0
100
AcDbBlockEnd
  0
BLOCK
  5
75
330
6B
100
AcDbEntity
  8
0
100
AcDbBlockBegin
  2
*D0
 70
     1
 10
0.0
 20
0.0
 30
0.0
  3
*D0
  1

  0
LINE
  5
6C
330
6B
100
AcDbEntity
  8
0
  6
ByBlock
 62
     2
100
AcDbLine
 10
664.6837231905245
 20
97.42726909201497
 30
0.0
 11
638.7525064390562
 21
97.42726909201497
 31
0.0
  0
LINE
  5
6D
330
6B
100
AcDbEntity
  8
0
  6
ByBlock
 62
     2
100
AcDbLine
 10
664.6837231905245
 20
183.4272690920149
 30
0.0
 11
638.7525064390562
 21
183.4272690920149
 31
0.0
  0
LINE
  5
6E
330
6B
100
AcDbEntity
  8
0
  6
ByBlock
 62
     2
100
AcDbLine
 10
639.3525064390562
 20
101.6272690920149
 30
0.0
 11
639.3525064390562
 21
179.2272690920149
 31
0.0
  0
SOLID
  5
6F
330
6B
100
AcDbEntity
  8
0
  6
ByBlock
 62
     2
100
AcDbTrace
 10
638.6525064390562
 20
101.6272690920149
 30
0.0
 11
640.0525064390563
 21
101.6272690920149
 31
0.0
 12
639.3525064390562
 22
97.42726909201497
 32
0.0
 13
639.3525064390562
 23
97.42726909201497
 33
0.0
  0
SOLID
  5
70
330
6B
100
AcDbEntity
  8
0
  6
ByBlock
 62
     2
100
AcDbTrace
 10
638.6525064390562
 20
179.2272690920149
 30
0.0
 11
640.0525064390563
 21
179.2272690920149
 31
0.0
 12
639.3525064390562
 22
183.4272690920149
 32
0.0
 13
639.3525064390562
 23
183.4272690920149
 33
0.0
  0
MTEXT
  5
71
330
6B
100
AcDbEntity
  8
0
  6
ByBlock
 62
     3
100
AcDbMText
 10
636.0525064390563
 20
140.4272690920149
 30
0.0
 40
4.2
 41
0.0
 71
     5
 72
     1
  1
\A1;86
  7
NORM
 11
0.0000000000000001
 21
1.0
 31
0.0
 73
     1
 44
1.0
  0
POINT
  5
72
330
6B
100
AcDbEntity
  8
DEFPOINTS
  6
ByBlock
 62
     0
100
AcDbPoint
 10
665.2837231905246
 20
97.42726909201497
 30
0.0
  0
POINT
  5
73
330
6B
100
AcDbEntity
  8
DEFPOINTS
  6
ByBlock
 62
     0
100
AcDbPoint
 10
665.2837231905246
 20
183.4272690920149
 30
0.0
  0
POINT
  5
74
330
6B
100
AcDbEntity
  8
DEFPOINTS
  6
ByBlock
 62
     0
100
AcDbPoint
 10
639.3525064390562
 20
183.4272690920149
 30
0.0
  0
ENDBLK
  5
76
330
6B
100
AcDbEntity
  8
0
100
AcDbBlockEnd
  0
BLOCK
  5
68
330
5E
100
AcDbEntity
  8
0
100
AcDbBlockBegin
  2
*D1
 70
     1
 10
0.0
 20
0.0
 30
0.0
  3
*D1
  1

  0
LINE
  5
5F
330
5E
100
AcDbEntity
  8
0
  6
ByBlock
 62
     2
100
AcDbLine
 10
664.6837231905245
 20
97.42726909201497
 30
0.0
 11
653.467382319913
 21
97.42726909201497
 31
0.0
  0
LINE
  5
60
330
5E
100
AcDbEntity
  8
0
  6
ByBlock
 62
     2
100
AcDbLine
 10
668.1837231905245
 20
121.4272690920147
 30
0.0
 11
653.467382319913
 21
121.4272690920147
 31
0.0
  0
LINE
  5
61
330
5E
100
AcDbEntity
  8
0
  6
ByBlock
 62
     2
100
AcDbLine
 10
654.0673823199131
 20
101.6272690920149
 30
0.0
 11
654.0673823199131
 21
117.2272690920147
 31
0.0
  0
SOLID
  5
62
330
5E
100
AcDbEntity
  8
0
  6
ByBlock
 62
     2
100
AcDbTrace
 10
653.367382319913
 20
101.6272690920149
 30
0.0
 11
654.7673823199131
 21
101.6272690920149
 31
0.0
 12
654.0673823199131
 22
97.42726909201497
 32
0.0
 13
654.0673823199131
 23
97.42726909201497
 33
0.0
  0
SOLID
  5
63
330
5E
100
AcDbEntity
  8
0
  6
ByBlock
 62
     2
100
AcDbTrace
 10
653.367382319913
 20
117.2272690920147
 30
0.0
 11
654.7673823199131
 21
117.2272690920147
 31
0.0
 12
654.0673823199131
 22
121.4272690920147
 32
0.0
 13
654.0673823199131
 23
121.4272690920147
 33
0.0
  0
MTEXT
  5
64
330
5E
100
AcDbEntity
  8
0
  6
ByBlock
 62
     3
100
AcDbMText
 10
650.7673823199131
 20
109.4272690920148
 30
0.0
 40
4.2
 41
0.0
 71
     5
 72
     1
  1
\A1;24
  7
NORM
 11
0.0000000000000001
 21
1.0
 31
0.0
 73
     1
 44
1.0
  0
POINT
  5
65
330
5E
100
AcDbEntity
  8
DEFPOINTS
  6
ByBlock
 62
     0
100
AcDbPoint
 10
665.2837231905246
 20
97.42726909201497
 30
0.0
  0
POINT
  5
66
330
5E
100
AcDbEntity
  8
DEFPOINTS
  6
ByBlock
 62
     0
100
AcDbPoint
 10
668.7837231905246
 20
121.4272690920147
 30
0.0
  0
POINT
  5
67
330
5E
100
AcDbEntity
  8
DEFPOINTS
  6
ByBlock
 62
     0
100
AcDbPoint
 10
654.0673823199131
 20
121.4272690920147
 30
0.0
  0
ENDBLK
  5
69
330
5E
100
AcDbEntity
  8
0
100
AcDbBlockEnd
  0
BLOCK
  5
F0
330
E6
100
AcDbEntity
  8
0
100
AcDbBlockBegin
  2
*D2
 70
     1
 10
0.0
 20
0.0
 30
0.0
  3
*D2
  1

  0
LINE
  5
E7
330
E6
100
AcDbEntity
  8
0
  6
ByBlock
 62
     2
100
AcDbLine
 10
668.1837231905245
 20
159.4272690920147
 30
0.0
 11
653.467382319913
 21
159.4272690920147
 31
0.0
  0
LINE
  5
E8
330
E6
100
AcDbEntity
  8
0
  6
ByBlock
 62
     2
100
AcDbLine
 10
664.6837231905245
 20
183.4272690920149
 30
0.0
 11
653.467382319913
 21
183.4272690920149
 31
0.0
  0
LINE
  5
E9
330
E6
100
AcDbEntity
  8
0
  6
ByBlock
 62
     2
100
AcDbLine
 10
654.0673823199131
 20
163.6272690920147
 30
0.0
 11
654.0673823199131
 21
179.2272690920149
 31
0.0
  0
SOLID
  5
EA
330
E6
100
AcDbEntity
  8
0
  6
ByBlock
 62
     2
100
AcDbTrace
 10
653.367382319913
 20
163.6272690920147
 30
0.0
 11
654.7673823199131
 21
163.6272690920147
 31
0.0
 12
654.0673823199131
 22
159.4272690920147
 32
0.0
 13
654.0673823199131
 23
159.4272690920147
 33
0.0
  0
SOLID
  5
EB
330
E6
100
AcDbEntity
  8
0
  6
ByBlock
 62
     2
100
AcDbTrace
 10
653.367382319913
 20
179.2272690920149
 30
0.0
 11
654.7673823199131
 21
179.2272690920149
 31
0.0
 12
654.0673823199131
 22
183.4272690920149
 32
0.0
 13
654.0673823199131
 23
183.4272690920149
 33
0.0
  0
MTEXT
  5
EC
330
E6
100
AcDbEntity
  8
0
  6
ByBlock
 62
     3
100
AcDbMText
 10
650.7673823199131
 20
171.4272690920148
 30
0.0
 40
4.2
 41
0.0
 71
     5
 72
     1
  1
\A1;24
  7
NORM
 11
0.0000000000000001
 21
1.0
 31
0.0
 73
     1
 44
1.0
  0
POINT
  5
ED
330
E6
100
AcDbEntity
  8
DEFPOINTS
  6
ByBlock
 62
     0
100
AcDbPoint
 10
668.7837231905246
 20
159.4272690920147
 30
0.0
  0
POINT
  5
EE
330
E6
100
AcDbEntity
  8
DEFPOINTS
  6
ByBlock
 62
     0
100
AcDbPoint
 10
665.2837231905246
 20
183.4272690920149
 30
0.0
  0
POINT
  5
EF
330
E6
100
AcDbEntity
  8
DEFPOINTS
  6
ByBlock
 62
     0
100
AcDbPoint
 10
654.0673823199131
 20
183.4272690920149
 30
0.0
  0
ENDBLK
  5
F1
330
E6
100
AcDbEntity
  8
0
100
AcDbBlockEnd
  0
BLOCK
  5
48
330
3E
100
AcDbEntity
  8
0
100
AcDbBlockBegin
  2
*D3
 70
     1
 10
0.0
 20
0.0
 30
0.0
  3
*D3
  1

  0
LINE
  5
3F
330
3E
100
AcDbEntity
  8
0
  6
ByBlock
 62
     2
100
AcDbLine
 10
685.8837231905246
 20
97.427269092015
 30
0.0
 11
713.0311651573684
 21
97.427269092015
 31
0.0
  0
LINE
  5
40
330
3E
100
AcDbEntity
  8
0
  6
ByBlock
 62
     2
100
AcDbLine
 10
700.8837231905246
 20
113.4272690920149
 30
0.0
 11
713.0311651573684
 21
113.4272690920149
 31
0.0
  0
LINE
  5
41
330
3E
100
AcDbEntity
  8
0
  6
ByBlock
 62
     2
100
AcDbLine
 10
712.4311651573684
 20
101.627269092015
 30
0.0
 11
712.4311651573684
 21
109.2272690920149
 31
0.0
  0
SOLID
  5
42
330
3E
100
AcDbEntity
  8
0
  6
ByBlock
 62
     2
100
AcDbTrace
 10
711.7311651573684
 20
101.627269092015
 30
0.0
 11
713.1311651573684
 21
101.627269092015
 31
0.0
 12
712.4311651573684
 22
97.427269092015
 32
0.0
 13
712.4311651573684
 23
97.427269092015
 33
0.0
  0
SOLID
  5
43
330
3E
100
AcDbEntity
  8
0
  6
ByBlock
 62
     2
100
AcDbTrace
 10
711.7311651573684
 20
109.2272690920149
 30
0.0
 11
713.1311651573684
 21
109.2272690920149
 31
0.0
 12
712.4311651573684
 22
113.4272690920149
 32
0.0
 13
712.4311651573684
 23
113.4272690920149
 33
0.0
  0
MTEXT
  5
44
330
3E
100
AcDbEntity
  8
0
  6
ByBlock
 62
     3
100
AcDbMText
 10
709.1311651573684
 20
105.4272690920149
 30
0.0
 40
4.2
 41
0.0
 71
     5
 72
     1
  1
\A1;16
  7
NORM
 11
0.0000000000000001
 21
1.0
 31
0.0
 73
     1
 44
1.0
  0
POINT
  5
45
330
3E
100
AcDbEntity
  8
DEFPOINTS
  6
ByBlock
 62
     0
100
AcDbPoint
 10
685.2837231905246
 20
97.427269092015
 30
0.0
  0
POINT
  5
46
330
3E
100
AcDbEntity
  8
DEFPOINTS
  6
ByBlock
 62
     0
100
AcDbPoint
 10
700.2837231905246
 20
113.4272690920149
 30
0.0
  0
POINT
  5
47
330
3E
100
AcDbEntity
  8
DEFPOINTS
  6
ByBlock
 62
     0
100
AcDbPoint
 10
712.4311651573684
 20
113.4272690920149
 30
0.0
  0
ENDBLK
  5
49
330
3E
100
AcDbEntity
  8
0
100
AcDbBlockEnd
  0
BLOCK
  5
B9
330
AF
100
AcDbEntity
  8
0
100
AcDbBlockBegin
  2
*D4
 70
     1
 10
0.0
 20
0.0
 30
0.0
  3
*D4
  1

  0
LINE
  5
B0
330
AF
100
AcDbEntity
  8
0
  6
ByBlock
 62
     2
100
AcDbLine
 10
700.8837231905246
 20
113.4272690920149
 30
0.0
 11
713.0311651573684
 21
113.4272690920149
 31
0.0
  0
LINE
  5
B1
330
AF
100
AcDbEntity
  8
0
  6
ByBlock
 62
     2
100
AcDbLine
 10
700.8837231905246
 20
167.4272690920149
 30
0.0
 11
713.0311651573684
 21
167.4272690920149
 31
0.0
  0
LINE
  5
B2
330
AF
100
AcDbEntity
  8
0
  6
ByBlock
 62
     2
100
AcDbLine
 10
712.4311651573684
 20
117.6272690920149
 30
0.0
 11
712.4311651573684
 21
163.2272690920149
 31
0.0
  0
SOLID
  5
B3
330
AF
100
AcDbEntity
  8
0
  6
ByBlock
 62
     2
100
AcDbTrace
 10
711.7311651573684
 20
117.6272690920149
 30
0.0
 11
713.1311651573684
 21
117.6272690920149
 31
0.0
 12
712.4311651573684
 22
113.4272690920149
 32
0.0
 13
712.4311651573684
 23
113.4272690920149
 33
0.0
  0
SOLID
  5
B4
330
AF
100
AcDbEntity
  8
0
  6
ByBlock
 62
     2
100
AcDbTrace
 10
711.7311651573684
 20
163.2272690920149
 30
0.0
 11
713.1311651573684
 21
163.2272690920149
 31
0.0
 12
712.4311651573684
 22
167.4272690920149
 32
0.0
 13
712.4311651573684
 23
167.4272690920149
 33
0.0
  0
MTEXT
  5
B5
330
AF
100
AcDbEntity
  8
0
  6
ByBlock
 62
     3
100
AcDbMText
 10
709.1311651573684
 20
140.4272690920149
 30
0.0
 40
4.2
 41
0.0
 71
     5
 72
     1
  1
\A1;54
  7
NORM
 11
0.0000000000000001
 21
1.0
 31
0.0
 73
     1
 44
1.0
  0
POINT
  5
B6
330
AF
100
AcDbEntity
  8
DEFPOINTS
  6
ByBlock
 62
     0
100
AcDbPoint
 10
700.2837231905246
 20
113.4272690920149
 30
0.0
  0
POINT
  5
B7
330
AF
100
AcDbEntity
  8
DEFPOINTS
  6
ByBlock
 62
     0
100
AcDbPoint
 10
700.2837231905246
 20
167.4272690920149
 30
0.0
  0
POINT
  5
B8
330
AF
100
AcDbEntity
  8
DEFPOINTS
  6
ByBlock
 62
     0
100
AcDbPoint
 10
712.4311651573684
 20
167.4272690920149
 30
0.0
  0
ENDBLK
  5
BA
330
AF
100
AcDbEntity
  8
0
100
AcDbBlockEnd
  0
BLOCK
  5
C6
330
BC
100
AcDbEntity
  8
0
100
AcDbBlockBegin
  2
*D5
 70
     1
 10
0.0
 20
0.0
 30
0.0
  3
*D5
  1

  0
LINE
  5
BD
330
BC
100
AcDbEntity
  8
0
  6
ByBlock
 62
     2
100
AcDbLine
 10
700.8837231905246
 20
167.4272690920149
 30
0.0
 11
713.0311651573684
 21
167.4272690920149
 31
0.0
  0
LINE
  5
BE
330
BC
100
AcDbEntity
  8
0
  6
ByBlock
 62
     2
100
AcDbLine
 10
685.8837231905246
 20
183.4272690920149
 30
0.0
 11
713.0311651573684
 21
183.4272690920149
 31
0.0
  0
LINE
  5
BF
330
BC
100
AcDbEntity
  8
0
  6
ByBlock
 62
     2
100
AcDbLine
 10
712.4311651573684
 20
171.6272690920149
 30
0.0
 11
712.4311651573684
 21
179.2272690920149
 31
0.0
  0
SOLID
  5
C0
330
BC
100
AcDbEntity
  8
0
  6
ByBlock
 62
     2
100
AcDbTrace
 10
711.7311651573684
 20
171.6272690920149
 30
0.0
 11
713.1311651573684
 21
171.6272690920149
 31
0.0
 12
712.4311651573684
 22
167.4272690920149
 32
0.0
 13
712.4311651573684
 23
167.4272690920149
 33
0.0
  0
SOLID
  5
C1
330
BC
100
AcDbEntity
  8
0
  6
ByBlock
 62
     2
100
AcDbTrace
 10
711.7311651573684
 20
179.2272690920149
 30
0.0
 11
713.1311651573684
 21
179.2272690920149
 31
0.0
 12
712.4311651573684
 22
183.4272690920149
 32
0.0
 13
712.4311651573684
 23
183.4272690920149
 33
0.0
  0
MTEXT
  5
C2
330
BC
100
AcDbEntity
  8
0
  6
ByBlock
 62
     3
100
AcDbMText
 10
709.1311651573684
 20
175.4272690920149
 30
0.0
 40
4.2
 41
0.0
 71
     5
 72
     1
  1
\A1;16
  7
NORM
 11
0.0000000000000001
 21
1.0
 31
0.0
 73
     1
 44
1.0
  0
POINT
  5
C3
330
BC
100
AcDbEntity
  8
DEFPOINTS
  6
ByBlock
 62
     0
100
AcDbPoint
 10
700.2837231905246
 20
167.4272690920149
 30
0.0
  0
POINT
  5
C4
330
BC
100
AcDbEntity
  8
DEFPOINTS
  6
ByBlock
 62
     0
100
AcDbPoint
 10
685.2837231905246
 20
183.4272690920149
 30
0.0
  0
POINT
  5
C5
330
BC
100
AcDbEntity
  8
DEFPOINTS
  6
ByBlock
 62
     0
100
AcDbPoint
 10
712.4311651573684
 20
183.4272690920149
 30
0.0
  0
ENDBLK
  5
C7
330
BC
100
AcDbEntity
  8
0
100
AcDbBlockEnd
  0
BLOCK
  5
E2
330
D8
100
AcDbEntity
  8
0
100
AcDbBlockBegin
  2
*D6
 70
     1
 10
0.0
 20
0.0
 30
0.0
  3
*D6
  1

  0
LINE
  5
D9
330
D8
100
AcDbEntity
  8
0
  6
ByBlock
 62
     2
100
AcDbLine
 10
329.1373870001499
 20
285.3433170461361
 30
0.0
 11
329.1373870001499
 21
287.2583743646429
 31
0.0
  0
LINE
  5
DA
330
D8
100
AcDbEntity
  8
0
  6
ByBlock
 62
     2
100
AcDbLine
 10
316.1373870001498
 20
285.3433170461361
 30
0.0
 11
316.1373870001498
 21
287.2583743646429
 31
0.0
  0
LINE
  5
DB
330
D8
100
AcDbEntity
  8
0
  6
ByBlock
 62
     2
100
AcDbLine
 10
324.9373870001499
 20
286.6583743646429
 30
0.0
 11
320.3373870001498
 21
286.6583743646429
 31
0.0
  0
SOLID
  5
DC
330
D8
100
AcDbEntity
  8
0
  6
ByBlock
 62
     2
100
AcDbTrace
 10
324.9373870001499
 20
287.3583743646428
 30
0.0
 11
324.9373870001499
 21
285.9583743646428
 31
0.0
 12
329.1373870001499
 22
286.6583743646429
 32
0.0
 13
329.1373870001499
 23
286.6583743646429
 33
0.0
  0
SOLID
  5
DD
330
D8
100
AcDbEntity
  8
0
  6
ByBlock
 62
     2
100
AcDbTrace
 10
320.3373870001498
 20
287.3583743646428
 30
0.0
 11
320.3373870001498
 21
285.9583743646428
 31
0.0
 12
316.1373870001498
 22
286.6583743646429
 32
0.0
 13
316.1373870001498
 23
286.6583743646429
 33
0.0
  0
MTEXT
  5
DE
330
D8
100
AcDbEntity
  8
0
  6
ByBlock
 62
     3
100
AcDbMText
 10
322.6373870001499
 20
289.9583743646429
 30
0.0
 40
4.2
 41
0.0
 71
     5
 72
     1
  1
\A1;13
  7
NORM
 73
     1
 44
1.0
  0
POINT
  5
DF
330
D8
100
AcDbEntity
  8
DEFPOINTS
  6
ByBlock
 62
     0
100
AcDbPoint
 10
329.1373870001499
 20
284.743317046136
 30
0.0
  0
POINT
  5
E0
330
D8
100
AcDbEntity
  8
DEFPOINTS
  6
ByBlock
 62
     0
100
AcDbPoint
 10
316.1373870001498
 20
284.743317046136
 30
0.0
  0
POINT
  5
E1
330
D8
100
AcDbEntity
  8
DEFPOINTS
  6
ByBlock
 62
     0
100
AcDbPoint
 10
316.1373870001498
 20
286.6583743646429
 30
0.0
  0
ENDBLK
  5
E3
330
D8
100
AcDbEntity
  8
0
100
AcDbBlockEnd
  0
BLOCK
  5
57
330
4B
100
AcDbEntity
  8
0
100
AcDbBlockBegin
  2
*D7
 70
     1
 10
0.0
 20
0.0
 30
0.0
  3
*D7
  1

  0
LINE
  5
4C
330
4B
100
AcDbEntity
  8
0
  6
ByBlock
 62
     2
100
AcDbLine
 10
424.1351038271357
 20
223.0433170461362
 30
0.0
 11
411.1174321860477
 21
223.0433170461362
 31
0.0
  0
LINE
  5
4D
330
4B
100
AcDbEntity
  8
0
  6
ByBlock
 62
     2
100
AcDbLine
 10
421.1351038271357
 20
233.0433170461361
 30
0.0
 11
411.1174321860477
 21
233.0433170461361
 31
0.0
  0
LINE
  5
4E
330
4B
100
AcDbEntity
  8
0
  6
ByBlock
 62
     2
100
AcDbLine
 10
411.7174321860477
 20
218.8433170461362
 30
0.0
 11
411.7174321860477
 21
214.6433170461362
 31
0.0
  0
LINE
  5
4F
330
4B
100
AcDbEntity
  8
0
  6
ByBlock
 62
     2
100
AcDbLine
 10
411.7174321860477
 20
237.2433170461361
 30
0.0
 11
411.7174321860477
 21
241.4433170461361
 31
0.0
  0
LINE
  5
50
330
4B
100
AcDbEntity
  8
0
  6
ByBlock
 62
     2
100
AcDbLine
 10
411.7174321860477
 20
223.0433170461362
 30
0.0
 11
411.7174321860477
 21
233.0433170461361
 31
0.0
  0
SOLID
  5
51
330
4B
100
AcDbEntity
  8
0
  6
ByBlock
 62
     2
100
AcDbTrace
 10
411.0174321860477
 20
218.8433170461362
 30
0.0
 11
412.4174321860477
 21
218.8433170461362
 31
0.0
 12
411.7174321860477
 22
223.0433170461362
 32
0.0
 13
411.7174321860477
 23
223.0433170461362
 33
0.0
  0
SOLID
  5
52
330
4B
100
AcDbEntity
  8
0
  6
ByBlock
 62
     2
100
AcDbTrace
 10
411.0174321860477
 20
237.2433170461361
 30
0.0
 11
412.4174321860477
 21
237.2433170461361
 31
0.0
 12
411.7174321860477
 22
233.0433170461361
 32
0.0
 13
411.7174321860477
 23
233.0433170461361
 33
0.0
  0
MTEXT
  5
53
330
4B
100
AcDbEntity
  8
0
  6
ByBlock
 62
     3
100
AcDbMText
 10
408.4174321860477
 20
228.0433170461361
 30
0.0
 40
4.2
 41
0.0
 71
     5
 72
     1
  1
\A1;10
  7
NORM
 11
0.0000000000000001
 21
1.0
 31
0.0
 73
     1
 44
1.0
  0
POINT
  5
54
330
4B
100
AcDbEntity
  8
DEFPOINTS
  6
ByBlock
 62
     0
100
AcDbPoint
 10
424.7351038271357
 20
223.0433170461362
 30
0.0
  0
POINT
  5
55
330
4B
100
AcDbEntity
  8
DEFPOINTS
  6
ByBlock
 62
     0
100
AcDbPoint
 10
421.7351038271357
 20
233.0433170461361
 30
0.0
  0
POINT
  5
56
330
4B
100
AcDbEntity
  8
DEFPOINTS
  6
ByBlock
 62
     0
100
AcDbPoint
 10
411.7174321860477
 20
233.0433170461361
 30
0.0
  0
ENDBLK
  5
58
330
4B
100
AcDbEntity
  8
0
100
AcDbBlockEnd
  0
BLOCK
  5
82
330
78
100
AcDbEntity
  8
0
100
AcDbBlockBegin
  2
*D8
 70
     1
 10
0.0
 20
0.0
 30
0.0
  3
*D8
  1

  0
LINE
  5
79
330
78
100
AcDbEntity
  8
0
  6
ByBlock
 62
     2
100
AcDbLine
 10
421.1351038271357
 20
233.0433170461361
 30
0.0
 11
411.1174321860477
 21
233.0433170461361
 31
0.0
  0
LINE
  5
7A
330
78
100
AcDbEntity
  8
0
  6
ByBlock
 62
     2
100
AcDbLine
 10
421.1351038271357
 20
299.0433170461361
 30
0.0
 11
411.1174321860477
 21
299.0433170461361
 31
0.0
  0
LINE
  5
7B
330
78
100
AcDbEntity
  8
0
  6
ByBlock
 62
     2
100
AcDbLine
 10
411.7174321860477
 20
237.2433170461361
 30
0.0
 11
411.7174321860477
 21
294.8433170461361
 31
0.0
  0
SOLID
  5
7C
330
78
100
AcDbEntity
  8
0
  6
ByBlock
 62
     2
100
AcDbTrace
 10
411.0174321860477
 20
237.2433170461361
 30
0.0
 11
412.4174321860477
 21
237.2433170461361
 31
0.0
 12
411.7174321860477
 22
233.0433170461361
 32
0.0
 13
411.7174321860477
 23
233.0433170461361
 33
0.0
  0
SOLID
  5
7D
330
78
100
AcDbEntity
  8
0
  6
ByBlock
 62
     2
100
AcDbTrace
 10
411.0174321860477
 20
294.8433170461361
 30
0.0
 11
412.4174321860477
 21
294.8433170461361
 31
0.0
 12
411.7174321860477
 22
299.0433170461361
 32
0.0
 13
411.7174321860477
 23
299.0433170461361
 33
0.0
  0
MTEXT
  5
7E
330
78
100
AcDbEntity
  8
0
  6
ByBlock
 62
     3
100
AcDbMText
 10
408.4174321860477
 20
266.0433170461361
 30
0.0
 40
4.2
 41
0.0
 71
     5
 72
     1
  1
\A1;66
  7
NORM
 11
0.0000000000000001
 21
1.0
 31
0.0
 73
     1
 44
1.0
  0
POINT
  5
7F
330
78
100
AcDbEntity
  8
DEFPOINTS
  6
ByBlock
 62
     0
100
AcDbPoint
 10
421.7351038271357
 20
233.0433170461361
 30
0.0
  0
POINT
  5
80
330
78
100
AcDbEntity
  8
DEFPOINTS
  6
ByBlock
 62
     0
100
AcDbPoint
 10
421.7351038271357
 20
299.0433170461361
 30
0.0
  0
POINT
  5
81
330
78
100
AcDbEntity
  8
DEFPOINTS
  6
ByBlock
 62
     0
100
AcDbPoint
 10
411.7174321860477
 20
299.0433170461361
 30
0.0
  0
ENDBLK
  5
83
330
78
100
AcDbEntity
  8
0
100
AcDbBlockEnd
  0
BLOCK
  5
105
330
F9
100
AcDbEntity
  8
0
100
AcDbBlockBegin
  2
*D9
 70
     1
 10
0.0
 20
0.0
 30
0.0
  3
*D9
  1

  0
LINE
  5
FA
330
F9
100
AcDbEntity
  8
0
  6
ByBlock
 62
     2
100
AcDbLine
 10
421.1351038271357
 20
299.0433170461361
 30
0.0
 11
411.1174321860477
 21
299.0433170461361
 31
0.0
  0
LINE
  5
FB
330
F9
100
AcDbEntity
  8
0
  6
ByBlock
 62
     2
100
AcDbLine
 10
424.1351038271357
 20
309.0433170461362
 30
0.0
 11
411.1174321860477
 21
309.0433170461362
 31
0.0
  0
LINE
  5
FC
330
F9
100
AcDbEntity
  8
0
  6
ByBlock
 62
     2
100
AcDbLine
 10
411.7174321860477
 20
294.8433170461361
 30
0.0
 11
411.7174321860477
 21
290.6433170461361
 31
0.0
  0
LINE
  5
FD
330
F9
100
AcDbEntity
  8
0
  6
ByBlock
 62
     2
100
AcDbLine
 10
411.7174321860477
 20
313.2433170461362
 30
0.0
 11
411.7174321860477
 21
317.4433170461362
 31
0.0
  0
LINE
  5
FE
330
F9
100
AcDbEntity
  8
0
  6
ByBlock
 62
     2
100
AcDbLine
 10
411.7174321860477
 20
299.0433170461361
 30
0.0
 11
411.7174321860477
 21
309.0433170461362
 31
0.0
  0
SOLID
  5
FF
330
F9
100
AcDbEntity
  8
0
  6
ByBlock
 62
     2
100
AcDbTrace
 10
411.0174321860477
 20
294.8433170461361
 30
0.0
 11
412.4174321860477
 21
294.8433170461361
 31
0.0
 12
411.7174321860477
 22
299.0433170461361
 32
0.0
 13
411.7174321860477
 23
299.0433170461361
 33
0.0
  0
SOLID
  5
100
330
F9
100
AcDbEntity
  8
0
  6
ByBlock
 62
     2
100
AcDbTrace
 10
411.0174321860477
 20
313.2433170461362
 30
0.0
 11
412.4174321860477
 21
313.2433170461362
 31
0.0
 12
411.7174321860477
 22
309.0433170461362
 32
0.0
 13
411.7174321860477
 23
309.0433170461362
 33
0.0
  0
MTEXT
  5
101
330
F9
100
AcDbEntity
  8
0
  6
ByBlock
 62
     3
100
AcDbMText
 10
408.4174321860477
 20
304.0433170461362
 30
0.0
 40
4.2
 41
0.0
 71
     5
 72
     1
  1
\A1;10
  7
NORM
 11
0.0000000000000001
 21
1.0
 31
0.0
 73
     1
 44
1.0
  0
POINT
  5
102
330
F9
100
AcDbEntity
  8
DEFPOINTS
  6
ByBlock
 62
     0
100
AcDbPoint
 10
421.7351038271357
 20
299.0433170461361
 30
0.0
  0
POINT
  5
103
330
F9
100
AcDbEntity
  8
DEFPOINTS
  6
ByBlock
 62
     0
100
AcDbPoint
 10
424.7351038271357
 20
309.0433170461362
 30
0.0
  0
POINT
  5
104
330
F9
100
AcDbEntity
  8
DEFPOINTS
  6
ByBlock
 62
     0
100
AcDbPoint
 10
411.7174321860477
 20
309.0433170461362
 30
0.0
  0
ENDBLK
  5
106
330
F9
100
AcDbEntity
  8
0
100
AcDbBlockEnd
  0
BLOCK
  5
3B
330
2D
100
AcDbEntity
  8
0
100
AcDbBlockBegin
  2
*D10
 70
     1
 10
0.0
 20
0.0
 30
0.0
  3
*D10
  1

  0
LINE
  5
2E
330
2D
100
AcDbEntity
  8
0
  6
ByBlock
 62
     2
100
AcDbLine
 10
428.3351038271357
 20
228.2933170461361
 30
0.0
 11
442.8385514367443
 21
228.2933170461361
 31
0.0
  0
LINE
  5
2F
330
2D
100
AcDbEntity
  8
0
  6
ByBlock
 62
     2
100
AcDbLine
 10
428.3351038271357
 20
237.7933170461361
 30
0.0
 11
442.8385514367443
 21
237.7933170461361
 31
0.0
  0
LINE
  5
30
330
2D
100
AcDbEntity
  8
0
  6
ByBlock
 62
     2
100
AcDbLine
 10
442.2385514367443
 20
224.0933170461361
 30
0.0
 11
442.2385514367443
 21
219.8933170461361
 31
0.0
  0
LINE
  5
31
330
2D
100
AcDbEntity
  8
0
  6
ByBlock
 62
     2
100
AcDbLine
 10
442.2385514367443
 20
241.9933170461361
 30
0.0
 11
442.2385514367443
 21
246.1933170461361
 31
0.0
  0
MTEXT
  5
32
330
2D
100
AcDbEntity
  8
0
  6
ByBlock
 62
     3
100
AcDbMText
 10
438.6429741419647
 20
234.2091957626537
 30
0.0
 40
4.2
 41
0.0
 71
     5
 72
     1
  1
\A1;\U+22059.5x90°
  7
NORM
 11
0.0000000000000001
 21
1.0
 31
0.0
 73
     1
 44
1.0
  0
LINE
  5
33
330
2D
100
AcDbEntity
  8
0
  6
ByBlock
 62
     2
100
AcDbLine
 10
442.2385514367443
 20
228.2933170461361
 30
0.0
 11
442.2385514367443
 21
237.7933170461361
 31
0.0
  0
LINE
  5
34
330
2D
100
AcDbEntity
  8
0
  6
ByBlock
 62
     2
100
AcDbLine
 10
442.2385514367443
 20
228.2933170461361
 30
0.0
 11
442.2385514367443
 21
237.7933170461361
 31
0.0
  0
SOLID
  5
35
330
2D
100
AcDbEntity
  8
0
  6
ByBlock
 62
     2
100
AcDbTrace
 10
441.5385514367442
 20
224.0933170461361
 30
0.0
 11
442.9385514367442
 21
224.0933170461361
 31
0.0
 12
442.2385514367443
 22
228.2933170461361
 32
0.0
 13
442.2385514367443
 23
228.2933170461361
 33
0.0
  0
SOLID
  5
36
330
2D
100
AcDbEntity
  8
0
  6
ByBlock
 62
     2
100
AcDbTrace
 10
441.5385514367442
 20
241.9933170461361
 30
0.0
 11
442.9385514367442
 21
241.9933170461361
 31
0.0
 12
442.2385514367443
 22
237.7933170461361
 32
0.0
 13
442.2385514367443
 23
237.7933170461361
 33
0.0
  0
POINT
  5
37
330
2D
100
AcDbEntity
  8
DEFPOINTS
  6
ByBlock
 62
     0
100
AcDbPoint
 10
427.7351038271357
 20
228.2933170461361
 30
0.0
  0
POINT
  5
39
330
2D
100
AcDbEntity
  8
DEFPOINTS
  6
ByBlock
 62
     0
100
AcDbPoint
 10
427.7351038271357
 20
237.7933170461361
 30
0.0
  0
POINT
  5
3A
330
2D
100
AcDbEntity
  8
DEFPOINTS
  6
ByBlock
 62
     0
100
AcDbPoint
 10
442.2385514367443
 20
237.7933170461361
 30
0.0
  0
ENDBLK
  5
3C
330
2D
100
AcDbEntity
  8
0
100
AcDbBlockEnd
  0
BLOCK
  5
D3
330
C9
100
AcDbEntity
  8
0
100
AcDbBlockBegin
  2
*D11
 70
     1
 10
0.0
 20
0.0
 30
0.0
  3
*D11
  1

  0
LINE
  5
CA
330
C9
100
AcDbEntity
  8
0
  6
ByBlock
 62
     2
100
AcDbLine
 10
668.1837231905245
 20
121.4272690920147
 30
0.0
 11
653.467382319913
 21
121.4272690920147
 31
0.0
  0
LINE
  5
CB
330
C9
100
AcDbEntity
  8
0
  6
ByBlock
 62
     2
100
AcDbLine
 10
668.1837231905245
 20
159.4272690920147
 30
0.0
 11
653.467382319913
 21
159.4272690920147
 31
0.0
  0
LINE
  5
CC
330
C9
100
AcDbEntity
  8
0
  6
ByBlock
 62
     2
100
AcDbLine
 10
654.0673823199131
 20
125.6272690920147
 30
0.0
 11
654.0673823199131
 21
155.2272690920147
 31
0.0
  0
SOLID
  5
CD
330
C9
100
AcDbEntity
  8
0
  6
ByBlock
 62
     2
100
AcDbTrace
 10
653.367382319913
 20
125.6272690920147
 30
0.0
 11
654.7673823199131
 21
125.6272690920147
 31
0.0
 12
654.0673823199131
 22
121.4272690920147
 32
0.0
 13
654.0673823199131
 23
121.4272690920147
 33
0.0
  0
SOLID
  5
CE
330
C9
100
AcDbEntity
  8
0
  6
ByBlock
 62
     2
100
AcDbTrace
 10
653.367382319913
 20
155.2272690920147
 30
0.0
 11
654.7673823199131
 21
155.2272690920147
 31
0.0
 12
654.0673823199131
 22
159.4272690920147
 32
0.0
 13
654.0673823199131
 23
159.4272690920147
 33
0.0
  0
MTEXT
  5
CF
330
C9
100
AcDbEntity
  8
0
  6
ByBlock
 62
     3
100
AcDbMText
 10
650.7673823199131
 20
140.4272690920147
 30
0.0
 40
4.2
 41
0.0
 71
     5
 72
     1
  1
\A1;38
  7
NORM
 11
0.0000000000000001
 21
1.0
 31
0.0
 73
     1
 44
1.0
  0
POINT
  5
D0
330
C9
100
AcDbEntity
  8
DEFPOINTS
  6
ByBlock
 62
     0
100
AcDbPoint
 10
668.7837231905246
 20
121.4272690920147
 30
0.0
  0
POINT
  5
D1
330
C9
100
AcDbEntity
  8
DEFPOINTS
  6
ByBlock
 62
     0
100
AcDbPoint
 10
668.7837231905246
 20
159.4272690920147
 30
0.0
  0
POINT
  5
D2
330
C9
100
AcDbEntity
  8
DEFPOINTS
  6
ByBlock
 62
     0
100
AcDbPoint
 10
654.0673823199131
 20
159.4272690920147
 30
0.0
  0
ENDBLK
  5
D4
330
C9
100
AcDbEntity
  8
0
100
AcDbBlockEnd
  0
BLOCK
  5
93
330
89
100
AcDbEntity
  8
0
100
AcDbBlockBegin
  2
*D12
 70
     1
 10
0.0
 20
0.0
 30
0.0
  3
*D12
  1

  0
LINE
  5
8A
330
89
100
AcDbEntity
  8
0
  6
ByBlock
 62
     2
100
AcDbLine
 10
312.6373870001498
 20
222.7433170461363
 30
0.0
 11
312.6373870001498
 21
209.6041216915297
 31
0.0
  0
LINE
  5
8B
330
89
100
AcDbEntity
  8
0
  6
ByBlock
 62
     2
100
AcDbLine
 10
332.6373870001499
 20
222.7433170461363
 30
0.0
 11
332.6373870001499
 21
209.6041216915297
 31
0.0
  0
LINE
  5
8C
330
89
100
AcDbEntity
  8
0
  6
ByBlock
 62
     2
100
AcDbLine
 10
316.8373870001498
 20
210.2041216915297
 30
0.0
 11
328.4373870001498
 21
210.2041216915297
 31
0.0
  0
SOLID
  5
8D
330
89
100
AcDbEntity
  8
0
  6
ByBlock
 62
     2
100
AcDbTrace
 10
316.8373870001498
 20
210.9041216915297
 30
0.0
 11
316.8373870001498
 21
209.5041216915297
 31
0.0
 12
312.6373870001498
 22
210.2041216915297
 32
0.0
 13
312.6373870001498
 23
210.2041216915297
 33
0.0
  0
SOLID
  5
8E
330
89
100
AcDbEntity
  8
0
  6
ByBlock
 62
     2
100
AcDbTrace
 10
328.4373870001498
 20
210.9041216915297
 30
0.0
 11
328.4373870001498
 21
209.5041216915297
 31
0.0
 12
332.6373870001499
 22
210.2041216915297
 32
0.0
 13
332.6373870001499
 23
210.2041216915297
 33
0.0
  0
MTEXT
  5
8F
330
89
100
AcDbEntity
  8
0
  6
ByBlock
 62
     3
100
AcDbMText
 10
322.6373870001499
 20
213.5041216915297
 30
0.0
 40
4.2
 41
0.0
 71
     5
 72
     1
  1
\A1;20
  7
NORM
 73
     1
 44
1.0
  0
POINT
  5
90
330
89
100
AcDbEntity
  8
DEFPOINTS
  6
ByBlock
 62
     0
100
AcDbPoint
 10
312.6373870001498
 20
223.3433170461363
 30
0.0
  0
POINT
  5
91
330
89
100
AcDbEntity
  8
DEFPOINTS
  6
ByBlock
 62
     0
100
AcDbPoint
 10
332.6373870001499
 20
223.3433170461363
 30
0.0
  0
POINT
  5
92
330
89
100
AcDbEntity
  8
DEFPOINTS
  6
ByBlock
 62
     0
100
AcDbPoint
 10
332.6373870001499
 20
210.2041216915297
 30
0.0
  0
ENDBLK
  5
94
330
89
100
AcDbEntity
  8
0
100
AcDbBlockEnd
  0
BLOCK
  5
A6
330
99
100
AcDbEntity
  8
0
100
AcDbBlockBegin
  2
*D13
 70
     1
 10
0.0
 20
0.0
 30
0.0
  3
*D13
  1

  0
LINE
  5
9A
330
99
100
AcDbEntity
  8
0
  6
ByBlock
 62
     2
100
AcDbLine
 10
424.7351038271357
 20
222.4433170461362
 30
0.0
 11
424.7351038271357
 21
209.6041216915297
 31
0.0
  0
LINE
  5
9B
330
99
100
AcDbEntity
  8
0
  6
ByBlock
 62
     2
100
AcDbLine
 10
427.7351038271357
 20
222.4433170461362
 30
0.0
 11
427.7351038271357
 21
209.6041216915297
 31
0.0
  0
LINE
  5
9C
330
99
100
AcDbEntity
  8
0
  6
ByBlock
 62
     2
100
AcDbLine
 10
420.5351038271357
 20
210.2041216915297
 30
0.0
 11
416.3351038271357
 21
210.2041216915297
 31
0.0
  0
LINE
  5
9D
330
99
100
AcDbEntity
  8
0
  6
ByBlock
 62
     2
100
AcDbLine
 10
431.9351038271356
 20
210.2041216915297
 30
0.0
 11
436.1351038271357
 21
210.2041216915297
 31
0.0
  0
MTEXT
  5
9E
330
99
100
AcDbEntity
  8
0
  6
ByBlock
 62
     3
100
AcDbMText
 10
418.7698329480245
 20
213.9466169811917
 30
0.0
 40
4.2
 41
0.0
 71
     5
 72
     1
  1
\A1;3
  7
NORM
 73
     1
 44
1.0
  0
LINE
  5
9F
330
99
100
AcDbEntity
  8
0
  6
ByBlock
 62
     2
100
AcDbLine
 10
424.7351038271357
 20
210.2041216915297
 30
0.0
 11
427.7351038271357
 21
210.2041216915297
 31
0.0
  0
LINE
  5
A0
330
99
100
AcDbEntity
  8
0
  6
ByBlock
 62
     2
100
AcDbLine
 10
424.7351038271357
 20
210.2041216915297
 30
0.0
 11
427.7351038271357
 21
210.2041216915297
 31
0.0
  0
SOLID
  5
A1
330
99
100
AcDbEntity
  8
0
  6
ByBlock
 62
     2
100
AcDbTrace
 10
420.5351038271357
 20
210.9041216915297
 30
0.0
 11
420.5351038271357
 21
209.5041216915297
 31
0.0
 12
424.7351038271357
 22
210.2041216915297
 32
0.0
 13
424.7351038271357
 23
210.2041216915297
 33
0.0
  0
SOLID
  5
A2
330
99
100
AcDbEntity
  8
0
  6
ByBlock
 62
     2
100
AcDbTrace
 10
431.9351038271356
 20
210.9041216915297
 30
0.0
 11
431.9351038271356
 21
209.5041216915297
 31
0.0
 12
427.7351038271357
 22
210.2041216915297
 32
0.0
 13
427.7351038271357
 23
210.2041216915297
 33
0.0
  0
POINT
  5
A3
330
99
100
AcDbEntity
  8
DEFPOINTS
  6
ByBlock
 62
     0
100
AcDbPoint
 10
424.7351038271357
 20
223.0433170461362
 30
0.0
  0
POINT
  5
A4
330
99
100
AcDbEntity
  8
DEFPOINTS
  6
ByBlock
 62
     0
100
AcDbPoint
 10
427.7351038271357
 20
223.0433170461362
 30
0.0
  0
POINT
  5
A5
330
99
100
AcDbEntity
  8
DEFPOINTS
  6
ByBlock
 62
     0
100
AcDbPoint
 10
427.7351038271357
 20
210.2041216915297
 30
0.0
  0
ENDBLK
  5
A7
330
99
100
AcDbEntity
  8
0
100
AcDbBlockEnd
  0
BLOCK
  5
114
330
108
100
AcDbEntity
  8
0
100
AcDbBlockBegin
  2
*D14
 70
     1
 10
0.0
 20
0.0
 30
0.0
  3
*D14
  1

  0
LINE
  5
109
330
108
100
AcDbEntity
  8
0
  6
ByBlock
 62
     2
100
AcDbLine
 10
426.1851038271357
 20
296.4433170461361
 30
0.0
 11
442.8385514367443
 21
296.4433170461361
 31
0.0
  0
LINE
  5
10A
330
108
100
AcDbEntity
  8
0
  6
ByBlock
 62
     2
100
AcDbLine
 10
426.1851038271357
 20
301.6433170461362
 30
0.0
 11
442.8385514367443
 21
301.6433170461362
 31
0.0
  0
LINE
  5
10B
330
108
100
AcDbEntity
  8
0
  6
ByBlock
 62
     2
100
AcDbLine
 10
442.2385514367443
 20
292.2433170461361
 30
0.0
 11
442.2385514367443
 21
288.0433170461362
 31
0.0
  0
LINE
  5
10C
330
108
100
AcDbEntity
  8
0
  6
ByBlock
 62
     2
100
AcDbLine
 10
442.2385514367443
 20
305.8433170461361
 30
0.0
 11
442.2385514367443
 21
310.0433170461361
 31
0.0
  0
LINE
  5
10D
330
108
100
AcDbEntity
  8
0
  6
ByBlock
 62
     2
100
AcDbLine
 10
442.2385514367443
 20
296.4433170461361
 30
0.0
 11
442.2385514367443
 21
301.6433170461362
 31
0.0
  0
SOLID
  5
10E
330
108
100
AcDbEntity
  8
0
  6
ByBlock
 62
     2
100
AcDbTrace
 10
441.5385514367442
 20
292.2433170461361
 30
0.0
 11
442.9385514367442
 21
292.2433170461361
 31
0.0
 12
442.2385514367443
 22
296.4433170461361
 32
0.0
 13
442.2385514367443
 23
296.4433170461361
 33
0.0
  0
SOLID
  5
10F
330
108
100
AcDbEntity
  8
0
  6
ByBlock
 62
     2
100
AcDbTrace
 10
441.5385514367442
 20
305.8433170461361
 30
0.0
 11
442.9385514367442
 21
305.8433170461361
 31
0.0
 12
442.2385514367443
 22
301.6433170461362
 32
0.0
 13
442.2385514367443
 23
301.6433170461362
 33
0.0
  0
MTEXT
  5
110
330
108
100
AcDbEntity
  8
0
  6
ByBlock
 62
     3
100
AcDbMText
 10
438.9385514367442
 20
299.0433170461361
 30
0.0
 40
4.2
 41
0.0
 71
     5
 72
     1
  1
\A1;\U+22055.2
  7
NORM
 11
0.0000000000000001
 21
1.0
 31
0.0
 73
     1
 44
1.0
  0
POINT
  5
111
330
108
100
AcDbEntity
  8
DEFPOINTS
  6
ByBlock
 62
     0
100
AcDbPoint
 10
425.5851038271357
 20
296.4433170461361
 30
0.0
  0
POINT
  5
112
330
108
100
AcDbEntity
  8
DEFPOINTS
  6
ByBlock
 62
     0
100
AcDbPoint
 10
425.5851038271357
 20
301.6433170461362
 30
0.0
  0
POINT
  5
113
330
108
100
AcDbEntity
  8
DEFPOINTS
  6
ByBlock
 62
     0
100
AcDbPoint
 10
442.2385514367443
 20
301.6433170461362
 30
0.0
  0
ENDBLK
  5
115
330
108
100
AcDbEntity
  8
0
100
AcDbBlockEnd
  0
ENDSEC
  0
SECTION
  2
ENTITIES
  0
LINE
  5
27
330
2
100
AcDbEntity
  8
AVERDECKTE
100
AcDbLine
 10
757.2672203793484
 20
112.1772690920147
 30
0.0
 11
755.1172203793485
 21
110.0272690920148
 31
0.0
  0
DIMENSION
  5
2A
330
2
100
AcDbEntity
  8
BEMASSUNG
100
AcDbDimension
  2
*D10
 10
771.770667988957
 20
112.1772690920148
 30
0.0
 11
768.1750906941775
 21
108.5931478085324
 31
0.0
 12
329.5321165522127
 22
-125.6160479541213
 32
0.0
 70
   128
  1
%%C<>x90%%d
 71
     5
 42
-1.0
  3
EPS
100
AcDbAlignedDimension
 13
757.2672203793485
 23
102.6772690920148
 33
0.0
 14
757.2672203793485
 24
112.1772690920148
 34
0.0
 50
270.0
100
AcDbRotatedDimension
  0
DIMENSION
  5
3D
330
2
100
AcDbEntity
  8
BEMASSUNG
100
AcDbDimension
  2
*D3
 10
712.4311651573684
 20
113.4272690920149
 30
0.0
 11
709.1311651573684
 21
105.4272690920149
 31
0.0
 71
     5
 42
-1.0
  3
EPS
100
AcDbAlignedDimension
 13
685.2837231905246
 23
97.427269092015
 33
0.0
 14
700.2837231905246
 24
113.4272690920149
 34
0.0
 50
90.0
100
AcDbRotatedDimension
  0
DIMENSION
  5
4A
330
2
100
AcDbEntity
  8
BEMASSUNG
100
AcDbDimension
  2
*D7
 10
741.2495487382605
 20
107.4272690920148
 30
0.0
 11
737.9495487382605
 21
102.4272690920148
 31
0.0
 12
329.5321165522127
 22
-125.6160479541213
 32
0.0
 71
     5
 42
-1.0
  3
EPS
100
AcDbAlignedDimension
 13
754.2672203793484
 23
97.42726909201493
 33
0.0
 14
751.2672203793485
 24
107.4272690920148
 34
0.0
 50
270.0
100
AcDbRotatedDimension
  0
CIRCLE
  5
59
330
2
100
AcDbEntity
  8
UMRISS05
100
AcDbCircle
 10
675.2837231905247
 20
107.4272690920149
 30
0.0
 40
4.75
  0
LINE
  5
5A
330
2
100
AcDbEntity
  8
ACHSEN
100
AcDbLine
 10
675.2837231905247
 20
107.4272690920149
 30
0.0
 11
675.2837231905247
 21
114.1772690920149
 31
0.0
  0
DIMENSION
  5
5D
330
2
100
AcDbEntity
  8
BEMASSUNG
100
AcDbDimension
  2
*D1
 10
654.0673823199131
 20
121.4272690920147
 30
0.0
 11
650.7673823199131
 21
109.4272690920148
 31
0.0
 71
     5
 42
-1.0
  3
EPS
100
AcDbAlignedDimension
 13
665.2837231905246
 23
97.42726909201497
 33
0.0
 14
668.7837231905246
 24
121.4272690920147
 34
0.0
 50
90.0
100
AcDbRotatedDimension
  0
DIMENSION
  5
6A
330
2
100
AcDbEntity
  8
BEMASSUNG
100
AcDbDimension
  2
*D0
 10
639.3525064390562
 20
183.4272690920149
 30
0.0
 11
636.0525064390563
 21
140.4272690920149
 31
0.0
 71
     5
 42
-1.0
  3
EPS
100
AcDbAlignedDimension
 13
665.2837231905246
 23
97.42726909201497
 33
0.0
 14
665.2837231905246
 24
183.4272690920149
 34
0.0
 50
90.0
100
AcDbRotatedDimension
  0
DIMENSION
  5
77
330
2
100
AcDbEntity
  8
BEMASSUNG
100
AcDbDimension
  2
*D8
 10
741.2495487382605
 20
173.4272690920148
 30
0.0
 11
737.9495487382605
 21
140.4272690920148
 31
0.0
 12
329.5321165522127
 22
-125.6160479541213
 32
0.0
 71
     5
 42
-1.0
  3
EPS
100
AcDbAlignedDimension
 13
751.2672203793485
 23
107.4272690920148
 33
0.0
 14
751.2672203793485
 24
173.4272690920148
 34
0.0
 50
270.0
100
AcDbRotatedDimension
  0
LINE
  5
84
330
2
100
AcDbEntity
  8
UMRISS05
100
AcDbLine
 10
757.2672203793485
 20
183.4272690920149
 30
0.0
 11
757.2672203793485
 21
97.42726909201493
 31
0.0
  0
LINE
  5
85
330
2
100
AcDbEntity
  8
UMRISS05
100
AcDbLine
 10
754.2672203793484
 20
183.4272690920149
 30
0.0
 11
754.2672203793484
 21
97.42726909201493
 31
0.0
  0
LWPOLYLINE
  5
86
330
2
100
AcDbEntity
  8
UMRISS05
100
AcDbPolyline
 90
       16
 70
     1
 43
0.0
 10
700.2837231905246
 20
167.1272690920149
 10
700.2837231905246
 20
113.7272690920149
 42
-0.4142135623730951
 10
699.9837231905246
 20
113.4272690920149
 10
685.5837231905247
 20
113.4272690920149
 42
0.4142135623730951
 10
685.2837231905246
 20
113.1272690920149
 10
685.2837231905246
 20
97.72726909201498
 42
-0.4142135623730951
 10
684.9837231905246
 20
97.42726909201497
 10
665.5837231905247
 20
97.42726909201497
 42
-0.4142135623730951
 10
665.2837231905246
 20
97.72726909201498
 10
665.2837231905246
 20
183.1272690920149
 42
-0.4142135623730951
 10
665.5837231905247
 20
183.4272690920149
 10
684.9837231905246
 20
183.4272690920149
 42
-0.4142135623730951
 10
685.2837231905246
 20
183.1272690920149
 10
685.2837231905246
 20
167.7272690920149
 42
0.4142135623730951
 10
685.5837231905247
 20
167.4272690920149
 10
699.9837231905246
 20
167.4272690920149
 42
-0.4142135623730951
  0
LINE
  5
87
330
2
100
AcDbEntity
  8
ACHSEN
100
AcDbLine
 10
675.2837231905247
 20
107.4272690920149
 30
0.0
 11
668.5337231905247
 21
107.4272690920149
 31
0.0
  0
DIMENSION
  5
88
330
2
100
AcDbEntity
  8
BEMASSUNG
100
AcDbDimension
  2
*D12
 10
685.2837231905246
 20
84.58807373740842
 30
0.0
 11
675.2837231905246
 21
87.88807373740842
 31
0.0
 12
352.6463361903747
 22
-125.6160479541213
 32
0.0
 71
     5
 42
-1.0
  3
EPS
100
AcDbAlignedDimension
 13
665.2837231905246
 23
97.72726909201498
 33
0.0
 14
685.2837231905246
 24
97.72726909201498
 34
0.0
100
AcDbRotatedDimension
  0
LINE
  5
95
330
2
100
AcDbEntity
  8
ACHSEN
100
AcDbLine
 10
675.2837231905247
 20
107.4272690920149
 30
0.0
 11
682.0337231905247
 21
107.4272690920149
 31
0.0
  0
CIRCLE
  5
96
330
2
100
AcDbEntity
  8
UMRISS05
100
AcDbCircle
 10
675.2837231905247
 20
107.4272690920149
 30
0.0
 40
2.6
  0
LINE
  5
97
330
2
100
AcDbEntity
  8
ACHSEN
100
AcDbLine
 10
675.2837231905247
 20
107.4272690920149
 30
0.0
 11
675.2837231905247
 21
100.6772690920149
 31
0.0
  0
DIMENSION
  5
98
330
2
100
AcDbEntity
  8
BEMASSUNG
100
AcDbDimension
  2
*D13
 10
757.2672203793485
 20
84.58807373740842
 30
0.0
 11
748.3019495002372
 21
88.3305690270704
 31
0.0
 12
329.5321165522127
 22
-125.6160479541213
 32
0.0
 70
   128
 71
     5
 42
-1.0
  3
EPS
100
AcDbAlignedDimension
 13
754.2672203793484
 23
97.42726909201493
 33
0.0
 14
757.2672203793485
 24
97.42726909201493
 34
0.0
100
AcDbRotatedDimension
  0
LINE
  5
A8
330
2
100
AcDbEntity
  8
UMRISS05
100
AcDbLine
 10
754.2672203793484
 20
97.42726909201493
 30
0.0
 11
757.2672203793485
 21
97.42726909201493
 31
0.0
  0
LINE
  5
A9
330
2
100
AcDbEntity
  8
ACHSEN
100
AcDbLine
 10
751.2672203793483
 20
107.4272690920148
 30
0.0
 11
760.2672203793485
 21
107.4272690920148
 31
0.0
  0
LINE
  5
AA
330
2
100
AcDbEntity
  8
AVERDECKTE
100
AcDbLine
 10
757.2672203793484
 20
102.6772690920148
 30
0.0
 11
755.1172203793485
 21
104.8272690920148
 31
0.0
  0
LINE
  5
AB
330
2
100
AcDbEntity
  8
AVERDECKTE
100
AcDbLine
 10
754.2672203793483
 20
104.8272690920148
 30
0.0
 11
755.1172203793485
 21
104.8272690920148
 31
0.0
  0
LINE
  5
AC
330
2
100
AcDbEntity
  8
AVERDECKTE
100
AcDbLine
 10
754.2672203793483
 20
110.0272690920148
 30
0.0
 11
755.1172203793485
 21
110.0272690920148
 31
0.0
  0
LINE
  5
AD
330
2
100
AcDbEntity
  8
AVERDECKTE
100
AcDbLine
 10
755.1172203793485
 20
110.0272690920148
 30
0.0
 11
755.1172203793485
 21
104.8272690920148
 31
0.0
  0
DIMENSION
  5
AE
330
2
100
AcDbEntity
  8
BEMASSUNG
100
AcDbDimension
  2
*D4
 10
712.4311651573684
 20
167.4272690920149
 30
0.0
 11
709.1311651573684
 21
140.4272690920149
 31
0.0
 71
     5
 42
-1.0
  3
EPS
100
AcDbAlignedDimension
 13
700.2837231905246
 23
113.4272690920149
 33
0.0
 14
700.2837231905246
 24
167.4272690920149
 34
0.0
 50
90.0
100
AcDbRotatedDimension
  0
DIMENSION
  5
BB
330
2
100
AcDbEntity
  8
BEMASSUNG
100
AcDbDimension
  2
*D5
 10
712.4311651573684
 20
183.4272690920149
 30
0.0
 11
709.1311651573684
 21
175.4272690920149
 31
0.0
 71
     5
 42
-1.0
  3
EPS
100
AcDbAlignedDimension
 13
700.2837231905246
 23
167.4272690920149
 33
0.0
 14
685.2837231905246
 24
183.4272690920149
 34
0.0
 50
90.0
100
AcDbRotatedDimension
  0
DIMENSION
  5
C8
330
2
100
AcDbEntity
  8
BEMASSUNG
100
AcDbDimension
  2
*D11
 10
654.0673823199131
 20
159.4272690920147
 30
0.0
 11
650.7673823199131
 21
140.4272690920147
 31
0.0
 71
     5
 42
-1.0
  3
EPS
100
AcDbAlignedDimension
 13
668.7837231905246
 23
121.4272690920147
 33
0.0
 14
668.7837231905246
 24
159.4272690920147
 34
0.0
 50
90.0
100
AcDbRotatedDimension
  0
LWPOLYLINE
  5
D5
330
2
100
AcDbEntity
  8
UMRISS05
100
AcDbPolyline
 90
        8
 70
     1
 43
0.0
 10
669.0837231905247
 20
121.4272690920147
 10
681.4837231905247
 20
121.4272690920147
 42
0.4142135623730951
 10
681.7837231905246
 20
121.7272690920147
 10
681.7837231905246
 20
159.1272690920147
 42
0.4142135623730951
 10
681.4837231905247
 20
159.4272690920147
 10
669.0837231905247
 20
159.4272690920147
 42
0.4142135623730951
 10
668.7837231905246
 20
159.1272690920147
 10
668.7837231905246
 20
121.7272690920147
 42
0.4142135623730951
  0
LINE
  5
D6
330
2
100
AcDbEntity
  8
ACHSEN
100
AcDbLine
 10
675.2837231905247
 20
173.427269092015
 30
0.0
 11
668.5337231905247
 21
173.427269092015
 31
0.0
  0
DIMENSION
  5
D7
330
2
100
AcDbEntity
  8
BEMASSUNG
100
AcDbDimension
  2
*D6
 10
668.7837231905246
 20
161.0423264105215
 30
0.0
 11
675.2837231905246
 21
164.3423264105216
 31
0.0
 12
352.6463361903747
 22
-125.6160479541213
 32
0.0
 71
     5
 42
-1.0
  3
EPS
100
AcDbAlignedDimension
 13
681.7837231905246
 23
159.1272690920147
 33
0.0
 14
668.7837231905246
 24
159.1272690920147
 34
0.0
100
AcDbRotatedDimension
  0
CIRCLE
  5
E4
330
2
100
AcDbEntity
  8
UMRISS05
100
AcDbCircle
 10
675.2837231905247
 20
173.427269092015
 30
0.0
 40
4.75
  0
DIMENSION
  5
E5
330
2
100
AcDbEntity
  8
BEMASSUNG
100
AcDbDimension
  2
*D2
 10
654.0673823199131
 20
183.4272690920149
 30
0.0
 11
650.7673823199131
 21
171.4272690920148
 31
0.0
 71
     5
 42
-1.0
  3
EPS
100
AcDbAlignedDimension
 13
668.7837231905246
 23
159.4272690920147
 33
0.0
 14
665.2837231905246
 24
183.4272690920149
 34
0.0
 50
90.0
100
AcDbRotatedDimension
  0
LINE
  5
F2
330
2
100
AcDbEntity
  8
ACHSEN
100
AcDbLine
 10
675.2837231905247
 20
173.427269092015
 30
0.0
 11
675.2837231905247
 21
166.677269092015
 31
0.0
  0
LINE
  5
F3
330
2
100
AcDbEntity
  8
ACHSEN
100
AcDbLine
 10
675.2837231905247
 20
173.427269092015
 30
0.0
 11
682.0337231905247
 21
173.427269092015
 31
0.0
  0
LINE
  5
F4
330
2
100
AcDbEntity
  8
ACHSEN
100
AcDbLine
 10
675.2837231905247
 20
173.427269092015
 30
0.0
 11
675.2837231905247
 21
180.177269092015
 31
0.0
  0
CIRCLE
  5
F5
330
2
100
AcDbEntity
  8
UMRISS05
100
AcDbCircle
 10
675.2837231905247
 20
173.427269092015
 30
0.0
 40
2.6
  0
LINE
  5
F6
330
2
100
AcDbEntity
  8
AVERDECKTE
100
AcDbLine
 10
754.2672203793484
 20
113.4272690920149
 30
0.0
 11
757.2672203793485
 21
113.4272690920149
 31
0.0
  0
LINE
  5
F7
330
2
100
AcDbEntity
  8
AVERDECKTE
100
AcDbLine
 10
754.2672203793484
 20
121.4272690920147
 30
0.0
 11
757.2672203793485
 21
121.4272690920147
 31
0.0
  0
DIMENSION
  5
F8
330
2
100
AcDbEntity
  8
BEMASSUNG
100
AcDbDimension
  2
*D9
 10
741.2495487382605
 20
183.4272690920149
 30
0.0
 11
737.9495487382605
 21
178.4272690920149
 31
0.0
 12
329.5321165522127
 22
-125.6160479541213
 32
0.0
 71
     5
 42
-1.0
  3
EPS
100
AcDbAlignedDimension
 13
751.2672203793485
 23
173.4272690920148
 33
0.0
 14
754.2672203793484
 24
183.4272690920149
 34
0.0
 50
270.0
100
AcDbRotatedDimension
  0
DIMENSION
  5
107
330
2
100
AcDbEntity
  8
BEMASSUNG
100
AcDbDimension
  2
*D14
 10
771.770667988957
 20
176.0272690920148
 30
0.0
 11
768.470667988957
 21
173.4272690920148
 31
0.0
 12
329.5321165522127
 22
-125.6160479541213
 32
0.0
  1
%%c<>
 71
     5
 42
-1.0
  3
EPS
100
AcDbAlignedDimension
 13
755.1172203793485
 23
170.8272690920148
 33
0.0
 14
755.1172203793485
 24
176.0272690920148
 34
0.0
 50
270.0
100
AcDbRotatedDimension
  0
LINE
  5
116
330
2
100
AcDbEntity
  8
AVERDECKTE
100
AcDbLine
 10
757.2672203793484
 20
168.6772690920149
 30
0.0
 11
755.1172203793485
 21
170.8272690920148
 31
0.0
  0
LINE
  5
117
330
2
100
AcDbEntity
  8
AVERDECKTE
100
AcDbLine
 10
754.2672203793484
 20
167.4272690920149
 30
0.0
 11
757.2672203793485
 21
167.4272690920149
 31
0.0
  0
LINE
  5
118
330
2
100
AcDbEntity
  8
AVERDECKTE
100
AcDbLine
 10
754.2672203793484
 20
159.4272690920146
 30
0.0
 11
757.2672203793485
 21
159.4272690920146
 31
0.0
  0
LINE
  5
119
330
2
100
AcDbEntity
  8
ACHSEN
100
AcDbLine
 10
751.2672203793483
 20
173.4272690920148
 30
0.0
 11
760.2672203793485
 21
173.4272690920148
 31
0.0
  0
LINE
  5
11A
330
2
100
AcDbEntity
  8
AVERDECKTE
100
AcDbLine
 10
757.2672203793484
 20
178.1772690920147
 30
0.0
 11
755.1172203793485
 21
176.0272690920148
 31
0.0
  0
LINE
  5
11B
330
2
100
AcDbEntity
  8
AVERDECKTE
100
AcDbLine
 10
754.2672203793483
 20
176.0272690920148
 30
0.0
 11
755.1172203793485
 21
176.0272690920148
 31
0.0
  0
LINE
  5
11C
330
2
100
AcDbEntity
  8
AVERDECKTE
100
AcDbLine
 10
754.2672203793483
 20
170.8272690920148
 30
0.0
 11
755.1172203793485
 21
170.8272690920148
 31
0.0
  0
LINE
  5
11D
330
2
100
AcDbEntity
  8
AVERDECKTE
100
AcDbLine
 10
755.1172203793485
 20
176.0272690920148
 30
0.0
 11
755.1172203793485
 21
170.8272690920148
 31
0.0
  0
LINE
  5
11E
330
2
100
AcDbEntity
  8
UMRISS05
100
AcDbLine
 10
754.2672203793484
 20
183.4272690920149
 30
0.0
 11
757.2672203793485
 21
183.4272690920149
 31
0.0
  0
ENDSEC
  0
SECTION
  2
OBJECTS
  0
DICTIONARY
  5
8
330
0
100
AcDbDictionary
281
     1
  3
ACAD_GROUP
350
20
  3
ACAD_LAYOUT
350
C
  3
ACAD_MLINESTYLE
350
21
  3
ACAD_PLOTSETTINGS
350
22
  3
ACAD_PLOTSTYLENAME
350
7
  3
AcDbVariableDictionary
350
14A
  3
AcmDictionary
350
12F
  3
AMG
350
120
  3
DWGPROPS
350
149
  0
DICTIONARY
  5
3
330
2
100
AcDbDictionary
280
     1
281
     1
  0
DICTIONARY
  5
20
102
{ACAD_REACTORS
330
8
102
}
330
8
100
AcDbDictionary
281
     1
  0
DICTIONARY
  5
C
102
{ACAD_REACTORS
330
8
102
}
330
8
100
AcDbDictionary
281
     1
  3
Layout1
350
10
  3
Model
350
B
  0
DICTIONARY
  5
21
102
{ACAD_REACTORS
330
8
102
}
330
8
100
AcDbDictionary
281
     1
  3
STANDARD
350
25
  0
DICTIONARY
  5
22
102
{ACAD_REACTORS
330
8
102
}
330
8
100
AcDbDictionary
281
     1
  0
ACDBDICTIONARYWDFLT
  5
7
102
{ACAD_REACTORS
330
8
102
}
330
8
100
AcDbDictionary
281
     1
  3
Normal
350
6
100
AcDbDictionaryWithDefault
340
6
  0
DICTIONARY
  5
14A
102
{ACAD_REACTORS
330
8
102
}
330
8
100
AcDbDictionary
281
     1
  3
DIMASSOC
350
14C
  3
HIDETEXT
350
14B
  0
DICTIONARY
  5
12F
102
{ACAD_REACTORS
330
8
102
}
330
8
100
AcDbDictionary
281
     1
  3
AcmStdDictionary
350
130
  0
DICTIONARY
  5
120
102
{ACAD_REACTORS
330
8
102
}
330
8
100
AcDbDictionary
281
     1
  3
AcMgSettings
350
12A
  3
AMGLAYCFG
350
11F
  0
XRECORD
  5
149
102
{ACAD_REACTORS
330
8
102
}
330
8
100
AcDbXrecord
280
     1
  1
DWGPROPS COOKIE
  2

  3

  4

  6

  7

  8

  9

300
AmdtFileType=84
301
=
302
=
303
=
304
=
305
=
306
=
307
=
308
=
309
=
 40
0.4662270717592593
 41
2451009.398051504
 42
2453073.309910845
  1

 90
        1
  0
LAYOUT
  5
10
102
{ACAD_REACTORS
330
C
102
}
330
C
100
AcDbPlotSettings
  1

  2
G:\VORLAGEN\AutoCAD2002\Plotten\A3hoch-MSL.pc3
  4

  6

 40
0.0
 41
0.0
 42
0.0
 43
0.0
 44
0.0
 45
0.0
 46
0.0
 47
0.0
 48
0.0
 49
0.0
140
0.0
141
0.0
142
1.0
143
1.0
 70
   688
 72
     0
 73
     0
 74
     5
  7
monochrome.ctb
 75
    16
147
1.0
148
0.0
149
0.0
100
AcDbLayout
  1
Layout1
 70
     0
 71
     1
 10
0.0
 20
0.0
 11
420.0
 21
297.0
 12
0.0
 22
0.0
 32
0.0
 14
5.0
 24
5.0
 34
0.0
 15
415.0
 25
300.0
 35
0.0
146
0.0
 13
0.0
 23
0.0
 33
0.0
 16
1.0
 26
0.0
 36
0.0
 17
0.0
 27
1.0
 37
0.0
 76
     0
330
D
  0
LAYOUT
  5
B
102
{ACAD_REACTORS
330
C
102
}
330
C
100
AcDbPlotSettings
  1

  2
G:\VORLAGEN\AutoCAD2002\Plotten\A3hoch-MSL.pc3
  4

  6

 40
0.0
 41
0.0
 42
0.0
 43
0.0
 44
0.0
 45
0.0
 46
0.0
 47
0.0
 48
0.0
 49
0.0
140
0.0
141
0.0
142
1.0
143
1.0
 70
  1712
 72
     0
 73
     0
 74
     0
  7
monochrome.ctb
 75
     0
147
1.0
148
0.0
149
0.0
100
AcDbLayout
  1
Model
 70
     1
 71
     0
 10
0.0
 20
0.0
 11
12.0
 21
9.0
 12
0.0
 22
0.0
 32
0.0
 14
0.0
 24
0.0
 34
0.0
 15
0.0
 25
0.0
 35
0.0
146
0.0
 13
0.0
 23
0.0
 33
0.0
 16
1.0
 26
0.0
 36
0.0
 17
0.0
 27
1.0
 37
0.0
 76
     0
330
2
  0
MLINESTYLE
  5
25
102
{ACAD_REACTORS
330
21
102
}
330
21
100
AcDbMlineStyle
  2
STANDARD
 70
     0
  3

 62
   256
 51
90.0
 52
90.0
 71
     2
 49
0.5
 62
   256
  6
BYLAYER
 49
-0.5
 62
   256
  6
BYLAYER
  0
ACDBPLACEHOLDER
  5
6
102
{ACAD_REACTORS
330
7
102
}
330
7
  0
DICTIONARYVAR
  5
14C
102
{ACAD_REACTORS
330
14A
102
}
330
14A
100
DictionaryVariables
280
     0
  1
1
  0
DICTIONARYVAR
  5
14B
102
{ACAD_REACTORS
330
14A
102
}
330
14A
100
DictionaryVariables
280
     0
  1
1
  0
DICTIONARY
  5
130
102
{ACAD_REACTORS
330
12F
102
}
330
12F
100
AcDbDictionary
281
     1
  3
DIN
350
131
  0
DICTIONARY
  5
12A
102
{ACAD_REACTORS
330
120
102
}
330
120
100
AcDbDictionary
281
     1
  3
DWGSETTINGS
350
129
  3
TRANSSETTINGS
350
12B
  0
ENDSEC
  0
EOF
