999
DXF file: Z:\Entwicklung\5_Service\1_Beschlagsdaten\1_Beschlag\B-7401x_komplett in TB-Datei\Beschlagdaten\dxf\B-74010-00-0_bd01.dxf
999
Pro/ENGINEER 2017380 by Parametric Technology Corporation
  0
SECTION
  2
HEADER
  9
$ACADVER
  1
AC1021
  9
$DWGCODEPAGE
  3
ANSI_1252
  9
$EXTMAX
 10
594.0
 20
420.0
 30
0.0
  9
$EXTMIN
 10
0.0
 20
0.0
 30
0.0
  9
$LIMMIN
 10
0.0
 20
0.0
  9
$LIMMAX
 10
594.0
 20
420.0
  9
$VIEWCTR
 10
297.0
 20
210.0
  9
$VIEWSIZE
 40
420.0
  9
$CLAYER
  8
0
  9
$LTSCALE
 40
32.67
  9
$CELTYPE
  6
BYLAYER
  9
$DIMSCALE
 40
1.0
  9
$DIMASZ
 40
3.5
  9
$DIMEXO
 40
0.0
  9
$DIMDLI
 40
22.572
  9
$DIMEXE
 40
1.5
  9
$DIMCEN
 40
5.346
  9
$DIMLFAC
 40
1.0
  9
$DIMBLK
  1
_FILLED
  9
$DIMALT
 70
0
  9
$DIMALTF
 40
25.4
  9
$DIMTXT
 40
3.5
  9
$DIMTOL
 70
1
  9
$DIMLIM
 70
0
  9
$DIMTFAC
 40
1.0
  9
$DIMTP
 40
0.001
  9
$DIMTM
 40
0.001
  9
$DIMGAP
 40
0.625
  9
$DIMDSEP
 70
46
  9
$AUNITS
 70
0
  9
$PDMODE
 70
3
  9
$PDSIZE
 40
0.3125
  9
$HANDSEED
  5
6D7
  9
$TILEMODE
 70
1
  9
$MEASUREMENT
 70
1
  9
$INSUNITS
 70
4
  0
ENDSEC
  0
SECTION
  2
CLASSES
  0
CLASS
  1
ACDBDICTIONARYWDFLT
  2
AcDbDictionaryWithDefault
  3
AutoCAD 2000
 90
0
 91
1
280
0
281
0
  0
CLASS
  1
ACDBPLACEHOLDER
  2
AcDbPlaceHolder
  3
AutoCAD 2000
 90
0
 91
1
280
0
281
0
  0
CLASS
  1
LAYOUT
  2
AcDbLayout
  3
AutoCAD 2000
 90
0
 91
0
280
0
281
0
  0
CLASS
  1
TABLESTYLE
  2
AcDbTableStyle
  3
ObjectDBX Classes
 90
2047
 91
1
280
0
281
0
  0
CLASS
  1
ACAD_TABLE
  2
AcDbTable
  3
ObjectDBX Classes
 90
1025
 91
1
280
0
281
1
  0
ENDSEC
  0
SECTION
  2
TABLES
  0
TABLE
  2
VPORT
  5
8
100
AcDbSymbolTable
 70
2
  0
VPORT
  5
1F4
100
AcDbSymbolTableRecord
100
AcDbViewportTableRecord
  2
*ACTIVE
 70
0
 10
0.0
 20
0.0
 11
1.0
 21
1.0
 12
297.0
 22
210.0
 13
0.0
 23
0.0
 14
1.0
 24
1.0
 15
0.0
 25
0.0
 16
0.0
 26
0.0
 36
1.0
 17
0.0
 27
0.0
 37
0.0
 40
420.0
 41
1.4142857143
 42
50.0
 43
0.0
 44
0.0
 50
0.0
 51
0.0
 71
0
 72
100
 73
1
 74
1
 75
0
 76
0
 77
0
 78
0
  0
ENDTAB
  0
TABLE
  2
LTYPE
  5
5
100
AcDbSymbolTable
 70
6
  0
LTYPE
  5
14
100
AcDbSymbolTableRecord
100
AcDbLinetypeTableRecord
  2
BYBLOCK
 70
0
  3

 72
65
 73
0
 40
0.0
  0
LTYPE
  5
15
100
AcDbSymbolTableRecord
100
AcDbLinetypeTableRecord
  2
BYLAYER
 70
0
  3

 72
65
 73
0
 40
0.0
  0
LTYPE
  5
16
100
AcDbSymbolTableRecord
100
AcDbLinetypeTableRecord
  2
CONTINUOUS
 70
64
  3
Solid line
 72
65
 73
0
 40
0.0
  0
LTYPE
  5
1F5
100
AcDbSymbolTableRecord
100
AcDbLinetypeTableRecord
  2
CENTER
 70
64
  3
____ _ ____ _ ____ _ ____ _ ____ _ ____ _ ____
 72
65
 73
4
 40
0.6
 49
0.375
 74
0
 49
-0.075
 74
0
 49
0.075
 74
0
 49
-0.075
 74
0
  0
LTYPE
  5
1F6
100
AcDbSymbolTableRecord
100
AcDbLinetypeTableRecord
  2
HIDDEN
 70
64
  3
- - - - - - - - - - - - - - - - - - - -
 72
65
 73
2
 40
0.2
 49
0.1
 74
0
 49
-0.1
 74
0
  0
LTYPE
  5
1F7
100
AcDbSymbolTableRecord
100
AcDbLinetypeTableRecord
  2
PHANTOM
 70
64
  3
_____ _ _ _____ _ _ _____ _ _ _____
 72
65
 73
6
 40
0.8
 49
0.45
 74
0
 49
-0.05
 74
0
 49
0.1
 74
0
 49
-0.05
 74
0
 49
0.1
 74
0
 49
-0.05
 74
0
  0
LTYPE
  5
1F8
100
AcDbSymbolTableRecord
100
AcDbLinetypeTableRecord
  2
DOT
 70
64
  3
. . . . . . . . . . . . . . . . . . . .
 72
65
 73
2
 40
0.2
 49
0.1
 74
0
 49
-0.1
 74
0
  0
LTYPE
  5
1F9
100
AcDbSymbolTableRecord
100
AcDbLinetypeTableRecord
  2
DASHED
 70
64
  3
- - - - - - - - - - - - - - - - - - - -
 72
65
 73
2
 40
0.2
 49
0.1
 74
0
 49
-0.1
 74
0
  0
ENDTAB
  0
TABLE
  2
LAYER
  5
2
100
AcDbSymbolTable
 70
36
  0
LAYER
  5
10
100
AcDbSymbolTableRecord
100
AcDbLayerTableRecord
  2
0
 70
0
 62
7
  6
CONTINUOUS
370
-3
390
F
  0
LAYER
  5
1FA
100
AcDbSymbolTableRecord
100
AcDbLayerTableRecord
  2
DEFAULT_1
 70
0
 62
7
  6
CENTER
370
-3
390
F
  0
LAYER
  5
1FB
100
AcDbSymbolTableRecord
100
AcDbLayerTableRecord
  2
DEFAULT_2
 70
0
 62
8
  6
HIDDEN
370
-3
390
F
  0
LAYER
  5
1FC
100
AcDbSymbolTableRecord
100
AcDbLayerTableRecord
  2
DEFAULT_3
 70
0
 62
7
  6
PHANTOM
370
-3
390
F
  0
LAYER
  5
1FD
100
AcDbSymbolTableRecord
100
AcDbLayerTableRecord
  2
ACHSEN
 70
0
 62
7
  6
CONTINUOUS
370
-3
390
F
  0
LAYER
  5
1FE
100
AcDbSymbolTableRecord
100
AcDbLayerTableRecord
  2
AXIS
 70
0
 62
7
  6
CONTINUOUS
370
-3
390
F
  0
LAYER
  5
1FF
100
AcDbSymbolTableRecord
100
AcDbLayerTableRecord
  2
BOHRUNGEN
 70
0
 62
7
  6
CONTINUOUS
370
-3
390
F
  0
LAYER
  5
200
100
AcDbSymbolTableRecord
100
AcDbLayerTableRecord
  2
COORDSYS
 70
0
 62
7
  6
CONTINUOUS
370
-3
390
F
  0
LAYER
  5
201
100
AcDbSymbolTableRecord
100
AcDbLayerTableRecord
  2
CURVES
 70
0
 62
7
  6
CONTINUOUS
370
-3
390
F
  0
LAYER
  5
202
100
AcDbSymbolTableRecord
100
AcDbLayerTableRecord
  2
EBENEN
 70
0
 62
7
  6
CONTINUOUS
370
-3
390
F
  0
LAYER
  5
203
100
AcDbSymbolTableRecord
100
AcDbLayerTableRecord
  2
FLAECHEN
 70
0
 62
7
  6
CONTINUOUS
370
-3
390
F
  0
LAYER
  5
204
100
AcDbSymbolTableRecord
100
AcDbLayerTableRecord
  2
GEWINDE
 70
0
 62
7
  6
CONTINUOUS
370
-3
390
F
  0
LAYER
  5
205
100
AcDbSymbolTableRecord
100
AcDbLayerTableRecord
  2
GUIDES
 70
0
 62
7
  6
CONTINUOUS
370
-3
390
F
  0
LAYER
  5
206
100
AcDbSymbolTableRecord
100
AcDbLayerTableRecord
  2
HIDDEN
 70
0
 62
7
  6
CONTINUOUS
370
-3
390
F
  0
LAYER
  5
207
100
AcDbSymbolTableRecord
100
AcDbLayerTableRecord
  2
INDEX
 70
0
 62
7
  6
CONTINUOUS
370
-3
390
F
  0
LAYER
  5
208
100
AcDbSymbolTableRecord
100
AcDbLayerTableRecord
  2
KURVEN
 70
0
 62
7
  6
CONTINUOUS
370
-3
390
F
  0
LAYER
  5
209
100
AcDbSymbolTableRecord
100
AcDbLayerTableRecord
  2
PLANES
 70
0
 62
7
  6
CONTINUOUS
370
-3
390
F
  0
LAYER
  5
20A
100
AcDbSymbolTableRecord
100
AcDbLayerTableRecord
  2
POINTS
 70
0
 62
7
  6
CONTINUOUS
370
-3
390
F
  0
LAYER
  5
20B
100
AcDbSymbolTableRecord
100
AcDbLayerTableRecord
  2
QUILTS
 70
0
 62
7
  6
CONTINUOUS
370
-3
390
F
  0
LAYER
  5
20C
100
AcDbSymbolTableRecord
100
AcDbLayerTableRecord
  2
S-ACHSEN
 70
0
 62
7
  6
CONTINUOUS
370
-3
390
F
  0
LAYER
  5
20D
100
AcDbSymbolTableRecord
100
AcDbLayerTableRecord
  2
S-AXIS
 70
0
 62
7
  6
CONTINUOUS
370
-3
390
F
  0
LAYER
  5
20E
100
AcDbSymbolTableRecord
100
AcDbLayerTableRecord
  2
S-BG-EBENEN
 70
0
 62
7
  6
CONTINUOUS
370
-3
390
F
  0
LAYER
  5
20F
100
AcDbSymbolTableRecord
100
AcDbLayerTableRecord
  2
S-BG-KOORDSYS
 70
0
 62
7
  6
CONTINUOUS
370
-3
390
F
  0
LAYER
  5
210
100
AcDbSymbolTableRecord
100
AcDbLayerTableRecord
  2
S-COORDSYS
 70
0
 62
7
  6
CONTINUOUS
370
-3
390
F
  0
LAYER
  5
211
100
AcDbSymbolTableRecord
100
AcDbLayerTableRecord
  2
S-EBENEN
 70
0
 62
7
  6
CONTINUOUS
370
-3
390
F
  0
LAYER
  5
212
100
AcDbSymbolTableRecord
100
AcDbLayerTableRecord
  2
S-KOORDSYS
 70
0
 62
7
  6
CONTINUOUS
370
-3
390
F
  0
LAYER
  5
213
100
AcDbSymbolTableRecord
100
AcDbLayerTableRecord
  2
S-PLANES
 70
0
 62
7
  6
CONTINUOUS
370
-3
390
F
  0
LAYER
  5
214
100
AcDbSymbolTableRecord
100
AcDbLayerTableRecord
  2
THREADS
 70
0
 62
7
  6
CONTINUOUS
370
-3
390
F
  0
LAYER
  5
215
100
AcDbSymbolTableRecord
100
AcDbLayerTableRecord
  2
XSEC_DATUMS
 70
0
 62
7
  6
CONTINUOUS
370
-3
390
F
  0
LAYER
  5
216
100
AcDbSymbolTableRecord
100
AcDbLayerTableRecord
  2
HATCHING_BL0
 70
0
 62
7
  6
CONTINUOUS
370
-3
390
F
  0
LAYER
  5
217
100
AcDbSymbolTableRecord
100
AcDbLayerTableRecord
  2
Grp_symbol_75_BL1
 70
0
 62
7
  6
CONTINUOUS
370
-3
390
F
  0
LAYER
  5
218
100
AcDbSymbolTableRecord
100
AcDbLayerTableRecord
  2
Grp_symbol_75_BL2
 70
0
 62
7
  6
CONTINUOUS
370
-3
390
F
  0
LAYER
  5
219
100
AcDbSymbolTableRecord
100
AcDbLayerTableRecord
  2
X48000092_BD01_BL3
 70
0
 62
7
  6
CONTINUOUS
370
-3
390
F
  0
LAYER
  5
21A
100
AcDbSymbolTableRecord
100
AcDbLayerTableRecord
  2
X48002254_KLEIN_BL4
 70
0
 62
7
  6
CONTINUOUS
370
-3
390
F
  0
LAYER
  5
21B
100
AcDbSymbolTableRecord
100
AcDbLayerTableRecord
  2
X48002255_NEU_BL5
 70
0
 62
7
  6
CONTINUOUS
370
-3
390
F
  0
LAYER
  5
21C
100
AcDbSymbolTableRecord
100
AcDbLayerTableRecord
  2
X48002256_BL6
 70
0
 62
7
  6
CONTINUOUS
370
-3
390
F
  0
LAYER
  5
21D
100
AcDbSymbolTableRecord
100
AcDbLayerTableRecord
  2
X48002257_BL7
 70
0
 62
7
  6
CONTINUOUS
370
-3
390
F
  0
LAYER
  5
21E
100
AcDbSymbolTableRecord
100
AcDbLayerTableRecord
  2
X48002007_BL8
 70
0
 62
7
  6
CONTINUOUS
370
-3
390
F
  0
LAYER
  5
21F
100
AcDbSymbolTableRecord
100
AcDbLayerTableRecord
  2
X48002258_BL9
 70
0
 62
7
  6
CONTINUOUS
370
-3
390
F
  0
LAYER
  5
220
100
AcDbSymbolTableRecord
100
AcDbLayerTableRecord
  2
X48002028_BL10
 70
0
 62
7
  6
CONTINUOUS
370
-3
390
F
  0
LAYER
  5
221
100
AcDbSymbolTableRecord
100
AcDbLayerTableRecord
  2
X48002024_BL11
 70
0
 62
7
  6
CONTINUOUS
370
-3
390
F
  0
LAYER
  5
222
100
AcDbSymbolTableRecord
100
AcDbLayerTableRecord
  2
X48002028_BL12
 70
0
 62
7
  6
CONTINUOUS
370
-3
390
F
  0
LAYER
  5
223
100
AcDbSymbolTableRecord
100
AcDbLayerTableRecord
  2
X48002254_KLEIN_BL13
 70
0
 62
7
  6
CONTINUOUS
370
-3
390
F
  0
LAYER
  5
224
100
AcDbSymbolTableRecord
100
AcDbLayerTableRecord
  2
X48002014_BL14
 70
0
 62
7
  6
CONTINUOUS
370
-3
390
F
  0
LAYER
  5
225
100
AcDbSymbolTableRecord
100
AcDbLayerTableRecord
  2
X48002270_BL15
 70
0
 62
7
  6
CONTINUOUS
370
-3
390
F
  0
LAYER
  5
226
100
AcDbSymbolTableRecord
100
AcDbLayerTableRecord
  2
B_7100_4210_BD01_BL16
 70
0
 62
7
  6
CONTINUOUS
370
-3
390
F
  0
ENDTAB
  0
TABLE
  2
STYLE
  5
3
100
AcDbSymbolTable
 70
1
  0
STYLE
  5
11
100
AcDbSymbolTableRecord
100
AcDbTextStyleTableRecord
  2
STANDARD
 70
0
 40
0.0
 41
0.7
 50
0.0
 71
0
 42
0.2
  3
txt
  4

  0
STYLE
  5
227
100
AcDbSymbolTableRecord
100
AcDbTextStyleTableRecord
  2
TEXTSTYLE_1
 70
0
 40
0.0
 41
0.8
 50
0.0
 71
0
 42
0.2
  3
gdt
  4

  0
STYLE
  5
228
100
AcDbSymbolTableRecord
100
AcDbTextStyleTableRecord
  2
TEXTSTYLE_2
 70
0
 40
0.0
 41
1.0
 50
0.0
 71
0
 42
0.2
  3
arialuni.ttf
  4

  0
STYLE
  5
229
100
AcDbSymbolTableRecord
100
AcDbTextStyleTableRecord
  2
TEXTSTYLE_3
 70
0
 40
0.0
 41
1.0
 50
0.0
 71
0
 42
0.2
  3
symbol_asme.ttf
  4

  0
STYLE
  5
22A
100
AcDbSymbolTableRecord
100
AcDbTextStyleTableRecord
  2
TEXTSTYLE_4
 70
0
 40
0.0
 41
1.0
 50
0.0
 71
0
 42
0.2
  3
arialuni.ttf
  4

  0
ENDTAB
  0
TABLE
  2
VIEW
  5
6
100
AcDbSymbolTable
 70
0
  0
ENDTAB
  0
TABLE
  2
UCS
  5
7
100
AcDbSymbolTable
 70
0
  0
ENDTAB
  0
TABLE
  2
APPID
  5
9
100
AcDbSymbolTable
 70
1
  0
APPID
  5
22B
100
AcDbSymbolTableRecord
100
AcDbRegAppTableRecord
  2
ACAD
 70
0
  0
ENDTAB
  0
TABLE
  2
BLOCK_RECORD
  5
1
100
AcDbSymbolTable
 70
0
  0
BLOCK_RECORD
  5
22C
100
AcDbSymbolTableRecord
100
AcDbBlockTableRecord
  2
*Model_Space
  0
BLOCK_RECORD
  5
22D
100
AcDbSymbolTableRecord
100
AcDbBlockTableRecord
  2
*Paper_Space
  0
BLOCK_RECORD
  5
22E
100
AcDbSymbolTableRecord
100
AcDbBlockTableRecord
  2
_FILLED
  0
BLOCK_RECORD
  5
22F
100
AcDbSymbolTableRecord
100
AcDbBlockTableRecord
  2
XSEC_FILLED
  0
BLOCK_RECORD
  5
230
100
AcDbSymbolTableRecord
100
AcDbBlockTableRecord
  2
*D0
  0
BLOCK_RECORD
  5
231
100
AcDbSymbolTableRecord
100
AcDbBlockTableRecord
  2
*D1
  0
BLOCK_RECORD
  5
232
100
AcDbSymbolTableRecord
100
AcDbBlockTableRecord
  2
*D2
  0
BLOCK_RECORD
  5
233
100
AcDbSymbolTableRecord
100
AcDbBlockTableRecord
  2
*D3
  0
BLOCK_RECORD
  5
234
100
AcDbSymbolTableRecord
100
AcDbBlockTableRecord
  2
*D4
  0
BLOCK_RECORD
  5
235
100
AcDbSymbolTableRecord
100
AcDbBlockTableRecord
  2
*D5
  0
BLOCK_RECORD
  5
236
100
AcDbSymbolTableRecord
100
AcDbBlockTableRecord
  2
*D6
  0
BLOCK_RECORD
  5
237
100
AcDbSymbolTableRecord
100
AcDbBlockTableRecord
  2
*D7
  0
BLOCK_RECORD
  5
238
100
AcDbSymbolTableRecord
100
AcDbBlockTableRecord
  2
*D8
  0
BLOCK_RECORD
  5
239
100
AcDbSymbolTableRecord
100
AcDbBlockTableRecord
  2
*D9
  0
BLOCK_RECORD
  5
23A
100
AcDbSymbolTableRecord
100
AcDbBlockTableRecord
  2
*D10
  0
BLOCK_RECORD
  5
23B
100
AcDbSymbolTableRecord
100
AcDbBlockTableRecord
  2
*D11
  0
BLOCK_RECORD
  5
23C
100
AcDbSymbolTableRecord
100
AcDbBlockTableRecord
  2
*D12
  0
BLOCK_RECORD
  5
23D
100
AcDbSymbolTableRecord
100
AcDbBlockTableRecord
  2
*D13
  0
BLOCK_RECORD
  5
23E
100
AcDbSymbolTableRecord
100
AcDbBlockTableRecord
  2
*D14
  0
BLOCK_RECORD
  5
23F
100
AcDbSymbolTableRecord
100
AcDbBlockTableRecord
  2
HATCHING_BL0
  0
BLOCK_RECORD
  5
240
100
AcDbSymbolTableRecord
100
AcDbBlockTableRecord
  2
GRP_SYMBOL_75_BL1
  0
BLOCK_RECORD
  5
241
100
AcDbSymbolTableRecord
100
AcDbBlockTableRecord
  2
GRP_SYMBOL_75_BL2
  0
BLOCK_RECORD
  5
242
100
AcDbSymbolTableRecord
100
AcDbBlockTableRecord
  2
X48000092_BD01_BL3
  0
BLOCK_RECORD
  5
243
100
AcDbSymbolTableRecord
100
AcDbBlockTableRecord
  2
X48002254_KLEIN_BL4
  0
BLOCK_RECORD
  5
244
100
AcDbSymbolTableRecord
100
AcDbBlockTableRecord
  2
X48002255_NEU_BL5
  0
BLOCK_RECORD
  5
245
100
AcDbSymbolTableRecord
100
AcDbBlockTableRecord
  2
X48002256_BL6
  0
BLOCK_RECORD
  5
246
100
AcDbSymbolTableRecord
100
AcDbBlockTableRecord
  2
X48002257_BL7
  0
BLOCK_RECORD
  5
247
100
AcDbSymbolTableRecord
100
AcDbBlockTableRecord
  2
X48002007_BL8
  0
BLOCK_RECORD
  5
248
100
AcDbSymbolTableRecord
100
AcDbBlockTableRecord
  2
X48002258_BL9
  0
BLOCK_RECORD
  5
249
100
AcDbSymbolTableRecord
100
AcDbBlockTableRecord
  2
X48002028_BL10
  0
BLOCK_RECORD
  5
24A
100
AcDbSymbolTableRecord
100
AcDbBlockTableRecord
  2
X48002024_BL11
  0
BLOCK_RECORD
  5
24B
100
AcDbSymbolTableRecord
100
AcDbBlockTableRecord
  2
X48002028_BL12
  0
BLOCK_RECORD
  5
24C
100
AcDbSymbolTableRecord
100
AcDbBlockTableRecord
  2
X48002254_KLEIN_BL13
  0
BLOCK_RECORD
  5
24D
100
AcDbSymbolTableRecord
100
AcDbBlockTableRecord
  2
X48002014_BL14
  0
BLOCK_RECORD
  5
24E
100
AcDbSymbolTableRecord
100
AcDbBlockTableRecord
  2
X48002270_BL15
  0
BLOCK_RECORD
  5
24F
100
AcDbSymbolTableRecord
100
AcDbBlockTableRecord
  2
B_7100_4210_BD01_BL16
  0
BLOCK_RECORD
  5
250
100
AcDbSymbolTableRecord
100
AcDbBlockTableRecord
  2
*T1
  0
ENDTAB
  0
TABLE
  2
DIMSTYLE
  5
A
100
AcDbSymbolTable
 70
1
100
AcDbDimStyleTable
 71
0
  0
DIMSTYLE
105
251
100
AcDbSymbolTableRecord
100
AcDbDimStyleTableRecord
  2
STANDARD
 70
0
  3

  4

 40
1.0
 41
3.5
 42
0.0
 43
0.38
 44
1.5
 45
0.0
 46
0.0
 47
0.001
 48
0.001
140
3.5
141
0.09
142
0.0
143
25.4
144
1.0
145
0.0
146
1.0
147
0.625
 71
1.0
 72
0.0
 73
0
 74
0
 75
0
 76
0
 77
1
 78
8
 79
2
170
0
171
2
172
0
173
0
174
0
175
0
176
0
177
0
178
5
270
2
179
3
271
3
272
3
273
2
274
2
275
0
280
0
281
0
282
0
283
1
284
8
285
0
286
0
287
3
288
0
340
11
278
46
341
22E
342
22E
343
22E
344
22E
  0
DIMSTYLE
105
252
100
AcDbSymbolTableRecord
100
AcDbDimStyleTableRecord
  2
DIMSTYLE_1
 70
0
  3

  4

 40
1.0
 41
3.5
 42
0.0
 43
0.38
 44
1.5
 45
0.0
 46
0.0
 47
0.3
 48
0.3
140
4.0
141
0.09
142
0.0
143
25.4
144
1.0
145
0.0
146
1.0
147
1.0
 71
0.0
 72
0.0
 73
0
 74
0
 75
0
 76
0
 77
1
 78
8
 79
2
170
0
171
2
172
0
173
0
174
0
175
0
176
0
177
0
178
5
270
2
179
0
271
0
272
0
273
2
274
2
275
0
280
0
281
0
282
0
283
1
284
8
285
0
286
0
287
3
288
0
340
228
278
46
341
22E
342
22E
343
22E
344
22E
  0
DIMSTYLE
105
253
100
AcDbSymbolTableRecord
100
AcDbDimStyleTableRecord
  2
DIMSTYLE_2
 70
0
  3

  4

 40
1.0
 41
3.5
 42
0.0
 43
0.38
 44
1.5
 45
0.0
 46
0.0
 47
0.2
 48
0.2
140
4.0
141
0.09
142
0.0
143
25.4
144
1.0
145
0.0
146
1.0
147
1.0
 71
0.0
 72
0.0
 73
0
 74
0
 75
0
 76
0
 77
1
 78
8
 79
2
170
0
171
2
172
0
173
0
174
0
175
0
176
0
177
0
178
5
270
2
179
3
271
3
272
3
273
2
274
2
275
0
280
0
281
0
282
0
283
1
284
8
285
0
286
0
287
3
288
0
340
228
278
46
341
22E
342
22E
343
22E
344
22E
  0
DIMSTYLE
105
254
100
AcDbSymbolTableRecord
100
AcDbDimStyleTableRecord
  2
DIMSTYLE_3
 70
0
  3

  4

 40
1.0
 41
3.5
 42
0.0
 43
0.38
 44
1.5
 45
0.0
 46
0.0
 47
0.5
 48
0.5
140
4.0
141
0.09
142
0.0
143
25.4
144
1.0
145
0.0
146
1.0
147
1.0
 71
0.0
 72
0.0
 73
0
 74
0
 75
0
 76
0
 77
1
 78
8
 79
2
170
0
171
2
172
0
173
0
174
0
175
0
176
0
177
0
178
5
270
2
179
0
271
0
272
0
273
2
274
2
275
0
280
0
281
0
282
0
283
1
284
8
285
0
286
0
287
3
288
0
340
228
278
46
341
22E
342
22E
343
22E
344
22E
  0
DIMSTYLE
105
255
100
AcDbSymbolTableRecord
100
AcDbDimStyleTableRecord
  2
DIMSTYLE_4
 70
0
  3

  4

 40
1.0
 41
3.5
 42
0.0
 43
0.38
 44
1.5
 45
0.0
 46
0.0
 47
0.3
 48
0.3
140
4.0
141
0.09
142
0.0
143
25.4
144
1.0
145
0.0
146
1.0
147
1.0
 71
0.0
 72
0.0
 73
0
 74
0
 75
0
 76
0
 77
1
 78
8
 79
2
170
0
171
2
172
0
173
0
174
0
175
0
176
0
177
0
178
5
270
2
179
3
271
3
272
3
273
2
274
2
275
0
280
0
281
0
282
0
283
1
284
8
285
0
286
0
287
3
288
0
340
228
278
46
341
22E
342
22E
343
22E
344
22E
  0
DIMSTYLE
105
256
100
AcDbSymbolTableRecord
100
AcDbDimStyleTableRecord
  2
DIMSTYLE_5
 70
0
  3

  4

 40
1.0
 41
3.5
 42
0.0
 43
0.38
 44
1.5
 45
0.0
 46
0.0
 47
0.2
 48
0.2
140
4.0
141
0.09
142
0.0
143
25.4
144
0.5
145
0.0
146
1.0
147
1.0
 71
0.0
 72
0.0
 73
0
 74
0
 75
0
 76
0
 77
1
 78
8
 79
2
170
0
171
2
172
0
173
0
174
0
175
0
176
0
177
0
178
5
270
2
179
0
271
0
272
0
273
2
274
2
275
0
280
0
281
0
282
0
283
1
284
8
285
0
286
0
287
3
288
0
340
228
278
46
341
22E
342
22E
343
22E
344
22E
  0
DIMSTYLE
105
257
100
AcDbSymbolTableRecord
100
AcDbDimStyleTableRecord
  2
DIMSTYLE_6
 70
0
  3

  4

 40
1.0
 41
3.5
 42
0.0
 43
0.38
 44
1.5
 45
0.0
 46
0.0
 47
0.3
 48
0.3
140
4.0
141
0.09
142
0.0
143
25.4
144
0.5
145
0.0
146
1.0
147
1.0
 71
0.0
 72
0.0
 73
0
 74
0
 75
0
 76
0
 77
1
 78
8
 79
2
170
0
171
2
172
0
173
0
174
0
175
0
176
0
177
0
178
5
270
2
179
0
271
0
272
0
273
2
274
2
275
0
280
0
281
0
282
0
283
1
284
8
285
0
286
0
287
3
288
0
340
228
278
46
341
22E
342
22E
343
22E
344
22E
  0
DIMSTYLE
105
258
100
AcDbSymbolTableRecord
100
AcDbDimStyleTableRecord
  2
DIMSTYLE_7
 70
0
  3

  4

 40
1.0
 41
3.5
 42
0.0
 43
0.38
 44
1.5
 45
0.0
 46
0.0
 47
0.1
 48
0.1
140
4.0
141
0.09
142
0.0
143
25.4
144
0.5
145
0.0
146
1.0
147
1.0
 71
0.0
 72
0.0
 73
0
 74
0
 75
0
 76
0
 77
1
 78
8
 79
2
170
0
171
2
172
0
173
0
174
0
175
0
176
0
177
0
178
5
270
2
179
3
271
3
272
3
273
2
274
2
275
0
280
0
281
0
282
0
283
1
284
8
285
0
286
0
287
3
288
0
340
228
278
46
341
22E
342
22E
343
22E
344
22E
  0
DIMSTYLE
105
259
100
AcDbSymbolTableRecord
100
AcDbDimStyleTableRecord
  2
DIMSTYLE_8
 70
0
  3

  4

 40
1.0
 41
3.5
 42
0.0
 43
0.38
 44
1.5
 45
0.0
 46
0.0
 47
0.5
 48
0.5
140
4.0
141
0.09
142
0.0
143
25.4
144
1.0
145
0.0
146
1.0
147
2.0
 71
0.0
 72
0.0
 73
0
 74
0
 75
0
 76
0
 77
1
 78
8
 79
2
170
0
171
2
172
0
173
0
174
0
175
0
176
0
177
0
178
5
270
2
179
0
271
0
272
0
273
2
274
2
275
0
280
0
281
0
282
0
283
1
284
8
285
0
286
0
287
3
288
0
340
228
278
46
341
22E
342
22E
343
22E
344
22E
  0
ENDTAB
  0
ENDSEC
  0
SECTION
  2
BLOCKS
  0
BLOCK
  5
20
100
AcDbEntity
  8
0
100
AcDbBlockBegin
  2
*Model_Space
 70
0
 10
0.0
 20
0.0
 30
0.0
  3
*Model_Space
  1

  0
ENDBLK
  5
21
100
AcDbEntity
  8
0
100
AcDbBlockEnd
  0
BLOCK
  5
1C
100
AcDbEntity
  8
0
100
AcDbBlockBegin
  2
*Paper_Space
 70
0
 10
0.0
 20
0.0
 30
0.0
  3
*Paper_Space
  1

  0
ENDBLK
  5
1D
100
AcDbEntity
  8
0
100
AcDbBlockEnd
  0
BLOCK
  5
25A
100
AcDbEntity
  8
HATCHING_BL0
100
AcDbBlockBegin
  2
HATCHING_BL0
 70
64
 10
201.6321791637
 20
235.5366096213
  3
HATCHING_BL0
  1

  0
MTEXT
  5
25B
100
AcDbEntity
  8
HATCHING_BL0
100
AcDbMText
 62
7
  6
CONTINUOUS
  7
STANDARD
 71
1
 72
1
 10
210.4959706425
 20
270.8442113641
 30
0.0
 11
1.0
 21
0.0
 31
0.0
 73
2
 44
0.9
  1
A
 40
5.0
 41
6.970260223
  0
LEADER
  5
25C
100
AcDbEntity
  8
HATCHING_BL0
100
AcDbLeader
 62
7
  6
CONTINUOUS
  3
STANDARD
 71
1
 72
0
 73
3
 75
0
 76
2
 10
186.973413308
 20
268.1261281427
 30
0.0
 10
206.1330605754
 20
268.1261281427
 30
0.0
1001
ACAD
1000
DSTYLE
1002
{
1070
77
1070
0
1070
341
1005
22F
1070
41
1040
10.0
1002
}
  0
MTEXT
  5
25D
100
AcDbEntity
  8
HATCHING_BL0
100
AcDbMText
 62
7
  6
CONTINUOUS
  7
STANDARD
 71
1
 72
1
 10
211.6441048707
 20
205.2290078784
 30
0.0
 11
1.0
 21
0.0
 31
0.0
 73
2
 44
0.9
  1
A
 40
5.0
 41
6.970260223
  0
LEADER
  5
25E
100
AcDbEntity
  8
HATCHING_BL0
100
AcDbLeader
 62
7
  6
CONTINUOUS
  3
STANDARD
 71
1
 72
0
 73
3
 75
0
 76
2
 10
186.973413308
 20
202.7549031805
 30
0.0
 10
206.1330605754
 20
202.7549031805
 30
0.0
1001
ACAD
1000
DSTYLE
1002
{
1070
77
1070
0
1070
341
1005
22F
1070
41
1040
10.0
1002
}
  0
LINE
  5
25F
100
AcDbEntity
  8
HATCHING_BL0
100
AcDbLine
 62
7
  6
CENTER
 10
186.973413308
 20
268.1261281427
 11
186.973413308
 21
253.1261281427
  0
LINE
  5
260
100
AcDbEntity
  8
HATCHING_BL0
100
AcDbLine
 62
9
  6
CENTER
 10
186.973413308
 20
253.1261281427
 11
186.973413308
 21
217.7549031805
  0
LINE
  5
261
100
AcDbEntity
  8
HATCHING_BL0
100
AcDbLine
 62
7
  6
CENTER
 10
186.973413308
 20
217.7549031805
 11
186.973413308
 21
202.7549031805
  0
ENDBLK
  5
262
100
AcDbEntity
  8
0
  6
BYBLOCK
 62
0
100
AcDbBlockEnd
  0
BLOCK
  5
263
100
AcDbEntity
  8
Grp_symbol_75_BL1
100
AcDbBlockBegin
  2
GRP_SYMBOL_75_BL1
 70
64
 10
46.9666526624
 20
45.1364008621
  3
GRP_SYMBOL_75_BL1
  1

  0
LWPOLYLINE
  5
264
100
AcDbEntity
  8
Grp_symbol_75_BL1
100
AcDbPolyline
 62
2
  6
CONTINUOUS
 90
42
 70
0
 10
33.6061430555
 20
52.6294565666
 10
33.7386774282
 20
52.6364015673
 10
60.1946278967
 20
52.6364015673
 10
60.3271622694
 20
52.6294565666
 10
60.4582445678
 20
52.6086965647
 10
60.5864386268
 20
52.5743465614
 10
60.7103399254
 20
52.526781557
 10
60.8285909751
 20
52.4665265513
 10
60.9398961927
 20
52.3942415445
 10
61.0430360949
 20
52.3107215366
 10
61.1368806593
 20
52.2168815278
 10
61.2204017052
 20
52.1137415181
 10
61.2926841587
 20
52.0024415077
 10
61.352936078
 20
51.8841814965
 10
61.4004973304
 20
51.7602814849
 10
61.434846825
 20
51.6320914728
 10
61.4556082214
 20
51.5010064605
 10
61.4625540536
 20
51.3684664481
 10
40.6199582704
 20
50.4622403
 10
39.8026353042
 20
50.3122916451
 10
39.0169507792
 20
50.0417343364
 10
38.2805952911
 20
49.6566602847
 10
37.6101487353
 20
49.1657398778
 10
37.0207069915
 20
48.5800267562
 10
36.5255420223
 20
47.9127089283
 10
36.1358030396
 20
47.1788118269
 10
32.4707512713
 20
38.9043202761
 10
32.4707512713
 20
51.3684664481
 10
32.4776971035
 20
51.5010064605
 10
32.4984584999
 20
51.6320914728
 10
32.5328079945
 20
51.7602814849
 10
32.5803692469
 20
51.8841814965
 10
32.6406211662
 20
52.0024415077
 10
32.7129036197
 20
52.1137415181
 10
32.7964246656
 20
52.2168815278
 10
32.89026923
 20
52.3107215366
 10
32.9934091322
 20
52.3942415445
 10
33.1047143497
 20
52.4665265513
 10
33.2229653995
 20
52.526781557
 10
33.3468666981
 20
52.5743465614
 10
33.4750607571
 20
52.6086965647
 10
33.6061430555
 20
52.6294565666
  0
HATCH
  5
265
100
AcDbEntity
  8
Grp_symbol_75_BL1
100
AcDbHatch
 62
2
  6
CONTINUOUS
 10
0.0
 20
0.0
 30
0.0
210
0.0
220
0.0
230
1.0
  2
SOLID
 70
1
 71
1
 91
1
 92
1
 93
41
 72
1
 10
33.6061430555
 20
52.6294565666
 11
33.7386774282
 21
52.6364015673
 72
1
 10
33.7386774282
 20
52.6364015673
 11
60.1946278967
 21
52.6364015673
 72
1
 10
60.1946278967
 20
52.6364015673
 11
60.3271622694
 21
52.6294565666
 72
1
 10
60.3271622694
 20
52.6294565666
 11
60.4582445678
 21
52.6086965647
 72
1
 10
60.4582445678
 20
52.6086965647
 11
60.5864386268
 21
52.5743465614
 72
1
 10
60.5864386268
 20
52.5743465614
 11
60.7103399254
 21
52.526781557
 72
1
 10
60.7103399254
 20
52.526781557
 11
60.8285909751
 21
52.4665265513
 72
1
 10
60.8285909751
 20
52.4665265513
 11
60.9398961927
 21
52.3942415445
 72
1
 10
60.9398961927
 20
52.3942415445
 11
61.0430360949
 21
52.3107215366
 72
1
 10
61.0430360949
 20
52.3107215366
 11
61.1368806593
 21
52.2168815278
 72
1
 10
61.1368806593
 20
52.2168815278
 11
61.2204017052
 21
52.1137415181
 72
1
 10
61.2204017052
 20
52.1137415181
 11
61.2926841587
 21
52.0024415077
 72
1
 10
61.2926841587
 20
52.0024415077
 11
61.352936078
 21
51.8841814965
 72
1
 10
61.352936078
 20
51.8841814965
 11
61.4004973304
 21
51.7602814849
 72
1
 10
61.4004973304
 20
51.7602814849
 11
61.434846825
 21
51.6320914728
 72
1
 10
61.434846825
 20
51.6320914728
 11
61.4556082214
 21
51.5010064605
 72
1
 10
61.4556082214
 20
51.5010064605
 11
61.4625540536
 21
51.3684664481
 72
1
 10
61.4625540536
 20
51.3684664481
 11
40.6199582704
 21
50.4622403
 72
1
 10
40.6199582704
 20
50.4622403
 11
39.8026353042
 21
50.3122916451
 72
1
 10
39.8026353042
 20
50.3122916451
 11
39.0169507792
 21
50.0417343364
 72
1
 10
39.0169507792
 20
50.0417343364
 11
38.2805952911
 21
49.6566602847
 72
1
 10
38.2805952911
 20
49.6566602847
 11
37.6101487353
 21
49.1657398778
 72
1
 10
37.6101487353
 20
49.1657398778
 11
37.0207069915
 21
48.5800267562
 72
1
 10
37.0207069915
 20
48.5800267562
 11
36.5255420223
 21
47.9127089283
 72
1
 10
36.5255420223
 20
47.9127089283
 11
36.1358030396
 21
47.1788118269
 72
1
 10
36.1358030396
 20
47.1788118269
 11
32.4707512713
 21
38.9043202761
 72
1
 10
32.4707512713
 20
38.9043202761
 11
32.4707512713
 21
51.3684664481
 72
1
 10
32.4707512713
 20
51.3684664481
 11
32.4776971035
 21
51.5010064605
 72
1
 10
32.4776971035
 20
51.5010064605
 11
32.4984584999
 21
51.6320914728
 72
1
 10
32.4984584999
 20
51.6320914728
 11
32.5328079945
 21
51.7602814849
 72
1
 10
32.5328079945
 20
51.7602814849
 11
32.5803692469
 21
51.8841814965
 72
1
 10
32.5803692469
 20
51.8841814965
 11
32.6406211662
 21
52.0024415077
 72
1
 10
32.6406211662
 20
52.0024415077
 11
32.7129036197
 21
52.1137415181
 72
1
 10
32.7129036197
 20
52.1137415181
 11
32.7964246656
 21
52.2168815278
 72
1
 10
32.7964246656
 20
52.2168815278
 11
32.89026923
 21
52.3107215366
 72
1
 10
32.89026923
 20
52.3107215366
 11
32.9934091322
 21
52.3942415445
 72
1
 10
32.9934091322
 20
52.3942415445
 11
33.1047143497
 21
52.4665265513
 72
1
 10
33.1047143497
 20
52.4665265513
 11
33.2229653995
 21
52.526781557
 72
1
 10
33.2229653995
 20
52.526781557
 11
33.3468666981
 21
52.5743465614
 72
1
 10
33.3468666981
 20
52.5743465614
 11
33.4750607571
 21
52.6086965647
 72
1
 10
33.4750607571
 20
52.6086965647
 11
33.6061430555
 21
52.6294565666
 97
1
330
264
 75
0
 76
1
 98
1
 10
0.0
 20
0.0
  0
LWPOLYLINE
  5
266
100
AcDbEntity
  8
Grp_symbol_75_BL1
100
AcDbPolyline
 62
2
  6
CONTINUOUS
 90
23
 70
0
 10
43.0766591117
 20
50.1686431513
 10
42.2756096267
 20
50.3895982432
 10
61.4625540536
 20
51.3684664481
 10
61.4625540535
 20
38.9043202761
 10
56.2495610192
 20
41.3268355039
 10
56.4752854343
 20
41.7845605469
 10
56.6393337966
 20
42.2678305924
 10
56.7388991931
 20
42.7683806394
 10
56.7722780323
 20
43.2776456873
 10
56.7722780323
 20
50.1998613382
 10
54.0453442839
 20
50.1998613382
 10
51.6959859775
 20
50.1998613382
 10
48.9690522291
 20
50.1998613382
 10
48.9690522291
 20
46.0570109487
 10
47.1245948734
 20
46.0570109487
 10
46.7386307207
 20
45.2325448539
 10
46.6349474023
 20
46.0570109487
 10
43.5038439488
 20
46.5771432553
 10
45.6961824605
 20
48.1993884172
 10
45.1603035741
 20
48.8344752218
 10
44.5354290314
 20
49.3822281186
 10
43.8356286053
 20
49.8303138177
 10
43.0766591117
 20
50.1686431513
  0
HATCH
  5
267
100
AcDbEntity
  8
Grp_symbol_75_BL1
100
AcDbHatch
 62
2
  6
CONTINUOUS
 10
0.0
 20
0.0
 30
0.0
210
0.0
220
0.0
230
1.0
  2
SOLID
 70
1
 71
1
 91
1
 92
1
 93
22
 72
1
 10
43.0766591117
 20
50.1686431513
 11
42.2756096267
 21
50.3895982432
 72
1
 10
42.2756096267
 20
50.3895982432
 11
61.4625540536
 21
51.3684664481
 72
1
 10
61.4625540536
 20
51.3684664481
 11
61.4625540535
 21
38.9043202761
 72
1
 10
61.4625540535
 20
38.9043202761
 11
56.2495610192
 21
41.3268355039
 72
1
 10
56.2495610192
 20
41.3268355039
 11
56.4752854343
 21
41.7845605469
 72
1
 10
56.4752854343
 20
41.7845605469
 11
56.6393337966
 21
42.2678305924
 72
1
 10
56.6393337966
 20
42.2678305924
 11
56.7388991931
 21
42.7683806394
 72
1
 10
56.7388991931
 20
42.7683806394
 11
56.7722780323
 21
43.2776456873
 72
1
 10
56.7722780323
 20
43.2776456873
 11
56.7722780323
 21
50.1998613382
 72
1
 10
56.7722780323
 20
50.1998613382
 11
54.0453442839
 21
50.1998613382
 72
1
 10
54.0453442839
 20
50.1998613382
 11
51.6959859775
 21
50.1998613382
 72
1
 10
51.6959859775
 20
50.1998613382
 11
48.9690522291
 21
50.1998613382
 72
1
 10
48.9690522291
 20
50.1998613382
 11
48.9690522291
 21
46.0570109487
 72
1
 10
48.9690522291
 20
46.0570109487
 11
47.1245948734
 21
46.0570109487
 72
1
 10
47.1245948734
 20
46.0570109487
 11
46.7386307207
 21
45.2325448539
 72
1
 10
46.7386307207
 20
45.2325448539
 11
46.6349474023
 21
46.0570109487
 72
1
 10
46.6349474023
 20
46.0570109487
 11
43.5038439488
 21
46.5771432553
 72
1
 10
43.5038439488
 20
46.5771432553
 11
45.6961824605
 21
48.1993884172
 72
1
 10
45.6961824605
 20
48.1993884172
 11
45.1603035741
 21
48.8344752218
 72
1
 10
45.1603035741
 20
48.8344752218
 11
44.5354290314
 21
49.3822281186
 72
1
 10
44.5354290314
 20
49.3822281186
 11
43.8356286053
 21
49.8303138177
 72
1
 10
43.8356286053
 20
49.8303138177
 11
43.0766591117
 21
50.1686431513
 97
1
330
266
 75
0
 76
1
 98
1
 10
0.0
 20
0.0
  0
LWPOLYLINE
  5
268
100
AcDbEntity
  8
Grp_symbol_75_BL1
100
AcDbPolyline
 62
2
  6
CONTINUOUS
 90
20
 70
0
 10
40.6102335905
 20
47.702343529
 10
41.0169302119
 20
47.7601062306
 10
41.4277028178
 20
47.7579760501
 10
41.8337784912
 20
47.6959984818
 10
42.2264846277
 20
47.5754971878
 10
42.5974341577
 20
47.3990457278
 10
42.9387046698
 20
47.1704125958
 10
43.243007611
 20
46.8944807356
 10
43.5038439488
 20
46.5771432553
 10
46.6349474023
 20
46.0570109487
 10
41.31266132
 20
46.0570109487
 10
41.1689178229
 20
46.0475936613
 10
38.5510546932
 20
45.8737037053
 10
38.713215996
 20
46.2511191043
 10
38.9286539699
 20
46.6008692306
 10
39.1927674817
 20
46.9154844312
 10
39.499915829
 20
47.1882454333
 10
39.8435392096
 20
47.4133268492
 10
40.2162988199
 20
47.5859215896
 10
40.6102335905
 20
47.702343529
  0
HATCH
  5
269
100
AcDbEntity
  8
Grp_symbol_75_BL1
100
AcDbHatch
 62
2
  6
CONTINUOUS
 10
0.0
 20
0.0
 30
0.0
210
0.0
220
0.0
230
1.0
  2
SOLID
 70
1
 71
1
 91
1
 92
1
 93
19
 72
1
 10
40.6102335905
 20
47.702343529
 11
41.0169302119
 21
47.7601062306
 72
1
 10
41.0169302119
 20
47.7601062306
 11
41.4277028178
 21
47.7579760501
 72
1
 10
41.4277028178
 20
47.7579760501
 11
41.8337784912
 21
47.6959984818
 72
1
 10
41.8337784912
 20
47.6959984818
 11
42.2264846277
 21
47.5754971878
 72
1
 10
42.2264846277
 20
47.5754971878
 11
42.5974341577
 21
47.3990457278
 72
1
 10
42.5974341577
 20
47.3990457278
 11
42.9387046698
 21
47.1704125958
 72
1
 10
42.9387046698
 20
47.1704125958
 11
43.243007611
 21
46.8944807356
 72
1
 10
43.243007611
 20
46.8944807356
 11
43.5038439488
 21
46.5771432553
 72
1
 10
43.5038439488
 20
46.5771432553
 11
46.6349474023
 21
46.0570109487
 72
1
 10
46.6349474023
 20
46.0570109487
 11
41.31266132
 21
46.0570109487
 72
1
 10
41.31266132
 20
46.0570109487
 11
41.1689178229
 21
46.0475936613
 72
1
 10
41.1689178229
 20
46.0475936613
 11
38.5510546932
 21
45.8737037053
 72
1
 10
38.5510546932
 20
45.8737037053
 11
38.713215996
 21
46.2511191043
 72
1
 10
38.713215996
 20
46.2511191043
 11
38.9286539699
 21
46.6008692306
 72
1
 10
38.9286539699
 20
46.6008692306
 11
39.1927674817
 21
46.9154844312
 72
1
 10
39.1927674817
 20
46.9154844312
 11
39.499915829
 21
47.1882454333
 72
1
 10
39.499915829
 20
47.1882454333
 11
39.8435392096
 21
47.4133268492
 72
1
 10
39.8435392096
 20
47.4133268492
 11
40.2162988199
 21
47.5859215896
 72
1
 10
40.2162988199
 20
47.5859215896
 11
40.6102335905
 21
47.702343529
 97
1
330
268
 75
0
 76
1
 98
1
 10
0.0
 20
0.0
  0
LWPOLYLINE
  5
26A
100
AcDbEntity
  8
Grp_symbol_75_BL1
100
AcDbPolyline
 62
2
  6
CONTINUOUS
 90
8
 70
0
 10
40.762030467
 20
45.9094740154
 10
40.6422556701
 20
45.8294430548
 10
38.4456333589
 20
45.4766835374
 10
38.5510546932
 20
45.8737037053
 10
41.1689178229
 20
46.0475936613
 10
41.0276338169
 20
46.0194905252
 10
40.8912267104
 20
45.9731865519
 10
40.762030467
 20
45.9094740154
  0
HATCH
  5
26B
100
AcDbEntity
  8
Grp_symbol_75_BL1
100
AcDbHatch
 62
2
  6
CONTINUOUS
 10
0.0
 20
0.0
 30
0.0
210
0.0
220
0.0
230
1.0
  2
SOLID
 70
1
 71
1
 91
1
 92
1
 93
7
 72
1
 10
40.762030467
 20
45.9094740154
 11
40.6422556701
 21
45.8294430548
 72
1
 10
40.6422556701
 20
45.8294430548
 11
38.4456333589
 21
45.4766835374
 72
1
 10
38.4456333589
 20
45.4766835374
 11
38.5510546932
 21
45.8737037053
 72
1
 10
38.5510546932
 20
45.8737037053
 11
41.1689178229
 21
46.0475936613
 72
1
 10
41.1689178229
 20
46.0475936613
 11
41.0276338169
 21
46.0194905252
 72
1
 10
41.0276338169
 20
46.0194905252
 11
40.8912267104
 21
45.9731865519
 72
1
 10
40.8912267104
 20
45.9731865519
 11
40.762030467
 21
45.9094740154
 97
1
330
26A
 75
0
 76
1
 98
1
 10
0.0
 20
0.0
  0
LWPOLYLINE
  5
26C
100
AcDbEntity
  8
Grp_symbol_75_BL1
100
AcDbPolyline
 62
2
  6
CONTINUOUS
 90
8
 70
0
 10
40.3589407064
 20
45.5063842548
 10
40.2952281699
 20
45.3771880114
 10
38.3992034885
 20
45.0685378052
 10
38.4456333589
 20
45.4766835374
 10
40.6422556701
 20
45.8294430548
 10
40.5339516998
 20
45.734463022
 10
40.438971667
 20
45.6261590517
 10
40.3589407064
 20
45.5063842548
  0
HATCH
  5
26D
100
AcDbEntity
  8
Grp_symbol_75_BL1
100
AcDbHatch
 62
2
  6
CONTINUOUS
 10
0.0
 20
0.0
 30
0.0
210
0.0
220
0.0
230
1.0
  2
SOLID
 70
1
 71
1
 91
1
 92
1
 93
7
 72
1
 10
40.3589407064
 20
45.5063842548
 11
40.2952281699
 21
45.3771880114
 72
1
 10
40.2952281699
 20
45.3771880114
 11
38.3992034885
 21
45.0685378052
 72
1
 10
38.3992034885
 20
45.0685378052
 11
38.4456333589
 21
45.4766835374
 72
1
 10
38.4456333589
 20
45.4766835374
 11
40.6422556701
 21
45.8294430548
 72
1
 10
40.6422556701
 20
45.8294430548
 11
40.5339516998
 21
45.734463022
 72
1
 10
40.5339516998
 20
45.734463022
 11
40.438971667
 21
45.6261590517
 72
1
 10
40.438971667
 20
45.6261590517
 11
40.3589407064
 21
45.5063842548
 97
1
330
26C
 75
0
 76
1
 98
1
 10
0.0
 20
0.0
  0
LWPOLYLINE
  5
26E
100
AcDbEntity
  8
Grp_symbol_75_BL1
100
AcDbPolyline
 62
2
  6
CONTINUOUS
 90
7
 70
0
 10
47.2089699316
 20
45.4299830195
 10
47.2258933497
 20
45.1139808878
 10
46.7177805216
 20
44.4018423203
 10
46.7386307207
 20
45.2325448539
 10
47.1245948734
 20
46.0570109487
 10
47.1751715297
 20
45.7446279263
 10
47.2089699316
 20
45.4299830195
  0
HATCH
  5
26F
100
AcDbEntity
  8
Grp_symbol_75_BL1
100
AcDbHatch
 62
2
  6
CONTINUOUS
 10
0.0
 20
0.0
 30
0.0
210
0.0
220
0.0
230
1.0
  2
SOLID
 70
1
 71
1
 91
1
 92
1
 93
6
 72
1
 10
47.2089699316
 20
45.4299830195
 11
47.2258933497
 21
45.1139808878
 72
1
 10
47.2258933497
 20
45.1139808878
 11
46.7177805216
 21
44.4018423203
 72
1
 10
46.7177805216
 20
44.4018423203
 11
46.7386307207
 21
45.2325448539
 72
1
 10
46.7386307207
 20
45.2325448539
 11
47.1245948734
 21
46.0570109487
 72
1
 10
47.1245948734
 20
46.0570109487
 11
47.1751715297
 21
45.7446279263
 72
1
 10
47.1751715297
 20
45.7446279263
 11
47.2089699316
 21
45.4299830195
 97
1
330
26E
 75
0
 76
1
 98
1
 10
0.0
 20
0.0
  0
LWPOLYLINE
  5
270
100
AcDbEntity
  8
Grp_symbol_75_BL1
100
AcDbPolyline
 62
2
  6
CONTINUOUS
 90
7
 70
0
 10
40.2208210605
 20
45.0994968989
 10
40.211399614
 20
44.9557534018
 10
38.4127566901
 20
44.6579833238
 10
38.3992034885
 20
45.0685378052
 10
40.2952281699
 20
45.3771880114
 10
40.2489241966
 20
45.2407809049
 10
40.2208210605
 20
45.0994968989
  0
HATCH
  5
271
100
AcDbEntity
  8
Grp_symbol_75_BL1
100
AcDbHatch
 62
2
  6
CONTINUOUS
 10
0.0
 20
0.0
 30
0.0
210
0.0
220
0.0
230
1.0
  2
SOLID
 70
1
 71
1
 91
1
 92
1
 93
6
 72
1
 10
40.2208210605
 20
45.0994968989
 11
40.211399614
 21
44.9557534018
 72
1
 10
40.211399614
 20
44.9557534018
 11
38.4127566901
 21
44.6579833238
 72
1
 10
38.4127566901
 20
44.6579833238
 11
38.3992034885
 21
45.0685378052
 72
1
 10
38.3992034885
 20
45.0685378052
 11
40.2952281699
 21
45.3771880114
 72
1
 10
40.2952281699
 20
45.3771880114
 11
40.2489241966
 21
45.2407809049
 72
1
 10
40.2489241966
 20
45.2407809049
 11
40.2208210605
 21
45.0994968989
 97
1
330
270
 75
0
 76
1
 98
1
 10
0.0
 20
0.0
  0
LWPOLYLINE
  5
272
100
AcDbEntity
  8
Grp_symbol_75_BL1
100
AcDbPolyline
 62
2
  6
CONTINUOUS
 90
7
 70
0
 10
40.2489241966
 20
44.6707258986
 10
40.2952281699
 20
44.5343187921
 10
38.4860035063
 20
44.2537883518
 10
38.4127566901
 20
44.6579833238
 10
40.211399614
 20
44.9557534018
 10
40.2208210605
 20
44.8120099046
 10
40.2489241966
 20
44.6707258986
  0
HATCH
  5
273
100
AcDbEntity
  8
Grp_symbol_75_BL1
100
AcDbHatch
 62
2
  6
CONTINUOUS
 10
0.0
 20
0.0
 30
0.0
210
0.0
220
0.0
230
1.0
  2
SOLID
 70
1
 71
1
 91
1
 92
1
 93
6
 72
1
 10
40.2489241966
 20
44.6707258986
 11
40.2952281699
 21
44.5343187921
 72
1
 10
40.2952281699
 20
44.5343187921
 11
38.4860035063
 21
44.2537883518
 72
1
 10
38.4860035063
 20
44.2537883518
 11
38.4127566901
 21
44.6579833238
 72
1
 10
38.4127566901
 20
44.6579833238
 11
40.211399614
 21
44.9557534018
 72
1
 10
40.211399614
 20
44.9557534018
 11
40.2208210605
 21
44.8120099046
 72
1
 10
40.2208210605
 20
44.8120099046
 11
40.2489241966
 21
44.6707258986
 97
1
330
272
 75
0
 76
1
 98
1
 10
0.0
 20
0.0
  0
LWPOLYLINE
  5
274
100
AcDbEntity
  8
Grp_symbol_75_BL1
100
AcDbPolyline
 62
2
  6
CONTINUOUS
 90
7
 70
0
 10
47.2089699316
 20
44.481523784
 10
47.1751715297
 20
44.1668788772
 10
46.5728662712
 20
43.5836117354
 10
46.7177805216
 20
44.4018423203
 10
47.2258933497
 20
45.1139808878
 10
47.2258933497
 20
44.7975259157
 10
47.2089699316
 20
44.481523784
  0
HATCH
  5
275
100
AcDbEntity
  8
Grp_symbol_75_BL1
100
AcDbHatch
 62
2
  6
CONTINUOUS
 10
0.0
 20
0.0
 30
0.0
210
0.0
220
0.0
230
1.0
  2
SOLID
 70
1
 71
1
 91
1
 92
1
 93
6
 72
1
 10
47.2089699316
 20
44.481523784
 11
47.1751715297
 21
44.1668788772
 72
1
 10
47.1751715297
 20
44.1668788772
 11
46.5728662712
 21
43.5836117354
 72
1
 10
46.5728662712
 20
43.5836117354
 11
46.7177805216
 21
44.4018423203
 72
1
 10
46.7177805216
 20
44.4018423203
 11
47.2258933497
 21
45.1139808878
 72
1
 10
47.2258933497
 20
45.1139808878
 11
47.2258933497
 21
44.7975259157
 72
1
 10
47.2258933497
 20
44.7975259157
 11
47.2089699316
 21
44.481523784
 97
1
330
274
 75
0
 76
1
 98
1
 10
0.0
 20
0.0
  0
LWPOLYLINE
  5
276
100
AcDbEntity
  8
Grp_symbol_75_BL1
100
AcDbPolyline
 62
2
  6
CONTINUOUS
 90
7
 70
0
 10
40.438971667
 20
44.2853477519
 10
40.5339516998
 20
44.1770437815
 10
38.6173795967
 20
43.8645853272
 10
38.4860035063
 20
44.2537883518
 10
40.2952281699
 20
44.5343187921
 10
40.3589407064
 20
44.4051225487
 10
40.438971667
 20
44.2853477519
  0
HATCH
  5
277
100
AcDbEntity
  8
Grp_symbol_75_BL1
100
AcDbHatch
 62
2
  6
CONTINUOUS
 10
0.0
 20
0.0
 30
0.0
210
0.0
220
0.0
230
1.0
  2
SOLID
 70
1
 71
1
 91
1
 92
1
 93
6
 72
1
 10
40.438971667
 20
44.2853477519
 11
40.5339516998
 21
44.1770437815
 72
1
 10
40.5339516998
 20
44.1770437815
 11
38.6173795967
 21
43.8645853272
 72
1
 10
38.6173795967
 20
43.8645853272
 11
38.4860035063
 21
44.2537883518
 72
1
 10
38.4860035063
 20
44.2537883518
 11
40.2952281699
 21
44.5343187921
 72
1
 10
40.2952281699
 20
44.5343187921
 11
40.3589407064
 21
44.4051225487
 72
1
 10
40.3589407064
 20
44.4051225487
 11
40.438971667
 21
44.2853477519
 97
1
330
276
 75
0
 76
1
 98
1
 10
0.0
 20
0.0
  0
LWPOLYLINE
  5
278
100
AcDbEntity
  8
Grp_symbol_75_BL1
100
AcDbPolyline
 62
2
  6
CONTINUOUS
 90
9
 70
0
 10
41.0276338169
 20
43.8920162784
 10
41.1689178229
 20
43.8639131422
 10
38.8040791471
 20
43.4986865032
 10
38.6173795967
 20
43.8645853272
 10
40.5339516998
 20
44.1770437815
 10
40.6422556701
 20
44.0820637487
 10
40.762030467
 20
44.0020327881
 10
40.8912267104
 20
43.9383202516
 10
41.0276338169
 20
43.8920162784
  0
HATCH
  5
279
100
AcDbEntity
  8
Grp_symbol_75_BL1
100
AcDbHatch
 62
2
  6
CONTINUOUS
 10
0.0
 20
0.0
 30
0.0
210
0.0
220
0.0
230
1.0
  2
SOLID
 70
1
 71
1
 91
1
 92
1
 93
8
 72
1
 10
41.0276338169
 20
43.8920162784
 11
41.1689178229
 21
43.8639131422
 72
1
 10
41.1689178229
 20
43.8639131422
 11
38.8040791471
 21
43.4986865032
 72
1
 10
38.8040791471
 20
43.4986865032
 11
38.6173795967
 21
43.8645853272
 72
1
 10
38.6173795967
 20
43.8645853272
 11
40.5339516998
 21
44.1770437815
 72
1
 10
40.5339516998
 20
44.1770437815
 11
40.6422556701
 21
44.0820637487
 72
1
 10
40.6422556701
 20
44.0820637487
 11
40.762030467
 21
44.0020327881
 72
1
 10
40.762030467
 20
44.0020327881
 11
40.8912267104
 21
43.9383202516
 72
1
 10
40.8912267104
 20
43.9383202516
 11
41.0276338169
 21
43.8920162784
 97
1
330
278
 75
0
 76
1
 98
1
 10
0.0
 20
0.0
  0
LWPOLYLINE
  5
27A
100
AcDbEntity
  8
Grp_symbol_75_BL1
100
AcDbPolyline
 62
2
  6
CONTINUOUS
 90
9
 70
0
 10
48.9690522291
 20
43.8544857416
 10
48.9690522291
 20
43.2776456873
 10
49.0024310683
 20
42.7683806394
 10
45.9266172421
 20
42.0575643985
 10
46.3071508816
 20
42.796276507
 10
46.5728662712
 20
43.5836117354
 10
47.1751715297
 20
44.1668788772
 10
47.1245948734
 20
43.8544857416
 10
48.9690522291
 20
43.8544857416
  0
HATCH
  5
27B
100
AcDbEntity
  8
Grp_symbol_75_BL1
100
AcDbHatch
 62
2
  6
CONTINUOUS
 10
0.0
 20
0.0
 30
0.0
210
0.0
220
0.0
230
1.0
  2
SOLID
 70
1
 71
1
 91
1
 92
1
 93
8
 72
1
 10
48.9690522291
 20
43.8544857416
 11
48.9690522291
 21
43.2776456873
 72
1
 10
48.9690522291
 20
43.2776456873
 11
49.0024310683
 21
42.7683806394
 72
1
 10
49.0024310683
 20
42.7683806394
 11
45.9266172421
 21
42.0575643985
 72
1
 10
45.9266172421
 20
42.0575643985
 11
46.3071508816
 21
42.796276507
 72
1
 10
46.3071508816
 20
42.796276507
 11
46.5728662712
 21
43.5836117354
 72
1
 10
46.5728662712
 20
43.5836117354
 11
47.1751715297
 21
44.1668788772
 72
1
 10
47.1751715297
 20
44.1668788772
 11
47.1245948734
 21
43.8544857416
 72
1
 10
47.1245948734
 20
43.8544857416
 11
48.9690522291
 21
43.8544857416
 97
1
330
27A
 75
0
 76
1
 98
1
 10
0.0
 20
0.0
  0
LWPOLYLINE
  5
27C
100
AcDbEntity
  8
Grp_symbol_75_BL1
100
AcDbPolyline
 62
2
  6
CONTINUOUS
 90
19
 70
0
 10
43.7939039211
 20
43.8544857416
 10
43.6057788739
 20
43.4893237368
 10
43.3664394762
 20
43.1554744831
 10
43.0809973267
 20
42.860073991
 10
42.7555486458
 20
42.6094311623
 10
42.3970440779
 20
42.4088990045
 10
42.0131402459
 20
42.2627603056
 10
41.6120362277
 20
42.1741361665
 10
41.2022984472
 20
42.144919343
 10
40.792677721
 20
42.1757338221
 10
40.3919223653
 20
42.2659214954
 10
40.008591358
 20
42.4135562146
 10
39.6508715429
 20
42.6154849282
 10
39.3264027828
 20
42.8673950217
 10
39.0421147939
 20
43.1639064226
 10
38.8040791471
 20
43.4986865032
 10
41.1689178229
 20
43.8639131422
 10
41.31266132
 20
43.8544857416
 10
43.7939039211
 20
43.8544857416
  0
HATCH
  5
27D
100
AcDbEntity
  8
Grp_symbol_75_BL1
100
AcDbHatch
 62
2
  6
CONTINUOUS
 10
0.0
 20
0.0
 30
0.0
210
0.0
220
0.0
230
1.0
  2
SOLID
 70
1
 71
1
 91
1
 92
1
 93
18
 72
1
 10
43.7939039211
 20
43.8544857416
 11
43.6057788739
 21
43.4893237368
 72
1
 10
43.6057788739
 20
43.4893237368
 11
43.3664394762
 21
43.1554744831
 72
1
 10
43.3664394762
 20
43.1554744831
 11
43.0809973267
 21
42.860073991
 72
1
 10
43.0809973267
 20
42.860073991
 11
42.7555486458
 21
42.6094311623
 72
1
 10
42.7555486458
 20
42.6094311623
 11
42.3970440779
 21
42.4088990045
 72
1
 10
42.3970440779
 20
42.4088990045
 11
42.0131402459
 21
42.2627603056
 72
1
 10
42.0131402459
 20
42.2627603056
 11
41.6120362277
 21
42.1741361665
 72
1
 10
41.6120362277
 20
42.1741361665
 11
41.2022984472
 21
42.144919343
 72
1
 10
41.2022984472
 20
42.144919343
 11
40.792677721
 21
42.1757338221
 72
1
 10
40.792677721
 20
42.1757338221
 11
40.3919223653
 21
42.2659214954
 72
1
 10
40.3919223653
 20
42.2659214954
 11
40.008591358
 21
42.4135562146
 72
1
 10
40.008591358
 20
42.4135562146
 11
39.6508715429
 21
42.6154849282
 72
1
 10
39.6508715429
 20
42.6154849282
 11
39.3264027828
 21
42.8673950217
 72
1
 10
39.3264027828
 20
42.8673950217
 11
39.0421147939
 21
43.1639064226
 72
1
 10
39.0421147939
 20
43.1639064226
 11
38.8040791471
 21
43.4986865032
 72
1
 10
38.8040791471
 20
43.4986865032
 11
41.1689178229
 21
43.8639131422
 72
1
 10
41.1689178229
 20
43.8639131422
 11
41.31266132
 21
43.8544857416
 72
1
 10
41.31266132
 20
43.8544857416
 11
43.7939039211
 21
43.8544857416
 97
1
330
27C
 75
0
 76
1
 98
1
 10
0.0
 20
0.0
  0
LWPOLYLINE
  5
27E
100
AcDbEntity
  8
Grp_symbol_75_BL1
100
AcDbPolyline
 62
2
  6
CONTINUOUS
 90
28
 70
0
 10
51.6959859775
 20
43.2776456873
 10
51.6959859775
 20
50.1998613382
 10
54.0453442839
 20
50.1998613382
 10
54.0453442839
 20
43.2776456873
 10
54.0352947409
 20
43.1243156729
 10
54.0053180623
 20
42.9736106587
 10
53.9559271576
 20
42.8281106451
 10
53.8879671186
 20
42.6903056321
 10
53.8026007606
 20
42.5625356201
 10
53.7012887256
 20
42.4470206092
 10
53.5857644906
 20
42.3457105997
 10
53.4580047073
 20
42.2603455917
 10
53.3201953809
 20
42.1923805853
 10
53.1746944674
 20
42.1429855806
 10
53.0239915276
 20
42.1130155778
 10
52.8706651307
 20
42.1029611726
 10
52.7173387337
 20
42.1130155778
 10
52.566635794
 20
42.1429855806
 10
52.4211348804
 20
42.1923805853
 10
52.2833255541
 20
42.2603455917
 10
52.1555657708
 20
42.3457105997
 10
52.0400415358
 20
42.4470206092
 10
51.9387295008
 20
42.5625356201
 10
51.8533631428
 20
42.6903056321
 10
51.7854031038
 20
42.8281106451
 10
51.736012199
 20
42.9736106587
 10
51.7060355205
 20
43.1243156729
 10
51.6959859775
 20
43.2776456873
  0
HATCH
  5
27F
100
AcDbEntity
  8
Grp_symbol_75_BL1
100
AcDbHatch
 62
2
  6
CONTINUOUS
 10
0.0
 20
0.0
 30
0.0
210
0.0
220
0.0
230
1.0
  2
SOLID
 70
1
 71
1
 91
1
 92
1
 93
27
 72
1
 10
51.6959859775
 20
43.2776456873
 11
51.6959859775
 21
50.1998613382
 72
1
 10
51.6959859775
 20
50.1998613382
 11
54.0453442839
 21
50.1998613382
 72
1
 10
54.0453442839
 20
50.1998613382
 11
54.0453442839
 21
43.2776456873
 72
1
 10
54.0453442839
 20
43.2776456873
 11
54.0352947409
 21
43.1243156729
 72
1
 10
54.0352947409
 20
43.1243156729
 11
54.0053180623
 21
42.9736106587
 72
1
 10
54.0053180623
 20
42.9736106587
 11
53.9559271576
 21
42.8281106451
 72
1
 10
53.9559271576
 20
42.8281106451
 11
53.8879671186
 21
42.6903056321
 72
1
 10
53.8879671186
 20
42.6903056321
 11
53.8026007606
 21
42.5625356201
 72
1
 10
53.8026007606
 20
42.5625356201
 11
53.7012887256
 21
42.4470206092
 72
1
 10
53.7012887256
 20
42.4470206092
 11
53.5857644906
 21
42.3457105997
 72
1
 10
53.5857644906
 20
42.3457105997
 11
53.4580047073
 21
42.2603455917
 72
1
 10
53.4580047073
 20
42.2603455917
 11
53.3201953809
 21
42.1923805853
 72
1
 10
53.3201953809
 20
42.1923805853
 11
53.1746944674
 21
42.1429855806
 72
1
 10
53.1746944674
 20
42.1429855806
 11
53.0239915276
 21
42.1130155778
 72
1
 10
53.0239915276
 20
42.1130155778
 11
52.8706651307
 21
42.1029611726
 72
1
 10
52.8706651307
 20
42.1029611726
 11
52.7173387337
 21
42.1130155778
 72
1
 10
52.7173387337
 20
42.1130155778
 11
52.566635794
 21
42.1429855806
 72
1
 10
52.566635794
 20
42.1429855806
 11
52.4211348804
 21
42.1923805853
 72
1
 10
52.4211348804
 20
42.1923805853
 11
52.2833255541
 21
42.2603455917
 72
1
 10
52.2833255541
 20
42.2603455917
 11
52.1555657708
 21
42.3457105997
 72
1
 10
52.1555657708
 20
42.3457105997
 11
52.0400415358
 21
42.4470206092
 72
1
 10
52.0400415358
 20
42.4470206092
 11
51.9387295008
 21
42.5625356201
 72
1
 10
51.9387295008
 20
42.5625356201
 11
51.8533631428
 21
42.6903056321
 72
1
 10
51.8533631428
 20
42.6903056321
 11
51.7854031038
 21
42.8281106451
 72
1
 10
51.7854031038
 20
42.8281106451
 11
51.736012199
 21
42.9736106587
 72
1
 10
51.736012199
 20
42.9736106587
 11
51.7060355205
 21
43.1243156729
 72
1
 10
51.7060355205
 20
43.1243156729
 11
51.6959859775
 21
43.2776456873
 97
1
330
27E
 75
0
 76
1
 98
1
 10
0.0
 20
0.0
  0
LWPOLYLINE
  5
280
100
AcDbEntity
  8
Grp_symbol_75_BL1
100
AcDbPolyline
 62
2
  6
CONTINUOUS
 90
8
 70
0
 10
49.1019964648
 20
42.2678305924
 10
49.2660448271
 20
41.7845605469
 10
49.4917692421
 20
41.3268355039
 10
44.8577601769
 20
40.7910720548
 10
45.4398335076
 20
41.3841083673
 10
45.9266172421
 20
42.0575643985
 10
49.0024310683
 20
42.7683806394
 10
49.1019964648
 20
42.2678305924
  0
HATCH
  5
281
100
AcDbEntity
  8
Grp_symbol_75_BL1
100
AcDbHatch
 62
2
  6
CONTINUOUS
 10
0.0
 20
0.0
 30
0.0
210
0.0
220
0.0
230
1.0
  2
SOLID
 70
1
 71
1
 91
1
 92
1
 93
7
 72
1
 10
49.1019964648
 20
42.2678305924
 11
49.2660448271
 21
41.7845605469
 72
1
 10
49.2660448271
 20
41.7845605469
 11
49.4917692421
 21
41.3268355039
 72
1
 10
49.4917692421
 20
41.3268355039
 11
44.8577601769
 21
40.7910720548
 72
1
 10
44.8577601769
 20
40.7910720548
 11
45.4398335076
 21
41.3841083673
 72
1
 10
45.4398335076
 20
41.3841083673
 11
45.9266172421
 21
42.0575643985
 72
1
 10
45.9266172421
 20
42.0575643985
 11
49.0024310683
 21
42.7683806394
 72
1
 10
49.0024310683
 20
42.7683806394
 11
49.1019964648
 21
42.2678305924
 97
1
330
280
 75
0
 76
1
 98
1
 10
0.0
 20
0.0
  0
LWPOLYLINE
  5
282
100
AcDbEntity
  8
Grp_symbol_75_BL1
100
AcDbPolyline
 62
2
  6
CONTINUOUS
 90
8
 70
0
 10
49.7753075027
 20
40.902485464
 10
50.1118081904
 20
40.5187854279
 10
50.4955136853
 20
40.1822753963
 10
43.4620194016
 20
39.8975587812
 10
44.1935033044
 20
40.2918083596
 10
44.8577601769
 20
40.7910720548
 10
49.4917692421
 20
41.3268355039
 10
49.7753075027
 20
40.902485464
  0
HATCH
  5
283
100
AcDbEntity
  8
Grp_symbol_75_BL1
100
AcDbHatch
 62
2
  6
CONTINUOUS
 10
0.0
 20
0.0
 30
0.0
210
0.0
220
0.0
230
1.0
  2
SOLID
 70
1
 71
1
 91
1
 92
1
 93
7
 72
1
 10
49.7753075027
 20
40.902485464
 11
50.1118081904
 21
40.5187854279
 72
1
 10
50.1118081904
 20
40.5187854279
 11
50.4955136853
 21
40.1822753963
 72
1
 10
50.4955136853
 20
40.1822753963
 11
43.4620194016
 21
39.8975587812
 72
1
 10
43.4620194016
 20
39.8975587812
 11
44.1935033044
 21
40.2918083596
 72
1
 10
44.1935033044
 20
40.2918083596
 11
44.8577601769
 21
40.7910720548
 72
1
 10
44.8577601769
 20
40.7910720548
 11
49.4917692421
 21
41.3268355039
 72
1
 10
49.4917692421
 20
41.3268355039
 11
49.7753075027
 21
40.902485464
 97
1
330
282
 75
0
 76
1
 98
1
 10
0.0
 20
0.0
  0
LWPOLYLINE
  5
284
100
AcDbEntity
  8
Grp_symbol_75_BL1
100
AcDbPolyline
 62
2
  6
CONTINUOUS
 90
24
 70
0
 10
50.9198586799
 20
39.8987453696
 10
51.3775825137
 20
39.6730253484
 10
51.8608534051
 20
39.508970333
 10
52.3614024551
 20
39.4094003236
 10
32.4707512713
 20
38.9043202761
 10
36.1358030396
 20
47.1788118269
 10
35.8602654674
 20
46.3948599939
 10
35.7051333528
 20
45.5785050116
 10
35.6738996747
 20
44.7481280565
 10
35.7672676957
 20
43.9224260263
 10
35.9831351265
 20
43.119990557
 10
36.3166414625
 20
42.3588894113
 10
36.7602774228
 20
41.6562596618
 10
37.3040540305
 20
41.0279218299
 10
37.9357275265
 20
40.4880236686
 10
38.6410750515
 20
40.0487216094
 10
39.4042148901
 20
39.7199070463
 10
40.2079640662
 20
39.508970333
 10
41.0342252376
 20
39.4207005138
 10
41.8643941784
 20
39.4570455256
 10
42.6797786747
 20
39.6172003047
 10
43.4620194016
 20
39.8975587812
 10
50.4955136853
 20
40.1822753963
 10
50.9198586799
 20
39.8987453696
  0
HATCH
  5
285
100
AcDbEntity
  8
Grp_symbol_75_BL1
100
AcDbHatch
 62
2
  6
CONTINUOUS
 10
0.0
 20
0.0
 30
0.0
210
0.0
220
0.0
230
1.0
  2
SOLID
 70
1
 71
1
 91
1
 92
1
 93
23
 72
1
 10
50.9198586799
 20
39.8987453696
 11
51.3775825137
 21
39.6730253484
 72
1
 10
51.3775825137
 20
39.6730253484
 11
51.8608534051
 21
39.508970333
 72
1
 10
51.8608534051
 20
39.508970333
 11
52.3614024551
 21
39.4094003236
 72
1
 10
52.3614024551
 20
39.4094003236
 11
32.4707512713
 21
38.9043202761
 72
1
 10
32.4707512713
 20
38.9043202761
 11
36.1358030396
 21
47.1788118269
 72
1
 10
36.1358030396
 20
47.1788118269
 11
35.8602654674
 21
46.3948599939
 72
1
 10
35.8602654674
 20
46.3948599939
 11
35.7051333528
 21
45.5785050116
 72
1
 10
35.7051333528
 20
45.5785050116
 11
35.6738996747
 21
44.7481280565
 72
1
 10
35.6738996747
 20
44.7481280565
 11
35.7672676957
 21
43.9224260263
 72
1
 10
35.7672676957
 20
43.9224260263
 11
35.9831351265
 21
43.119990557
 72
1
 10
35.9831351265
 20
43.119990557
 11
36.3166414625
 21
42.3588894113
 72
1
 10
36.3166414625
 20
42.3588894113
 11
36.7602774228
 21
41.6562596618
 72
1
 10
36.7602774228
 20
41.6562596618
 11
37.3040540305
 21
41.0279218299
 72
1
 10
37.3040540305
 20
41.0279218299
 11
37.9357275265
 21
40.4880236686
 72
1
 10
37.9357275265
 20
40.4880236686
 11
38.6410750515
 21
40.0487216094
 72
1
 10
38.6410750515
 20
40.0487216094
 11
39.4042148901
 21
39.7199070463
 72
1
 10
39.4042148901
 20
39.7199070463
 11
40.2079640662
 21
39.508970333
 72
1
 10
40.2079640662
 20
39.508970333
 11
41.0342252376
 21
39.4207005138
 72
1
 10
41.0342252376
 20
39.4207005138
 11
41.8643941784
 21
39.4570455256
 72
1
 10
41.8643941784
 20
39.4570455256
 11
42.6797786747
 21
39.6172003047
 72
1
 10
42.6797786747
 20
39.6172003047
 11
43.4620194016
 21
39.8975587812
 72
1
 10
43.4620194016
 20
39.8975587812
 11
50.4955136853
 21
40.1822753963
 72
1
 10
50.4955136853
 20
40.1822753963
 11
50.9198586799
 21
39.8987453696
 97
1
330
284
 75
0
 76
1
 98
1
 10
0.0
 20
0.0
  0
LWPOLYLINE
  5
286
100
AcDbEntity
  8
Grp_symbol_75_BL1
100
AcDbPolyline
 62
2
  6
CONTINUOUS
 90
43
 70
0
 10
52.8706651307
 20
39.3760274242
 10
53.3799278063
 20
39.4094003236
 10
53.8804768562
 20
39.508970333
 10
54.3637477476
 20
39.6730253484
 10
54.8214715815
 20
39.8987453696
 10
55.2458165761
 20
40.1822753963
 10
55.629522071
 20
40.5187854279
 10
55.9660227587
 20
40.902485464
 10
56.2495610192
 20
41.3268355039
 10
61.4625540535
 20
38.9043202761
 10
61.4556082214
 20
38.7717952637
 10
61.434846825
 20
38.6407102513
 10
61.4004973304
 20
38.5125052393
 10
61.352936078
 20
38.3886052276
 10
61.2926841587
 20
38.2703602165
 10
61.2204017052
 20
38.1590602061
 10
61.1368806593
 20
38.0559201964
 10
61.0430360949
 20
37.9620651875
 10
60.9398961927
 20
37.8785451797
 10
60.8285909751
 20
37.8062601729
 10
60.7103399254
 20
37.7460201672
 10
60.5864386268
 20
37.6984551627
 10
60.4582445678
 20
37.6641051595
 10
60.3271622694
 20
37.6433451576
 10
60.1946278967
 20
37.6364001569
 10
33.7386774282
 20
37.6364001569
 10
33.6061430555
 20
37.6433451576
 10
33.4750607571
 20
37.6641051595
 10
33.3468666981
 20
37.6984551627
 10
33.2229653995
 20
37.7460201672
 10
33.1047143497
 20
37.8062601729
 10
32.9934091322
 20
37.8785451797
 10
32.89026923
 20
37.9620651875
 10
32.7964246656
 20
38.0559201964
 10
32.7129036197
 20
38.1590602061
 10
32.6406211662
 20
38.2703602165
 10
32.5803692469
 20
38.3886052276
 10
32.5328079945
 20
38.5125052393
 10
32.4984584999
 20
38.6407102513
 10
32.4776971035
 20
38.7717952637
 10
32.4707512713
 20
38.9043202761
 10
52.3614024551
 20
39.4094003236
 10
52.8706651307
 20
39.3760274242
  0
HATCH
  5
287
100
AcDbEntity
  8
Grp_symbol_75_BL1
100
AcDbHatch
 62
2
  6
CONTINUOUS
 10
0.0
 20
0.0
 30
0.0
210
0.0
220
0.0
230
1.0
  2
SOLID
 70
1
 71
1
 91
1
 92
1
 93
42
 72
1
 10
52.8706651307
 20
39.3760274242
 11
53.3799278063
 21
39.4094003236
 72
1
 10
53.3799278063
 20
39.4094003236
 11
53.8804768562
 21
39.508970333
 72
1
 10
53.8804768562
 20
39.508970333
 11
54.3637477476
 21
39.6730253484
 72
1
 10
54.3637477476
 20
39.6730253484
 11
54.8214715815
 21
39.8987453696
 72
1
 10
54.8214715815
 20
39.8987453696
 11
55.2458165761
 21
40.1822753963
 72
1
 10
55.2458165761
 20
40.1822753963
 11
55.629522071
 21
40.5187854279
 72
1
 10
55.629522071
 20
40.5187854279
 11
55.9660227587
 21
40.902485464
 72
1
 10
55.9660227587
 20
40.902485464
 11
56.2495610192
 21
41.3268355039
 72
1
 10
56.2495610192
 20
41.3268355039
 11
61.4625540535
 21
38.9043202761
 72
1
 10
61.4625540535
 20
38.9043202761
 11
61.4556082214
 21
38.7717952637
 72
1
 10
61.4556082214
 20
38.7717952637
 11
61.434846825
 21
38.6407102513
 72
1
 10
61.434846825
 20
38.6407102513
 11
61.4004973304
 21
38.5125052393
 72
1
 10
61.4004973304
 20
38.5125052393
 11
61.352936078
 21
38.3886052276
 72
1
 10
61.352936078
 20
38.3886052276
 11
61.2926841587
 21
38.2703602165
 72
1
 10
61.2926841587
 20
38.2703602165
 11
61.2204017052
 21
38.1590602061
 72
1
 10
61.2204017052
 20
38.1590602061
 11
61.1368806593
 21
38.0559201964
 72
1
 10
61.1368806593
 20
38.0559201964
 11
61.0430360949
 21
37.9620651875
 72
1
 10
61.0430360949
 20
37.9620651875
 11
60.9398961927
 21
37.8785451797
 72
1
 10
60.9398961927
 20
37.8785451797
 11
60.8285909751
 21
37.8062601729
 72
1
 10
60.8285909751
 20
37.8062601729
 11
60.7103399254
 21
37.7460201672
 72
1
 10
60.7103399254
 20
37.7460201672
 11
60.5864386268
 21
37.6984551627
 72
1
 10
60.5864386268
 20
37.6984551627
 11
60.4582445678
 21
37.6641051595
 72
1
 10
60.4582445678
 20
37.6641051595
 11
60.3271622694
 21
37.6433451576
 72
1
 10
60.3271622694
 20
37.6433451576
 11
60.1946278967
 21
37.6364001569
 72
1
 10
60.1946278967
 20
37.6364001569
 11
33.7386774282
 21
37.6364001569
 72
1
 10
33.7386774282
 20
37.6364001569
 11
33.6061430555
 21
37.6433451576
 72
1
 10
33.6061430555
 20
37.6433451576
 11
33.4750607571
 21
37.6641051595
 72
1
 10
33.4750607571
 20
37.6641051595
 11
33.3468666981
 21
37.6984551627
 72
1
 10
33.3468666981
 20
37.6984551627
 11
33.2229653995
 21
37.7460201672
 72
1
 10
33.2229653995
 20
37.7460201672
 11
33.1047143497
 21
37.8062601729
 72
1
 10
33.1047143497
 20
37.8062601729
 11
32.9934091322
 21
37.8785451797
 72
1
 10
32.9934091322
 20
37.8785451797
 11
32.89026923
 21
37.9620651875
 72
1
 10
32.89026923
 20
37.9620651875
 11
32.7964246656
 21
38.0559201964
 72
1
 10
32.7964246656
 20
38.0559201964
 11
32.7129036197
 21
38.1590602061
 72
1
 10
32.7129036197
 20
38.1590602061
 11
32.6406211662
 21
38.2703602165
 72
1
 10
32.6406211662
 20
38.2703602165
 11
32.5803692469
 21
38.3886052276
 72
1
 10
32.5803692469
 20
38.3886052276
 11
32.5328079945
 21
38.5125052393
 72
1
 10
32.5328079945
 20
38.5125052393
 11
32.4984584999
 21
38.6407102513
 72
1
 10
32.4984584999
 20
38.6407102513
 11
32.4776971035
 21
38.7717952637
 72
1
 10
32.4776971035
 20
38.7717952637
 11
32.4707512713
 21
38.9043202761
 72
1
 10
32.4707512713
 20
38.9043202761
 11
52.3614024551
 21
39.4094003236
 72
1
 10
52.3614024551
 20
39.4094003236
 11
52.8706651307
 21
39.3760274242
 97
1
330
286
 75
0
 76
1
 98
1
 10
0.0
 20
0.0
  0
SOLID
  5
288
100
AcDbEntity
  8
Grp_symbol_75_BL1
100
AcDbTrace
 62
2
  6
CONTINUOUS
 10
41.4505167058
 20
50.4882040339
 11
40.6199582704
 21
50.4622403
 12
42.2756096267
 22
50.3895982432
 13
61.4625540536
 23
51.3684664481
  0
ENDBLK
  5
289
100
AcDbEntity
  8
0
  6
BYBLOCK
 62
0
100
AcDbBlockEnd
  0
BLOCK
  5
28A
100
AcDbEntity
  8
Grp_symbol_75_BL2
100
AcDbBlockBegin
  2
GRP_SYMBOL_75_BL2
 70
64
 10
46.9666526624
 20
45.1363971203
  3
GRP_SYMBOL_75_BL2
  1

  0
LINE
  5
28B
100
AcDbEntity
  8
Grp_symbol_75_BL2
100
AcDbLine
 62
2
  6
CONTINUOUS
 10
61.3092777741
 20
51.9710628035
 11
61.3282111248
 21
51.9349063977
  0
LINE
  5
28C
100
AcDbEntity
  8
Grp_symbol_75_BL2
100
AcDbLine
 62
2
  6
CONTINUOUS
 10
32.4707512714
 20
38.904322572
 11
32.4707512714
 21
51.3684716686
  0
LINE
  5
28D
100
AcDbEntity
  8
Grp_symbol_75_BL2
100
AcDbLine
 62
2
  6
CONTINUOUS
 10
48.9690522291
 20
50.1998567641
 11
48.9690522291
 21
46.0570151078
  0
LINE
  5
28E
100
AcDbEntity
  8
Grp_symbol_75_BL2
100
AcDbLine
 62
2
  6
CONTINUOUS
 10
48.9690522291
 20
43.8544916956
 11
48.9690522291
 21
43.2776403258
  0
LINE
  5
28F
100
AcDbEntity
  8
Grp_symbol_75_BL2
100
AcDbLine
 62
2
  6
CONTINUOUS
 10
51.6959859775
 20
43.2776403258
 11
51.6959859775
 21
50.1998567641
  0
LINE
  5
290
100
AcDbEntity
  8
Grp_symbol_75_BL2
100
AcDbLine
 62
2
  6
CONTINUOUS
 10
54.0453442839
 20
50.1998567641
 11
54.0453442839
 21
43.2776403258
  0
LINE
  5
291
100
AcDbEntity
  8
Grp_symbol_75_BL2
100
AcDbLine
 62
2
  6
CONTINUOUS
 10
56.7722780323
 20
43.2776403258
 11
56.7722780323
 21
50.1998567641
  0
LINE
  5
292
100
AcDbEntity
  8
Grp_symbol_75_BL2
100
AcDbLine
 62
2
  6
CONTINUOUS
 10
61.4625540535
 20
51.3684716686
 11
61.4625540535
 21
38.904322572
  0
LINE
  5
293
100
AcDbEntity
  8
Grp_symbol_75_BL2
100
AcDbLine
 62
2
  6
CONTINUOUS
 10
60.1946278967
 20
37.6363964151
 11
33.7386774282
 21
37.6363964151
  0
LINE
  5
294
100
AcDbEntity
  8
Grp_symbol_75_BL2
100
AcDbLine
 62
2
  6
CONTINUOUS
 10
41.31266132
 20
43.8544916956
 11
43.7939039211
 21
43.8544916956
  0
LINE
  5
295
100
AcDbEntity
  8
Grp_symbol_75_BL2
100
AcDbLine
 62
2
  6
CONTINUOUS
 10
47.1245948734
 20
43.8544916956
 11
48.9690522291
 21
43.8544916956
  0
LINE
  5
296
100
AcDbEntity
  8
Grp_symbol_75_BL2
100
AcDbLine
 62
2
  6
CONTINUOUS
 10
48.9690522291
 20
46.0570151078
 11
47.1245948734
 21
46.0570151078
  0
LINE
  5
297
100
AcDbEntity
  8
Grp_symbol_75_BL2
100
AcDbLine
 62
2
  6
CONTINUOUS
 10
46.6349474023
 20
46.0570151078
 11
41.31266132
 21
46.0570151078
  0
LINE
  5
298
100
AcDbEntity
  8
Grp_symbol_75_BL2
100
AcDbLine
 62
2
  6
CONTINUOUS
 10
56.7722780323
 20
50.1998567641
 11
54.0453442839
 21
50.1998567641
  0
LINE
  5
299
100
AcDbEntity
  8
Grp_symbol_75_BL2
100
AcDbLine
 62
2
  6
CONTINUOUS
 10
51.6959859775
 20
50.1998567641
 11
48.9690522291
 21
50.1998567641
  0
LINE
  5
29A
100
AcDbEntity
  8
Grp_symbol_75_BL2
100
AcDbLine
 62
2
  6
CONTINUOUS
 10
33.7386774282
 20
52.6363978255
 11
60.1946278967
 21
52.6363978255
  0
LINE
  5
29B
100
AcDbEntity
  8
Grp_symbol_75_BL2
100
AcDbLine
 62
2
  6
CONTINUOUS
 10
43.5038439488
 20
46.5771432553
 11
45.6961824605
 21
48.1993884172
  0
ARC
  5
29C
100
AcDbEntity
  8
Grp_symbol_75_BL2
100
AcDbCircle
 62
2
  6
CONTINUOUS
 10
41.31266132
 20
44.9557534018
 40
5.9153485927
100
AcDbArc
 50
349.2706340045
 51
10.7293659955
  0
ARC
  5
29D
100
AcDbEntity
  8
Grp_symbol_75_BL2
100
AcDbCircle
 62
2
  6
CONTINUOUS
 10
41.2077792528
 20
44.9557534018
 40
5.5377731507
100
AcDbArc
 50
35.8545159817
 51
11.4705154501
  0
ARC
  5
29E
100
AcDbEntity
  8
Grp_symbol_75_BL2
100
AcDbCircle
 62
2
  6
CONTINUOUS
 10
52.8706651307
 20
43.2776403258
 40
3.9016129016
100
AcDbArc
 50
180.0
 51
360.0
  0
ARC
  5
29F
100
AcDbEntity
  8
Grp_symbol_75_BL2
100
AcDbCircle
 62
2
  6
CONTINUOUS
 10
41.2077792528
 20
44.9557534018
 40
2.8108394023
100
AcDbArc
 50
35.2282226131
 51
336.934010569
  0
ARC
  5
2A0
100
AcDbEntity
  8
Grp_symbol_75_BL2
100
AcDbCircle
 62
2
  6
CONTINUOUS
 10
33.7386774282
 20
51.3684716686
 40
1.2679261569
100
AcDbArc
 50
90.0
 51
180.0
  0
ARC
  5
2A1
100
AcDbEntity
  8
Grp_symbol_75_BL2
100
AcDbCircle
 62
2
  6
CONTINUOUS
 10
60.1946278967
 20
51.3684716686
 40
1.2679261569
100
AcDbArc
 50
0.0
 51
90.0
  0
ARC
  5
2A2
100
AcDbEntity
  8
Grp_symbol_75_BL2
100
AcDbCircle
 62
2
  6
CONTINUOUS
 10
60.1946278967
 20
38.904322572
 40
1.2679261569
100
AcDbArc
 50
270.0
 51
360.0
  0
ARC
  5
2A3
100
AcDbEntity
  8
Grp_symbol_75_BL2
100
AcDbCircle
 62
2
  6
CONTINUOUS
 10
33.7386774282
 20
38.904322572
 40
1.2679261569
100
AcDbArc
 50
180.0
 51
270.0
  0
ARC
  5
2A4
100
AcDbEntity
  8
Grp_symbol_75_BL2
100
AcDbCircle
 62
2
  6
CONTINUOUS
 10
52.8706651307
 20
43.2776403258
 40
1.1746791532
100
AcDbArc
 50
180.0
 51
360.0
  0
ARC
  5
2A5
100
AcDbEntity
  8
Grp_symbol_75_BL2
100
AcDbCircle
 62
2
  6
CONTINUOUS
 10
41.31266132
 20
44.9557534018
 40
1.1012617061
100
AcDbArc
 50
90.0
 51
270.0
  0
ENDBLK
  5
2A6
100
AcDbEntity
  8
0
  6
BYBLOCK
 62
0
100
AcDbBlockEnd
  0
BLOCK
  5
2A7
100
AcDbEntity
  8
X48000092_BD01_BL3
100
AcDbBlockBegin
  2
X48000092_BD01_BL3
 70
64
 10
322.1502118891
 20
139.9402487151
  3
X48000092_BD01_BL3
  1

  0
HATCH
  5
2A8
100
AcDbEntity
  8
X48000092_BD01_BL3
100
AcDbHatch
 62
2
  6
CONTINUOUS
 10
0.0
 20
0.0
 30
0.0
210
0.0
220
0.0
230
1.0
  2
A
 70
0
 71
0
 91
1
 92
1
 93
8
 72
2
 10
407.2022488229
 20
124.1867605704
 40
100.0
 50
345.1177010157
 51
17.5934258393
 73
1
 72
2
 10
487.7466478649
 20
102.7821960346
 40
16.66
 50
197.5934258393
 51
345.1177010157
 73
1
 72
2
 10
567.1884490061
 20
127.9725876837
 40
100.0
 50
165.1177010157
 51
197.5934258393
 73
1
 72
2
 10
486.6440499642
 20
149.3771522195
 40
16.66
 50
17.5934258393
 51
165.1177010157
 73
1
 72
2
 10
487.7466478649
 20
102.7821960346
 40
13.66
 50
197.5934258393
 51
345.1177010157
 73
1
 72
2
 10
407.2022488229
 20
124.1867605704
 40
97.0
 50
345.1177010157
 51
17.5934258393
 73
1
 72
2
 10
486.6440499642
 20
149.3771522195
 40
13.66
 50
17.5934258393
 51
165.1177010157
 73
1
 72
2
 10
567.1884490061
 20
127.9725876837
 40
97.0
 50
165.1177010157
 51
197.5934258393
 73
1
 97
0
 75
0
 76
0
 52
45.0
 41
2.9083689309
 77
0
 78
1
 53
45.0
 43
0.0
 44
0.0
 45
-2.0565273932
 46
2.0565273932
 79
0
 98
1
 10
0.0
 20
0.0
  0
LINE
  5
2A9
100
AcDbEntity
  8
X48000092_BD01_BL3
100
AcDbLine
 62
8
  6
PHANTOM
 10
139.973413308
 20
219.2782518897
 11
213.6996324324
 21
219.2782518897
  0
LINE
  5
2AA
100
AcDbEntity
  8
X48000092_BD01_BL3
100
AcDbLine
 62
9
  6
PHANTOM
 10
139.973413308
 20
230.783451776
 11
213.7119077245
 21
230.783451776
  0
LINE
  5
2AB
100
AcDbEntity
  8
X48000092_BD01_BL3
100
AcDbLine
 62
9
  6
PHANTOM
 10
139.973413308
 20
252.6232307128
 11
213.6959546473
 21
252.6232307128
  0
LINE
  5
2AC
100
AcDbEntity
  8
X48000092_BD01_BL3
100
AcDbLine
 62
8
  6
PHANTOM
 10
139.973413308
 20
254.1395236556
 11
213.6996324324
 21
254.1395236556
  0
LINE
  5
2AD
100
AcDbEntity
  8
X48000092_BD01_BL3
100
AcDbLine
 62
8
  6
PHANTOM
 10
223.6998344324
 20
219.2782518897
 11
290.6954456066
 21
219.2782518897
  0
LINE
  5
2AE
100
AcDbEntity
  8
X48000092_BD01_BL3
100
AcDbLine
 62
9
  6
PHANTOM
 10
223.7121097245
 20
230.783451776
 11
290.6954456066
 21
230.783451776
  0
LINE
  5
2AF
100
AcDbEntity
  8
X48000092_BD01_BL3
100
AcDbLine
 62
9
  6
PHANTOM
 10
223.6961566473
 20
252.6232307128
 11
290.6954456066
 21
252.6232307128
  0
LINE
  5
2B0
100
AcDbEntity
  8
X48000092_BD01_BL3
100
AcDbLine
 62
8
  6
PHANTOM
 10
223.6998344324
 20
254.1395236556
 11
290.6954456066
 21
254.1395236556
  0
LINE
  5
2B1
100
AcDbEntity
  8
X48000092_BD01_BL3
100
AcDbLine
 62
8
  6
PHANTOM
 10
139.973413308
 20
25.7409737745
 11
213.6996324324
 21
25.7409737745
  0
LINE
  5
2B2
100
AcDbEntity
  8
X48000092_BD01_BL3
100
AcDbLine
 62
9
  6
PHANTOM
 10
139.973413308
 20
26.3698695886
 11
213.7013291097
 21
26.3698695886
  0
LINE
  5
2B3
100
AcDbEntity
  8
X48000092_BD01_BL3
100
AcDbLine
 62
9
  6
PHANTOM
 10
139.9603129524
 20
43.8320855202
 11
213.6981886223
 21
43.8320855202
  0
LINE
  5
2B4
100
AcDbEntity
  8
X48000092_BD01_BL3
100
AcDbLine
 62
8
  6
PHANTOM
 10
139.8937759134
 20
56.9539845318
 11
213.6971824133
 21
56.9539845318
  0
LINE
  5
2B5
100
AcDbEntity
  8
X48000092_BD01_BL3
100
AcDbLine
 62
8
  6
PHANTOM
 10
223.6998344324
 20
25.7409737745
 11
290.6954456066
 21
25.7409737745
  0
LINE
  5
2B6
100
AcDbEntity
  8
X48000092_BD01_BL3
100
AcDbLine
 62
9
  6
PHANTOM
 10
223.7015311097
 20
26.3698695886
 11
290.6954456066
 21
26.3698695886
  0
LINE
  5
2B7
100
AcDbEntity
  8
X48000092_BD01_BL3
100
AcDbLine
 62
9
  6
PHANTOM
 10
223.6983906223
 20
43.8320855202
 11
290.7085459622
 21
43.8320855202
  0
LINE
  5
2B8
100
AcDbEntity
  8
X48000092_BD01_BL3
100
AcDbLine
 62
8
  6
PHANTOM
 10
223.6973844133
 20
56.9539845318
 11
290.7750830012
 21
56.9539845318
  0
ARC
  5
2B9
100
AcDbEntity
  8
X48000092_BD01_BL3
100
AcDbCircle
 62
7
  6
CONTINUOUS
 10
567.1884490061
 20
127.9725876837
 40
100.0
100
AcDbArc
 50
165.1177010157
 51
197.5934258393
  0
ARC
  5
2BA
100
AcDbEntity
  8
X48000092_BD01_BL3
100
AcDbCircle
 62
7
  6
CONTINUOUS
 10
407.2022488229
 20
124.1867605704
 40
100.0
100
AcDbArc
 50
345.1177010157
 51
17.5934258393
  0
ARC
  5
2BB
100
AcDbEntity
  8
X48000092_BD01_BL3
100
AcDbCircle
 62
7
  6
CONTINUOUS
 10
567.1884490061
 20
127.9725876837
 40
97.0
100
AcDbArc
 50
165.1177010157
 51
197.5934258393
  0
ARC
  5
2BC
100
AcDbEntity
  8
X48000092_BD01_BL3
100
AcDbCircle
 62
7
  6
CONTINUOUS
 10
407.2022488229
 20
124.1867605704
 40
97.0
100
AcDbArc
 50
345.1177010157
 51
17.5934258393
  0
ARC
  5
2BD
100
AcDbEntity
  8
X48000092_BD01_BL3
100
AcDbCircle
 62
7
  6
CONTINUOUS
 10
487.7466478649
 20
102.7821960346
 40
16.66
100
AcDbArc
 50
197.5934258393
 51
345.1177010157
  0
ARC
  5
2BE
100
AcDbEntity
  8
X48000092_BD01_BL3
100
AcDbCircle
 62
7
  6
CONTINUOUS
 10
486.6440499642
 20
149.3771522195
 40
16.66
100
AcDbArc
 50
17.5934258393
 51
165.1177010157
  0
ARC
  5
2BF
100
AcDbEntity
  8
X48000092_BD01_BL3
100
AcDbCircle
 62
7
  6
CONTINUOUS
 10
486.6440499642
 20
149.3771522195
 40
13.66
100
AcDbArc
 50
17.5934258393
 51
165.1177010157
  0
ARC
  5
2C0
100
AcDbEntity
  8
X48000092_BD01_BL3
100
AcDbCircle
 62
7
  6
CONTINUOUS
 10
487.7466478649
 20
102.7821960346
 40
13.66
100
AcDbArc
 50
197.5934258393
 51
345.1177010157
  0
ENDBLK
  5
2C1
100
AcDbEntity
  8
0
  6
BYBLOCK
 62
0
100
AcDbBlockEnd
  0
BLOCK
  5
2C2
100
AcDbEntity
  8
X48002254_KLEIN_BL4
100
AcDbBlockBegin
  2
X48002254_KLEIN_BL4
 70
64
 10
257.9342190881
 20
256.2874540244
  3
X48002254_KLEIN_BL4
  1

  0
LINE
  5
2C3
100
AcDbEntity
  8
X48002254_KLEIN_BL4
100
AcDbLine
 62
9
  6
CONTINUOUS
 10
434.8824792679
 20
393.5501839513
 11
433.7334126032
 21
392.5860025368
  0
LINE
  5
2C4
100
AcDbEntity
  8
X48002254_KLEIN_BL4
100
AcDbLine
 62
7
  6
CONTINUOUS
 10
426.683268913
 20
394.6218211222
 11
426.683268913
 21
393.1218211222
  0
LINE
  5
2C5
100
AcDbEntity
  8
X48002254_KLEIN_BL4
100
AcDbLine
 62
7
  6
CONTINUOUS
 10
426.683268913
 20
303.1218211222
 11
426.683268913
 21
304.6218211222
  0
LINE
  5
2C6
100
AcDbEntity
  8
X48002254_KLEIN_BL4
100
AcDbLine
 62
9
  6
CONTINUOUS
 10
432.5843459385
 20
394.6218211222
 11
432.5843459385
 21
393.1218211222
  0
LINE
  5
2C7
100
AcDbEntity
  8
X48002254_KLEIN_BL4
100
AcDbLine
 62
9
  6
CONTINUOUS
 10
433.4806343977
 20
303.1218211222
 11
433.4806343977
 21
304.6218211222
  0
LINE
  5
2C8
100
AcDbEntity
  8
X48002254_KLEIN_BL4
100
AcDbLine
 62
9
  6
CONTINUOUS
 10
465.6832718006
 20
356.8432287956
 11
464.5342051359
 21
355.8790473811
  0
LINE
  5
2C9
100
AcDbEntity
  8
X48002254_KLEIN_BL4
100
AcDbLine
 62
9
  6
CONTINUOUS
 10
465.2511690479
 20
352.2961006429
 11
464.0603853176
 21
351.3839416065
  0
LINE
  5
2CA
100
AcDbEntity
  8
X48002254_KLEIN_BL4
100
AcDbLine
 62
9
  6
CONTINUOUS
 10
434.6277872704
 20
303.4835170337
 11
433.7674226158
 21
304.7122451001
  0
LINE
  5
2CB
100
AcDbEntity
  8
X48002254_KLEIN_BL4
100
AcDbLine
 62
7
  6
CONTINUOUS
 10
459.65479764
 20
322.8387802365
 11
433.7674226158
 21
304.7122451001
  0
LINE
  5
2CC
100
AcDbEntity
  8
X48002254_KLEIN_BL4
100
AcDbLine
 62
3
  6
CONTINUOUS
 10
460.5151622945
 20
321.61005217
 11
434.6277872704
 21
303.4835170337
  0
LINE
  5
2CD
100
AcDbEntity
  8
X48002254_KLEIN_BL4
100
AcDbLine
 62
9
  6
CONTINUOUS
 10
460.5151622945
 20
321.61005217
 11
459.65479764
 21
322.8387802365
  0
LINE
  5
2CE
100
AcDbEntity
  8
X48002254_KLEIN_BL4
100
AcDbLine
 62
3
  6
CONTINUOUS
 10
433.4806343977
 20
303.1218211222
 11
426.683268913
 21
303.1218211222
  0
LINE
  5
2CF
100
AcDbEntity
  8
X48002254_KLEIN_BL4
100
AcDbLine
 62
7
  6
CONTINUOUS
 10
433.4806343977
 20
304.6218211222
 11
426.683268913
 21
304.6218211222
  0
LINE
  5
2D0
100
AcDbEntity
  8
X48002254_KLEIN_BL4
100
AcDbLine
 62
9
  6
CONTINUOUS
 10
465.4033777714
 20
353.6712066692
 11
464.4409071262
 21
354.8217066723
  0
LINE
  5
2D1
100
AcDbEntity
  8
X48002254_KLEIN_BL4
100
AcDbLine
 62
7
  6
CONTINUOUS
 10
433.7334126032
 20
392.5860025368
 11
464.5342051359
 21
355.8790473811
  0
LINE
  5
2D2
100
AcDbEntity
  8
X48002254_KLEIN_BL4
100
AcDbLine
 62
3
  6
CONTINUOUS
 10
434.8824792679
 20
393.5501839513
 11
465.6832718006
 21
356.8432287956
  0
LINE
  5
2D3
100
AcDbEntity
  8
X48002254_KLEIN_BL4
100
AcDbLine
 62
7
  6
CONTINUOUS
 10
426.683268913
 20
393.1218211222
 11
432.5843459385
 21
393.1218211222
  0
LINE
  5
2D4
100
AcDbEntity
  8
X48002254_KLEIN_BL4
100
AcDbLine
 62
3
  6
CONTINUOUS
 10
426.683268913
 20
394.6218211222
 11
432.5843459385
 21
394.6218211222
  0
LINE
  5
2D5
100
AcDbEntity
  8
X48002254_KLEIN_BL4
100
AcDbLine
 62
3
  6
CONTINUOUS
 10
49.823413308
 20
394.6218211222
 11
49.823413308
 21
303.1218211222
  0
LINE
  5
2D6
100
AcDbEntity
  8
X48002254_KLEIN_BL4
100
AcDbLine
 62
3
  6
CONTINUOUS
 10
84.123413308
 20
394.6218211222
 11
84.123413308
 21
341.0519343982
  0
LINE
  5
2D7
100
AcDbEntity
  8
X48002254_KLEIN_BL4
100
AcDbLine
 62
3
  6
CONTINUOUS
 10
49.823413308
 20
303.1218211222
 11
78.6864424746
 21
303.1218211222
  0
LINE
  5
2D8
100
AcDbEntity
  8
X48002254_KLEIN_BL4
100
AcDbLine
 62
9
  6
CONTINUOUS
 10
49.823413308
 20
303.4835170337
 11
78.0930628109
 21
303.4835170337
  0
LINE
  5
2D9
100
AcDbEntity
  8
X48002254_KLEIN_BL4
100
AcDbLine
 62
9
  6
CONTINUOUS
 10
49.823413308
 20
321.61005217
 11
52.5002888914
 21
321.61005217
  0
LINE
  5
2DA
100
AcDbEntity
  8
X48002254_KLEIN_BL4
100
AcDbLine
 62
9
  6
CONTINUOUS
 10
49.823413308
 20
352.2961006429
 11
50.223413308
 21
352.2961006429
  0
LINE
  5
2DB
100
AcDbEntity
  8
X48002254_KLEIN_BL4
100
AcDbLine
 62
9
  6
CONTINUOUS
 10
83.723413308
 20
352.2961006429
 11
84.123413308
 21
352.2961006429
  0
LINE
  5
2DC
100
AcDbEntity
  8
X48002254_KLEIN_BL4
100
AcDbLine
 62
9
  6
CONTINUOUS
 10
49.823413308
 20
353.6712066692
 11
50.223413308
 21
353.6712066692
  0
LINE
  5
2DD
100
AcDbEntity
  8
X48002254_KLEIN_BL4
100
AcDbLine
 62
9
  6
CONTINUOUS
 10
83.723413308
 20
353.6712066692
 11
84.123413308
 21
353.6712066692
  0
LINE
  5
2DE
100
AcDbEntity
  8
X48002254_KLEIN_BL4
100
AcDbLine
 62
9
  6
CONTINUOUS
 10
49.823413308
 20
356.8432287956
 11
84.123413308
 21
356.8432287956
  0
LINE
  5
2DF
100
AcDbEntity
  8
X48002254_KLEIN_BL4
100
AcDbLine
 62
9
  6
CONTINUOUS
 10
49.823413308
 20
393.5501839513
 11
84.123413308
 21
393.5501839513
  0
LINE
  5
2E0
100
AcDbEntity
  8
X48002254_KLEIN_BL4
100
AcDbLine
 62
3
  6
CONTINUOUS
 10
49.823413308
 20
394.6218211222
 11
84.123413308
 21
394.6218211222
  0
LINE
  5
2E1
100
AcDbEntity
  8
X48002254_KLEIN_BL4
100
AcDbLine
 62
3
  6
CONTINUOUS
 10
49.823413308
 20
160.9530869265
 11
49.823413308
 21
117.9530997747
  0
LINE
  5
2E2
100
AcDbEntity
  8
X48002254_KLEIN_BL4
100
AcDbLine
 62
3
  6
CONTINUOUS
 10
84.123413308
 20
160.9530869265
 11
84.123413308
 21
117.9530997747
  0
LINE
  5
2E3
100
AcDbEntity
  8
X48002254_KLEIN_BL4
100
AcDbLine
 62
3
  6
CONTINUOUS
 10
49.823413308
 20
117.9530869265
 11
50.223413308
 21
117.9530869265
  0
LINE
  5
2E4
100
AcDbEntity
  8
X48002254_KLEIN_BL4
100
AcDbLine
 62
3
  6
CONTINUOUS
 10
83.723413308
 20
117.9530869265
 11
84.123413308
 21
117.9530869265
  0
LINE
  5
2E5
100
AcDbEntity
  8
X48002254_KLEIN_BL4
100
AcDbLine
 62
3
  6
CONTINUOUS
 10
49.823413308
 20
121.4266840358
 11
84.123413308
 21
121.4266840358
  0
LINE
  5
2E6
100
AcDbEntity
  8
X48002254_KLEIN_BL4
100
AcDbLine
 62
9
  6
CONTINUOUS
 10
49.823413308
 20
121.9530840388
 11
84.123413308
 21
121.9530840388
  0
LINE
  5
2E7
100
AcDbEntity
  8
X48002254_KLEIN_BL4
100
AcDbLine
 62
9
  6
CONTINUOUS
 10
49.823413308
 20
152.7538765716
 11
84.123413308
 21
152.7538765716
  0
LINE
  5
2E8
100
AcDbEntity
  8
X48002254_KLEIN_BL4
100
AcDbLine
 62
9
  6
CONTINUOUS
 10
49.823413308
 20
155.0520099009
 11
84.123413308
 21
155.0520099009
  0
LINE
  5
2E9
100
AcDbEntity
  8
X48002254_KLEIN_BL4
100
AcDbLine
 62
3
  6
CONTINUOUS
 10
49.823413308
 20
160.9530869265
 11
84.123413308
 21
160.9530869265
  0
ARC
  5
2EA
100
AcDbEntity
  8
X48002254_KLEIN_BL4
100
AcDbCircle
 62
3
  6
CONTINUOUS
 10
448.183268913
 20
339.2218211222
 40
21.5
100
AcDbArc
 50
305.0
 51
37.4526818174
  0
ARC
  5
2EB
100
AcDbEntity
  8
X48002254_KLEIN_BL4
100
AcDbCircle
 62
7
  6
CONTINUOUS
 10
448.183268913
 20
339.2218211222
 40
20.0
100
AcDbArc
 50
305.0
 51
37.4526818174
  0
ARC
  5
2EC
100
AcDbEntity
  8
X48002254_KLEIN_BL4
100
AcDbCircle
 62
3
  6
CONTINUOUS
 10
433.4806343977
 20
305.1218211222
 40
2.0
100
AcDbArc
 50
270.0
 51
305.0
  0
ARC
  5
2ED
100
AcDbEntity
  8
X48002254_KLEIN_BL4
100
AcDbCircle
 62
7
  6
CONTINUOUS
 10
433.4806343977
 20
305.1218211222
 40
0.5
100
AcDbArc
 50
270.0
 51
305.0
  0
ARC
  5
2EE
100
AcDbEntity
  8
X48002254_KLEIN_BL4
100
AcDbCircle
 62
3
  6
CONTINUOUS
 10
432.5843459385
 20
391.6218211222
 40
3.0
100
AcDbArc
 50
40.0
 51
90.0
  0
ARC
  5
2EF
100
AcDbEntity
  8
X48002254_KLEIN_BL4
100
AcDbCircle
 62
7
  6
CONTINUOUS
 10
432.5843459385
 20
391.6218211222
 40
1.5
100
AcDbArc
 50
40.0
 51
90.0
  0
ARC
  5
2F0
100
AcDbEntity
  8
X48002254_KLEIN_BL4
100
AcDbCircle
 62
7
  6
CONTINUOUS
 10
466.0450248681
 20
352.9042066671
 40
2.5
100
AcDbArc
 50
129.9147492899
 51
217.4526818174
  0
ARC
  5
2F1
100
AcDbEntity
  8
X48002254_KLEIN_BL4
100
AcDbCircle
 62
3
  6
CONTINUOUS
 10
463.9596718036
 20
355.3969566738
 40
2.25
100
AcDbArc
 50
309.9147492899
 51
40.0
  0
ARC
  5
2F2
100
AcDbEntity
  8
X48002254_KLEIN_BL4
100
AcDbCircle
 62
3
  6
CONTINUOUS
 10
466.0450248681
 20
352.9042066671
 40
1.0
100
AcDbArc
 50
129.9147492899
 51
217.4526818174
  0
ARC
  5
2F3
100
AcDbEntity
  8
X48002254_KLEIN_BL4
100
AcDbCircle
 62
7
  6
CONTINUOUS
 10
463.9596718036
 20
355.3969566738
 40
0.75
100
AcDbArc
 50
309.9147492899
 51
40.0
  0
ENDBLK
  5
2F4
100
AcDbEntity
  8
0
  6
BYBLOCK
 62
0
100
AcDbBlockEnd
  0
BLOCK
  5
2F5
100
AcDbEntity
  8
X48002255_NEU_BL5
100
AcDbBlockBegin
  2
X48002255_NEU_BL5
 70
64
 10
446.4510138448
 20
348.8718211222
  3
X48002255_NEU_BL5
  1

  0
LINE
  5
2F6
100
AcDbEntity
  8
X48002255_NEU_BL5
100
AcDbLine
 62
7
  6
CONTINUOUS
 10
426.683268913
 20
304.6218211222
 11
426.683268913
 21
393.1218211222
  0
LINE
  5
2F7
100
AcDbEntity
  8
X48002255_NEU_BL5
100
AcDbLine
 62
7
  6
CONTINUOUS
 10
459.7359950687
 20
322.7228182904
 11
434.4016473379
 21
304.9835170337
  0
LINE
  5
2F8
100
AcDbEntity
  8
X48002255_NEU_BL5
100
AcDbLine
 62
7
  6
CONTINUOUS
 10
433.2544944652
 20
304.6218211222
 11
426.683268913
 21
304.6218211222
  0
LINE
  5
2F9
100
AcDbEntity
  8
X48002255_NEU_BL5
100
AcDbLine
 62
7
  6
CONTINUOUS
 10
433.9239006891
 20
392.5145600587
 11
464.5157653233
 21
356.0565954768
  0
LINE
  5
2FA
100
AcDbEntity
  8
X48002255_NEU_BL5
100
AcDbLine
 62
7
  6
CONTINUOUS
 10
426.683268913
 20
393.1218211222
 11
432.6216251358
 21
393.1218211222
  0
ARC
  5
2FB
100
AcDbEntity
  8
X48002255_NEU_BL5
100
AcDbCircle
 62
7
  6
CONTINUOUS
 10
448.183268913
 20
339.2218211222
 40
20.141563397
100
AcDbArc
 50
305.0
 51
37.3626518635
  0
ARC
  5
2FC
100
AcDbEntity
  8
X48002255_NEU_BL5
100
AcDbCircle
 62
7
  6
CONTINUOUS
 10
433.2544944652
 20
306.6218211222
 40
2.0
100
AcDbArc
 50
270.0
 51
305.0
  0
ARC
  5
2FD
100
AcDbEntity
  8
X48002255_NEU_BL5
100
AcDbCircle
 62
7
  6
CONTINUOUS
 10
432.6216251358
 20
391.4218211222
 40
1.7
100
AcDbArc
 50
40.0
 51
90.0
  0
ARC
  5
2FE
100
AcDbEntity
  8
X48002255_NEU_BL5
100
AcDbCircle
 62
7
  6
CONTINUOUS
 10
466.2187587767
 20
352.9923750244
 40
2.55
100
AcDbArc
 50
133.9045440221
 51
217.3626518635
  0
ARC
  5
2FF
100
AcDbEntity
  8
X48002255_NEU_BL5
100
AcDbCircle
 62
7
  6
CONTINUOUS
 10
463.8263253245
 20
355.4780866281
 40
0.9
100
AcDbArc
 50
313.9045440221
 51
40.0
  0
ENDBLK
  5
300
100
AcDbEntity
  8
0
  6
BYBLOCK
 62
0
100
AcDbBlockEnd
  0
BLOCK
  5
301
100
AcDbEntity
  8
X48002256_BL6
100
AcDbBlockBegin
  2
X48002256_BL6
 70
64
 10
430.183268913
 20
392.3718211222
  3
X48002256_BL6
  1

  0
LINE
  5
302
100
AcDbEntity
  8
X48002256_BL6
100
AcDbLine
 62
7
  6
CONTINUOUS
 10
428.683268913
 20
391.6218211222
 11
428.683268913
 21
393.1218211222
  0
LINE
  5
303
100
AcDbEntity
  8
X48002256_BL6
100
AcDbLine
 62
7
  6
CONTINUOUS
 10
431.683268913
 20
391.6218211222
 11
431.683268913
 21
393.1218211222
  0
LINE
  5
304
100
AcDbEntity
  8
X48002256_BL6
100
AcDbLine
 62
3
  6
CONTINUOUS
 10
431.683268913
 20
391.6218211222
 11
428.683268913
 21
391.6218211222
  0
LINE
  5
305
100
AcDbEntity
  8
X48002256_BL6
100
AcDbLine
 62
7
  6
CONTINUOUS
 10
431.683268913
 20
393.1218211222
 11
428.683268913
 21
393.1218211222
  0
ENDBLK
  5
306
100
AcDbEntity
  8
0
  6
BYBLOCK
 62
0
100
AcDbBlockEnd
  0
BLOCK
  5
307
100
AcDbEntity
  8
X48002257_BL7
100
AcDbBlockBegin
  2
X48002257_BL7
 70
64
 10
306.7596564681
 20
189.2275869135
  3
X48002257_BL7
  1

  0
LINE
  5
308
100
AcDbEntity
  8
X48002257_BL7
100
AcDbLine
 62
7
  6
CONTINUOUS
 10
466.3111199701
 20
354.5907827169
 11
465.9046556187
 21
354.2657900376
  0
LINE
  5
309
100
AcDbEntity
  8
X48002257_BL7
100
AcDbLine
 62
9
  6
CONTINUOUS
 10
466.6233627344
 20
354.2002645277
 11
466.216898383
 21
353.8752718483
  0
LINE
  5
30A
100
AcDbEntity
  8
X48002257_BL7
100
AcDbLine
 62
9
  6
CONTINUOUS
 10
467.326123688
 20
354.1219891026
 11
467.7166418736
 21
354.4342318715
  0
LINE
  5
30B
100
AcDbEntity
  8
X48002257_BL7
100
AcDbLine
 62
9
  6
CONTINUOUS
 10
466.1262037872
 20
353.188710615
 11
465.7232664272
 21
352.892667571
  0
LINE
  5
30C
100
AcDbEntity
  8
X48002257_BL7
100
AcDbLine
 62
9
  6
CONTINUOUS
 10
470.7852052968
 20
338.9628314523
 11
476.459439277
 21
343.4997225671
  0
LINE
  5
30D
100
AcDbEntity
  8
X48002257_BL7
100
AcDbLine
 62
9
  6
CONTINUOUS
 10
476.6338358973
 20
310.214387432
 11
492.3717189253
 21
322.7977708323
  0
LINE
  5
30E
100
AcDbEntity
  8
X48002257_BL7
100
AcDbLine
 62
7
  6
CONTINUOUS
 10
464.9327041267
 20
324.0481901196
 11
523.3386703378
 21
251.0005657148
  0
LINE
  5
30F
100
AcDbEntity
  8
X48002257_BL7
100
AcDbLine
 62
9
  6
CONTINUOUS
 10
465.6631495955
 20
323.9352900114
 11
523.7688902925
 21
251.2631539688
  0
LINE
  5
310
100
AcDbEntity
  8
X48002257_BL7
100
AcDbLine
 62
7
  6
CONTINUOUS
 10
528.9901352126
 20
242.3842912865
 11
529.007375494
 21
242.3512302856
  0
LINE
  5
311
100
AcDbEntity
  8
X48002257_BL7
100
AcDbLine
 62
9
  6
CONTINUOUS
 10
466.216898383
 20
353.8752718483
 11
465.9046556172
 21
354.2657900363
  0
LINE
  5
312
100
AcDbEntity
  8
X48002257_BL7
100
AcDbLine
 62
9
  6
CONTINUOUS
 10
466.6233627344
 20
354.2002645277
 11
466.3111199701
 21
354.5907827169
  0
LINE
  5
313
100
AcDbEntity
  8
X48002257_BL7
100
AcDbLine
 62
9
  6
CONTINUOUS
 10
555.3785832135
 20
243.9958597259
 11
467.326123688
 21
354.1219891026
  0
LINE
  5
314
100
AcDbEntity
  8
X48002257_BL7
100
AcDbLine
 62
7
  6
CONTINUOUS
 10
555.7691014028
 20
244.3081024902
 11
467.7166418772
 21
354.4342318669
  0
LINE
  5
315
100
AcDbEntity
  8
X48002257_BL7
100
AcDbLine
 62
9
  6
CONTINUOUS
 10
470.7852052968
 20
338.9628314523
 11
470.2852054053
 21
338.9631608909
  0
LINE
  5
316
100
AcDbEntity
  8
X48002257_BL7
100
AcDbLine
 62
9
  6
CONTINUOUS
 10
530.6325861239
 20
240.2143238678
 11
547.9630322959
 21
254.0710572222
  0
LINE
  5
317
100
AcDbEntity
  8
X48002257_BL7
100
AcDbLine
 62
9
  6
CONTINUOUS
 10
530.6325861239
 20
240.2143238678
 11
530.1798751635
 21
240.0020674514
  0
LINE
  5
318
100
AcDbEntity
  8
X48002257_BL7
100
AcDbLine
 62
9
  6
CONTINUOUS
 10
530.8647857087
 20
239.7125905684
 11
530.4099828601
 21
239.5048542718
  0
LINE
  5
319
100
AcDbEntity
  8
X48002257_BL7
100
AcDbLine
 62
9
  6
CONTINUOUS
 10
555.3785832135
 20
243.9958597259
 11
555.7691014028
 21
244.3081024902
  0
LINE
  5
31A
100
AcDbEntity
  8
X48002257_BL7
100
AcDbLine
 62
9
  6
CONTINUOUS
 10
534.8451439308
 20
227.5821229322
 11
535.7234222904
 21
228.2833229882
  0
LINE
  5
31B
100
AcDbEntity
  8
X48002257_BL7
100
AcDbLine
 62
9
  6
CONTINUOUS
 10
548.1856057413
 20
219.3248239805
 11
547.9071050999
 21
218.9095681645
  0
LINE
  5
31C
100
AcDbEntity
  8
X48002257_BL7
100
AcDbLine
 62
9
  6
CONTINUOUS
 10
562.8295409023
 20
231.0335303099
 11
563.2958996282
 21
231.2138343275
  0
LWPOLYLINE
  5
31D
100
AcDbEntity
  8
X48002257_BL7
100
AcDbPolyline
 62
9
  6
CONTINUOUS
 90
5
 70
0
 10
50.223413308
 20
354.1219891026
 10
50.2295691194
 20
354.1708345603
 10
50.2478849933
 20
354.2184773145
 10
50.277909956
 20
354.263744241
 10
50.3189047154
 20
354.3055207126
  0
LINE
  5
31E
100
AcDbEntity
  8
X48002257_BL7
100
AcDbLine
 62
7
  6
CONTINUOUS
 10
139.473413308
 20
217.1587533238
 11
117.473413308
 21
217.1587533238
  0
LWPOLYLINE
  5
31F
100
AcDbEntity
  8
X48002257_BL7
100
AcDbPolyline
 62
9
  6
CONTINUOUS
 90
15
 70
0
 10
50.223413308
 20
338.9628314523
 10
50.2406077115
 20
337.6416488979
 10
50.2889360592
 20
336.3268652576
 10
50.3638157952
 20
335.0168941312
 10
50.4603232505
 20
333.7187010474
 10
50.5742720243
 20
332.4266682638
 10
50.6983765757
 20
331.1756426103
 10
50.8236882716
 20
329.9972017479
 10
50.9458435626
 20
328.8936557371
 10
51.0592990551
 20
327.880718577
 10
51.162585921
 20
326.9493644591
 10
51.2543070565
 20
326.1000920675
 10
51.3345997221
 20
325.3206085669
 10
51.4053242699
 20
324.5976517904
 10
51.4641433609
 20
323.9352900114
  0
LWPOLYLINE
  5
320
100
AcDbEntity
  8
X48002257_BL7
100
AcDbPolyline
 62
7
  6
CONTINUOUS
 90
8
 70
0
 10
50.2234150547
 20
338.9628314344
 10
50.238108679
 20
337.7403789092
 10
50.2872259367
 20
336.3540952965
 10
50.3656975977
 20
334.9741786429
 10
50.4680008299
 20
333.6051835621
 10
50.5885044284
 20
332.2514488198
 10
50.721592092
 20
330.9173960901
 10
50.8616237362
 20
329.6073977019
  0
LINE
  5
321
100
AcDbEntity
  8
X48002257_BL7
100
AcDbLine
 62
7
  6
CONTINUOUS
 10
50.223413308
 20
338.9628314523
 11
50.223413308
 21
354.3097268234
  0
LINE
  5
322
100
AcDbEntity
  8
X48002257_BL7
100
AcDbLine
 62
9
  6
CONTINUOUS
 10
50.723413308
 20
343.4997225671
 11
50.723413308
 21
354.8097463384
  0
LWPOLYLINE
  5
323
100
AcDbEntity
  8
X48002257_BL7
100
AcDbPolyline
 62
9
  6
CONTINUOUS
 90
11
 70
0
 10
50.223413308
 20
343.1874798028
 10
50.2295691377
 20
343.2363253326
 10
50.2478850498
 20
343.2839681234
 10
50.2779100459
 20
343.3292350514
 10
50.3189048108
 20
343.3710114948
 10
50.3698599174
 20
343.4082687788
 10
50.4295206818
 20
343.4400895055
 10
50.4964180581
 20
343.4656901429
 10
50.5689048108
 20
343.4844403185
 10
50.6451960755
 20
343.4958783405
 10
50.723413308
 20
343.4997225671
  0
LWPOLYLINE
  5
324
100
AcDbEntity
  8
X48002257_BL7
100
AcDbPolyline
 62
9
  6
CONTINUOUS
 90
7
 70
0
 10
50.3189047154
 20
354.3055207126
 10
50.3698598793
 20
354.3427780549
 10
50.4295207312
 20
354.3745988277
 10
50.4964181641
 20
354.4001994762
 10
50.5689049366
 20
354.4189496438
 10
50.6451961659
 20
354.430387651
 10
50.723413308
 20
354.4342318715
  0
LINE
  5
325
100
AcDbEntity
  8
X48002257_BL7
100
AcDbLine
 62
9
  6
CONTINUOUS
 10
117.473413308
 20
231.2138343275
 11
139.473413308
 21
231.2138343275
  0
LINE
  5
326
100
AcDbEntity
  8
X48002257_BL7
100
AcDbLine
 62
7
  6
CONTINUOUS
 10
51.4510642172
 20
323.9350041689
 11
51.4510741736
 21
323.9349455881
  0
LWPOLYLINE
  5
327
100
AcDbEntity
  8
X48002257_BL7
100
AcDbPolyline
 62
7
  6
CONTINUOUS
 90
5
 70
0
 10
50.8616237362
 20
329.6073977019
 10
51.1406087875
 20
327.0774320315
 10
51.2690595853
 20
325.8665001056
 10
51.3836705531
 20
324.6979495637
 10
51.4510666808
 20
323.9349976969
  0
LWPOLYLINE
  5
328
100
AcDbEntity
  8
X48002257_BL7
100
AcDbPolyline
 62
9
  6
CONTINUOUS
 90
5
 70
0
 10
65.442393358
 20
310.214387432
 10
65.4454263394
 20
310.1697257547
 10
65.4544506015
 20
310.1345315013
 10
65.469243937
 20
310.1096712709
 10
65.4865251878
 20
310.0969329858
  0
LINE
  5
329
100
AcDbEntity
  8
X48002257_BL7
100
AcDbLine
 62
9
  6
CONTINUOUS
 10
65.442393358
 20
310.214387432
 11
65.442393358
 21
322.7977708323
  0
LWPOLYLINE
  5
32A
100
AcDbEntity
  8
X48002257_BL7
100
AcDbPolyline
 62
9
  6
CONTINUOUS
 90
11
 70
0
 10
65.442393358
 20
322.7977708323
 10
65.4454263394
 20
322.8508002146
 10
65.4544506015
 20
322.9108915426
 10
65.469243937
 20
322.9765651683
 10
65.4894420849
 20
323.0462039893
 10
65.5145476998
 20
323.1180932665
 10
65.5439425982
 20
323.1904628473
 10
65.57690298
 20
323.2615307525
 10
65.6126172512
 20
323.3295470544
 10
65.650206008
 20
323.3928369659
 10
65.6887436905
 20
323.4498420794
  0
LWPOLYLINE
  5
32B
100
AcDbEntity
  8
X48002257_BL7
100
AcDbPolyline
 62
9
  6
CONTINUOUS
 90
15
 70
0
 10
51.4641433609
 20
323.9352900114
 10
51.9638621746
 20
322.7393365893
 10
52.546486779
 20
321.5633603481
 10
53.2111631213
 20
320.4104992196
 10
53.9556968136
 20
319.2856134609
 10
54.7775326313
 20
318.1930583168
 10
55.6739652163
 20
317.1366057409
 10
56.6418496398
 20
316.1199277486
 10
57.6775932076
 20
315.1465597547
 10
58.771590968
 20
314.2243032483
 10
59.9366153629
 20
313.3425593291
 10
61.1871353989
 20
312.4944896112
 10
62.5206027983
 20
311.687361453
 10
63.9398758475
 20
310.9249799426
 10
65.442393358
 20
310.214387432
  0
LWPOLYLINE
  5
32C
100
AcDbEntity
  8
X48002257_BL7
100
AcDbPolyline
 62
7
  6
CONTINUOUS
 90
14
 70
0
 10
51.4510836507
 20
323.9349203881
 10
51.8626780961
 20
322.9248081058
 10
52.4510580497
 20
321.6975999917
 10
53.1259423257
 20
320.4974448403
 10
53.8852825474
 20
319.3282552369
 10
54.7267669455
 20
318.1937823489
 10
55.6478086858
 20
317.0976550814
 10
56.6455602302
 20
316.0433659947
 10
57.7168977112
 20
315.0342870699
 10
58.8584491259
 20
314.0736355292
 10
60.0666281249
 20
313.164448514
 10
61.3376117559
 20
312.3096039962
 10
62.667411774
 20
311.5117727298
 10
64.0517921738
 20
310.7734719958
  0
LINE
  5
32D
100
AcDbEntity
  8
X48002257_BL7
100
AcDbLine
 62
9
  6
CONTINUOUS
 10
117.473413308
 20
244.3081024902
 11
139.473413308
 21
244.3081024902
  0
LWPOLYLINE
  5
32E
100
AcDbEntity
  8
X48002257_BL7
100
AcDbPolyline
 62
7
  6
CONTINUOUS
 90
13
 70
0
 10
83.723413308
 20
343.1874798028
 10
83.7524828698
 20
342.6019585092
 10
83.8393244486
 20
342.0207758399
 10
83.9832023795
 20
341.4470131407
 10
84.1829638607
 20
340.8841360837
 10
84.4370029253
 20
340.3356110012
 10
84.7436336737
 20
339.8042302665
 10
85.1007693927
 20
339.2929770941
 10
85.5063620721
 20
338.8043303976
 10
85.9581301951
 20
338.3407860042
 10
86.4535582548
 20
337.9047903791
 10
86.9901007894
 20
337.4985582256
 10
87.5644617593
 20
337.1245802664
  0
LWPOLYLINE
  5
32F
100
AcDbEntity
  8
X48002257_BL7
100
AcDbPolyline
 62
9
  6
CONTINUOUS
 90
13
 70
0
 10
83.223413308
 20
343.4997225671
 10
83.2536345776
 20
342.8770408743
 10
83.3440738435
 20
342.2600349464
 10
83.4952796088
 20
341.6465218249
 10
83.7056063639
 20
341.0430503856
 10
83.9742604766
 20
340.4545321689
 10
84.2992348168
 20
339.8836962223
 10
84.67911218
 20
339.3339276666
 10
85.1113291571
 20
338.8081698219
 10
85.594346951
 20
338.3093303844
 10
86.1236745208
 20
337.8409013462
 10
86.6936823966
 20
337.4079015846
 10
87.3062470682
 20
337.0086581403
  0
LINE
  5
330
100
AcDbEntity
  8
X48002257_BL7
100
AcDbLine
 62
9
  6
CONTINUOUS
 10
83.223413308
 20
354.8097463384
 11
83.223413308
 21
343.4997225671
  0
LINE
  5
331
100
AcDbEntity
  8
X48002257_BL7
100
AcDbLine
 62
7
  6
CONTINUOUS
 10
83.723413308
 20
354.3097268234
 11
83.723413308
 21
343.1874798028
  0
LWPOLYLINE
  5
332
100
AcDbEntity
  8
X48002257_BL7
100
AcDbPolyline
 62
9
  6
CONTINUOUS
 90
11
 70
0
 10
83.723413308
 20
343.1874798028
 10
83.7172574786
 20
343.2363253314
 10
83.6989415671
 20
343.2839681216
 10
83.6689165716
 20
343.3292350496
 10
83.6279218068
 20
343.3710114934
 10
83.5769666993
 20
343.4082687784
 10
83.5173059334
 20
343.4400895058
 10
83.4504085562
 20
343.4656901435
 10
83.3779218032
 20
343.4844403189
 10
83.3016305391
 20
343.4958783407
 10
83.223413308
 20
343.4997225671
  0
LWPOLYLINE
  5
333
100
AcDbEntity
  8
X48002257_BL7
100
AcDbPolyline
 62
9
  6
CONTINUOUS
 90
5
 70
0
 10
83.723413308
 20
354.1219891026
 10
83.7172574783
 20
354.1708346324
 10
83.6989415661
 20
354.2184774232
 10
83.6689165701
 20
354.2637443512
 10
83.6279218052
 20
354.3055207946
  0
LWPOLYLINE
  5
334
100
AcDbEntity
  8
X48002257_BL7
100
AcDbPolyline
 62
9
  6
CONTINUOUS
 90
23
 70
0
 10
65.442393358
 20
310.214387432
 10
69.1258228711
 20
308.5043926147
 10
72.7136389895
 20
306.6745882265
 10
76.1994573198
 20
304.7282303389
 10
79.57707496
 20
302.6687824323
 10
82.8404815378
 20
300.4999092349
 10
85.983869968
 20
298.2254701586
 10
89.0016468465
 20
295.8495123645
 10
91.8884417666
 20
293.3762640877
 10
94.6391173965
 20
290.8101268045
 10
97.248779427
 20
288.1556665753
 10
99.7127842652
 20
285.4176067448
 10
102.0267473693
 20
282.6008195239
 10
104.1865512568
 20
279.7103170934
 10
106.1883525107
 20
276.7512431245
 10
108.0285889289
 20
273.7288632765
 10
109.7039859111
 20
270.648555707
 10
111.2115621584
 20
267.5158016745
 10
112.5486349694
 20
264.3361758268
 10
113.7128250602
 20
261.1153361975
 10
114.7020607796
 20
257.8590141848
 10
115.5145818063
 20
254.5730043325
 10
116.1489422914
 20
251.2631539688
  0
LINE
  5
335
100
AcDbEntity
  8
X48002257_BL7
100
AcDbLine
 62
7
  6
CONTINUOUS
 10
64.0517921738
 20
310.7734719958
 11
65.4865251878
 21
310.0969329858
  0
LWPOLYLINE
  5
336
100
AcDbEntity
  8
X48002257_BL7
100
AcDbPolyline
 62
7
  6
CONTINUOUS
 90
23
 70
0
 10
116.1514855298
 20
251.2318274404
 10
115.5179539594
 20
254.5366464249
 10
114.7063088569
 20
257.8175195045
 10
113.7180253329
 20
261.0686272996
 10
112.5548816161
 20
264.2842275018
 10
111.2189620235
 20
267.4586353648
 10
109.712665987
 20
270.5862113327
 10
108.0386962281
 20
273.6613987209
 10
106.2000493385
 20
276.6787409227
 10
104.2000339783
 20
279.6328547199
 10
102.0421799687
 20
282.5185616399
 10
99.7302962891
 20
285.3307826981
 10
97.2684895373
 20
288.0645271872
 10
94.6611125558
 20
290.714959761
 10
91.9128170606
 20
293.2773479879
 10
89.028514228
 20
295.747113068
 10
86.0132924625
 20
298.1198954378
 10
82.8724794771
 20
300.3914923696
 10
79.6116391972
 20
302.5578653747
 10
76.2365335407
 20
304.6151686346
 10
72.7531608656
 20
306.5597265484
 10
69.167691527
 20
308.3880750861
 10
65.4865251878
 20
310.0969329858
  0
LWPOLYLINE
  5
337
100
AcDbEntity
  8
X48002257_BL7
100
AcDbPolyline
 62
7
  6
CONTINUOUS
 90
5
 70
0
 10
116.1514855078
 20
251.2318244945
 10
116.3924259889
 20
249.6112808301
 10
116.6055263754
 20
247.80730952
 10
116.7698276536
 20
245.9485021727
 10
116.8855273514
 20
244.0383969082
  0
LWPOLYLINE
  5
338
100
AcDbEntity
  8
X48002257_BL7
100
AcDbPolyline
 62
9
  6
CONTINUOUS
 90
5
 70
0
 10
116.1489422914
 20
251.2631539688
 10
116.403221485
 20
249.5430884853
 10
116.6100383184
 20
247.773338757
 10
116.7699233314
 20
245.9546790334
 10
116.883391222
 20
244.0880452031
  0
LINE
  5
339
100
AcDbEntity
  8
X48002257_BL7
100
AcDbLine
 62
9
  6
CONTINUOUS
 10
116.1489422914
 20
251.2631539688
 11
116.1514855298
 21
251.2318274404
  0
LWPOLYLINE
  5
33A
100
AcDbEntity
  8
X48002257_BL7
100
AcDbPolyline
 62
9
  6
CONTINUOUS
 90
3
 70
0
 10
116.883391222
 20
244.0880452031
 10
116.9510127213
 20
242.1743548735
 10
116.9734132993
 20
240.2155638366
  0
LWPOLYLINE
  5
33B
100
AcDbEntity
  8
X48002257_BL7
100
AcDbPolyline
 62
7
  6
CONTINUOUS
 90
3
 70
0
 10
116.8855273514
 20
244.0383969082
 10
116.9530668597
 20
242.0806571679
 10
116.9734128336
 20
240.2155611807
  0
LWPOLYLINE
  5
33C
100
AcDbEntity
  8
X48002257_BL7
100
AcDbPolyline
 62
9
  6
CONTINUOUS
 90
25
 70
0
 10
116.973413308
 20
253.7588144579
 10
116.8751739337
 20
257.2472142157
 10
116.5806458288
 20
260.728866568
 10
116.090398682
 20
264.1970371437
 10
115.4053807454
 20
267.6450176794
 10
114.5269169911
 20
271.0661389937
 10
113.4567066026
 20
274.4537837056
 10
112.1968196152
 20
277.8013993243
 10
110.7496931169
 20
281.102510399
 10
109.1181265226
 20
284.3507312989
 10
107.3052755214
 20
287.5397797104
 10
105.3146464263
 20
290.6634876061
 10
103.1500896414
 20
293.7158129061
 10
100.8157919235
 20
296.6908517076
 10
98.3162683418
 20
299.5828495958
 10
95.6563536384
 20
302.3862126803
 10
92.841192415
 20
305.0955188794
 10
89.8762293592
 20
307.7055281067
 10
86.7671998069
 20
310.2111915157
 10
83.5201176864
 20
312.6076622637
 10
80.1412636079
 20
314.8903050199
 10
76.6371731989
 20
317.0547045344
 10
73.0146241741
 20
319.0966743708
 10
69.2806234019
 20
321.0122648775
 10
65.442393358
 20
322.7977708323
  0
LWPOLYLINE
  5
33D
100
AcDbEntity
  8
X48002257_BL7
100
AcDbPolyline
 62
9
  6
CONTINUOUS
 90
25
 70
0
 10
117.473413308
 20
254.0710572222
 10
117.3746489597
 20
257.5770349986
 10
117.0792167953
 20
261.0709506231
 10
116.5865254601
 20
264.5565934043
 10
115.8983490178
 20
268.0225954165
 10
115.0155364685
 20
271.4608045848
 10
113.9402716477
 20
274.8653626654
 10
112.6740008016
 20
278.2298957819
 10
111.2197856978
 20
281.5477987579
 10
109.579946242
 20
284.8123635087
 10
107.7581542665
 20
288.0175248832
 10
105.7573897882
 20
291.1569488205
 10
103.5820481588
 20
294.2247339667
 10
101.2358394846
 20
297.2147199142
 10
98.7237995192
 20
300.1213497635
 10
96.0503377805
 20
302.938728514
 10
93.2210430813
 20
305.6617100617
 10
90.2408637559
 20
308.2848106047
 10
87.116130757
 20
310.8031482369
 10
83.8526948258
 20
313.2113875707
 10
80.4569449312
 20
315.5054052489
 10
76.9343323773
 20
317.680830534
 10
73.2935209004
 20
319.73307018
 10
69.5463014428
 20
321.6553177586
 10
65.6887436905
 20
323.4498420794
  0
LINE
  5
33E
100
AcDbEntity
  8
X48002257_BL7
100
AcDbLine
 62
7
  6
CONTINUOUS
 10
116.973413308
 20
217.6588408244
 11
116.973413308
 21
253.7588144579
  0
LINE
  5
33F
100
AcDbEntity
  8
X48002257_BL7
100
AcDbLine
 62
9
  6
CONTINUOUS
 10
117.473413308
 20
217.1587533238
 11
117.473413308
 21
254.0710572222
  0
LWPOLYLINE
  5
340
100
AcDbEntity
  8
X48002257_BL7
100
AcDbPolyline
 62
9
  6
CONTINUOUS
 90
11
 70
0
 10
116.973413308
 20
253.7588144579
 10
116.9795691377
 20
253.8076599877
 10
116.9978850498
 20
253.8553027784
 10
117.0279100459
 20
253.9005697065
 10
117.0689048108
 20
253.9423461499
 10
117.1198599174
 20
253.9796034339
 10
117.1795206818
 20
254.0114241606
 10
117.2464180581
 20
254.037024798
 10
117.3189048108
 20
254.0557749735
 10
117.3951960755
 20
254.0672129956
 10
117.473413308
 20
254.0710572222
  0
LWPOLYLINE
  5
341
100
AcDbEntity
  8
X48002257_BL7
100
AcDbPolyline
 62
9
  6
CONTINUOUS
 90
11
 70
0
 10
116.973413308
 20
243.9958597259
 10
116.9795691377
 20
244.0447052557
 10
116.9978850498
 20
244.0923480465
 10
117.0279100459
 20
244.1376149745
 10
117.0689048108
 20
244.1793914179
 10
117.1198599174
 20
244.2166487019
 10
117.1795206818
 20
244.2484694286
 10
117.2464180581
 20
244.274070066
 10
117.3189048108
 20
244.2928202416
 10
117.3951960755
 20
244.3042582636
 10
117.473413308
 20
244.3081024902
  0
LWPOLYLINE
  5
342
100
AcDbEntity
  8
X48002257_BL7
100
AcDbPolyline
 62
9
  6
CONTINUOUS
 90
19
 70
0
 10
65.6887436905
 20
323.4498420794
 10
64.2107088745
 20
324.1487898312
 10
62.7904686684
 20
324.9126576032
 10
61.42512833
 20
325.7432181932
 10
60.123372086
 20
326.6351532076
 10
58.8919225748
 20
327.5847554462
 10
57.7337698194
 20
328.5889641262
 10
56.6529693018
 20
329.6448369011
 10
55.6530472834
 20
330.7483112614
 10
54.7380076275
 20
331.8957016948
 10
53.9104730096
 20
333.082934863
 10
53.1736895901
 20
334.3062211854
 10
52.5297907772
 20
335.5610238761
 10
51.9815652745
 20
336.8429450459
 10
51.5302933569
 20
338.1477784239
 10
51.1779121486
 20
339.4719840803
 10
50.9252398056
 20
340.8091651015
 10
50.7739231751
 20
342.1507974858
 10
50.723413308
 20
343.4997225671
  0
LWPOLYLINE
  5
343
100
AcDbEntity
  8
X48002257_BL7
100
AcDbPolyline
 62
9
  6
CONTINUOUS
 90
19
 70
0
 10
65.442393358
 20
322.7977708323
 10
63.9377025971
 20
323.5094604184
 10
62.4890057469
 20
324.2888074389
 10
61.1012837629
 20
325.1331323181
 10
59.7793079116
 20
326.0395320997
 10
58.5276233662
 20
327.0048904472
 10
57.3505338689
 20
328.0258881172
 10
56.2520866119
 20
329.0990145734
 10
55.2360582982
 20
330.2205801076
 10
54.3059423807
 20
331.3867282785
 10
53.46493641
 20
332.5934500196
 10
52.715931689
 20
333.8365968234
 10
52.06150368
 20
335.1118942698
 10
51.5039025208
 20
336.4149575757
 10
51.0450454535
 20
337.7413063951
 10
50.686510187
 20
339.0863802668
 10
50.4295294071
 20
340.4455546106
 10
50.2749866628
 20
341.8141563124
 10
50.223413308
 20
343.1874798028
  0
LWPOLYLINE
  5
344
100
AcDbEntity
  8
X48002257_BL7
100
AcDbPolyline
 62
9
  6
CONTINUOUS
 90
11
 70
0
 10
139.973413308
 20
231.0335303099
 10
139.9672574784
 20
231.0617360722
 10
139.9489415664
 20
231.0892473151
 10
139.9189165705
 20
231.1153866206
 10
139.8779218054
 20
231.1395103522
 10
139.8269666983
 20
231.1610245035
 10
139.7673059332
 20
231.1793993245
 10
139.7004085566
 20
231.1941823661
 10
139.6279218039
 20
231.2050096209
 10
139.5516305397
 20
231.2116144859
 10
139.473413308
 20
231.2138343275
  0
LWPOLYLINE
  5
345
100
AcDbEntity
  8
X48002257_BL7
100
AcDbPolyline
 62
9
  6
CONTINUOUS
 90
11
 70
0
 10
116.973413308
 20
231.0335303099
 10
116.9795691377
 20
231.0617360724
 10
116.9978850498
 20
231.0892473154
 10
117.0279100459
 20
231.1153866209
 10
117.0689048108
 20
231.1395103523
 10
117.1198599174
 20
231.1610245034
 10
117.1795206818
 20
231.1793993243
 10
117.2464180581
 20
231.1941823659
 10
117.3189048108
 20
231.2050096207
 10
117.3951960755
 20
231.2116144858
 10
117.473413308
 20
231.2138343275
  0
LWPOLYLINE
  5
346
100
AcDbEntity
  8
X48002257_BL7
100
AcDbPolyline
 62
9
  6
CONTINUOUS
 90
11
 70
0
 10
139.973413308
 20
243.9958597259
 10
139.9672574783
 20
244.0447052557
 10
139.9489415661
 20
244.0923480464
 10
139.9189165701
 20
244.1376149745
 10
139.8779218052
 20
244.1793914179
 10
139.8269666986
 20
244.2166487019
 10
139.7673059341
 20
244.2484694286
 10
139.7004085578
 20
244.274070066
 10
139.6279218051
 20
244.2928202416
 10
139.5516305405
 20
244.3042582636
 10
139.473413308
 20
244.3081024902
  0
LWPOLYLINE
  5
347
100
AcDbEntity
  8
X48002257_BL7
100
AcDbPolyline
 62
9
  6
CONTINUOUS
 90
11
 70
0
 10
139.973413308
 20
253.7588144579
 10
139.9672574783
 20
253.8076599877
 10
139.9489415661
 20
253.8553027784
 10
139.9189165701
 20
253.9005697065
 10
139.8779218052
 20
253.9423461499
 10
139.8269666986
 20
253.9796034339
 10
139.7673059341
 20
254.0114241606
 10
139.7004085578
 20
254.037024798
 10
139.6279218052
 20
254.0557749735
 10
139.5516305405
 20
254.0672129956
 10
139.473413308
 20
254.0710572222
  0
LWPOLYLINE
  5
348
100
AcDbEntity
  8
X48002257_BL7
100
AcDbPolyline
 62
7
  6
CONTINUOUS
 90
25
 70
0
 10
139.973413308
 20
253.7588144579
 10
139.8758830358
 20
257.7657490023
 10
139.5834246528
 20
261.7669635259
 10
139.0964518182
 20
265.7566326938
 10
138.4156586362
 20
269.7289770872
 10
137.5420248164
 20
273.678217278
 10
136.4767895735
 20
277.5986867009
 10
135.2214511574
 20
281.4847778229
 10
133.7778246719
 20
285.3307882688
 10
132.1479949834
 20
289.1311103267
 10
130.3343137132
 20
292.8802208124
 10
128.3394127371
 20
296.5726509912
 10
126.1661437952
 20
300.2030942475
 10
123.8175894728
 20
303.7663572454
 10
121.2971990701
 20
307.2571699671
 10
118.608668915
 20
310.6704014386
 10
115.7558922101
 20
314.0011072992
 10
112.7430323162
 20
317.2444294201
 10
109.5744147365
 20
320.395713079
 10
106.2545624145
 20
323.4504498667
 10
102.7883684921
 20
326.4041304832
 10
99.180934535
 20
329.2524174803
 10
95.4374807205
 20
331.9912043284
 10
91.5634570022
 20
334.6165185351
 10
87.5644617593
 20
337.1245802664
  0
LINE
  5
349
100
AcDbEntity
  8
X48002257_BL7
100
AcDbLine
 62
9
  6
CONTINUOUS
 10
139.473413308
 20
254.0710572222
 11
139.473413308
 21
217.1587533238
  0
LINE
  5
34A
100
AcDbEntity
  8
X48002257_BL7
100
AcDbLine
 62
7
  6
CONTINUOUS
 10
139.973413308
 20
253.7588144579
 11
139.973413308
 21
217.6587764497
  0
LWPOLYLINE
  5
34B
100
AcDbEntity
  8
X48002257_BL7
100
AcDbPolyline
 62
9
  6
CONTINUOUS
 90
8
 70
0
 10
87.5644617593
 20
337.1245802664
 10
87.5534659513
 20
337.1300128506
 10
87.5223242951
 20
337.1357698603
 10
87.4858621005
 20
337.1307085045
 10
87.4449771877
 20
337.1149534106
 10
87.4006762789
 20
337.0888925212
 10
87.3540502096
 20
337.0531675419
 10
87.3062470682
 20
337.0086581403
  0
LWPOLYLINE
  5
34C
100
AcDbEntity
  8
X48002257_BL7
100
AcDbPolyline
 62
9
  6
CONTINUOUS
 90
25
 70
0
 10
87.3062470682
 20
337.0086581403
 10
91.2862364147
 20
334.5126360431
 10
95.1378455786
 20
331.9029145022
 10
98.8641843196
 20
329.1771879287
 10
102.4559233585
 20
326.3423730893
 10
105.9061065476
 20
323.403282465
 10
109.2107242526
 20
320.3639233242
 10
112.3649154369
 20
317.2282775325
 10
115.3642781589
 20
314.0012337797
 10
118.2040263484
 20
310.6873644785
 10
120.8804513553
 20
307.2916003266
 10
123.3893418521
 20
303.8186614639
 10
125.7274198011
 20
300.2737519769
 10
127.8909207778
 20
296.6618578887
 10
129.8770926143
 20
292.9883535293
 10
131.6826648964
 20
289.2584458034
 10
133.3054279387
 20
285.4776230094
 10
134.7426514537
 20
281.6511914053
 10
135.9926268338
 20
277.7849040162
 10
137.053090187
 20
273.8844697046
 10
137.9229770786
 20
269.9553272155
 10
138.6006770054
 20
266.0024043074
 10
139.0855642801
 20
262.032942802
 10
139.3763310657
 20
258.0569376579
 10
139.473413308
 20
254.0710572222
  0
LWPOLYLINE
  5
34D
100
AcDbEntity
  8
X48002257_BL7
100
AcDbPolyline
 62
7
  6
CONTINUOUS
 90
3
 70
0
 10
51.4510741736
 20
323.9349455881
 10
51.4543049665
 20
323.9346314011
 10
51.4641433609
 20
323.9352900114
  0
LWPOLYLINE
  5
34E
100
AcDbEntity
  8
X48002257_BL7
100
AcDbPolyline
 62
9
  6
CONTINUOUS
 90
7
 70
0
 10
83.6279218052
 20
354.3055207946
 10
83.5769666986
 20
354.3427780786
 10
83.5173059341
 20
354.3745988053
 10
83.4504085578
 20
354.4001994428
 10
83.3779218051
 20
354.4189496183
 10
83.3016305405
 20
354.4303876404
 10
83.223413308
 20
354.4342318669
  0
LINE
  5
34F
100
AcDbEntity
  8
X48002257_BL7
100
AcDbLine
 62
9
  6
CONTINUOUS
 10
50.723413308
 20
354.4342318669
 11
83.223413308
 21
354.4342318669
  0
LINE
  5
350
100
AcDbEntity
  8
X48002257_BL7
100
AcDbLine
 62
7
  6
CONTINUOUS
 10
50.723413308
 20
354.8097463384
 11
83.223413308
 21
354.8097463384
  0
LWPOLYLINE
  5
351
100
AcDbEntity
  8
X48002257_BL7
100
AcDbPolyline
 62
9
  6
CONTINUOUS
 90
11
 70
0
 10
50.223413308
 20
121.012993105
 10
50.2295691377
 20
121.0618386348
 10
50.2478850498
 20
121.1094814256
 10
50.2779100459
 20
121.1547483536
 10
50.3189048108
 20
121.196524797
 10
50.3698599174
 20
121.233782081
 10
50.4295206819
 20
121.2656028077
 10
50.4964180582
 20
121.2912034452
 10
50.568904811
 20
121.3099536207
 10
50.6451960756
 20
121.3213916427
 10
50.723413308
 20
121.3252358693
  0
LWPOLYLINE
  5
352
100
AcDbEntity
  8
X48002257_BL7
100
AcDbPolyline
 62
9
  6
CONTINUOUS
 90
11
 70
0
 10
50.223413308
 20
111.5674347518
 10
50.2295691377
 20
111.5063442477
 10
50.2478850498
 20
111.4467579947
 10
50.2779100459
 20
111.3901432039
 10
50.3189048108
 20
111.3378939193
 10
50.3698599174
 20
111.2912966919
 10
50.4295206818
 20
111.2514989
 10
50.4964180581
 20
111.2194804973
 10
50.5689048108
 20
111.1960298831
 10
50.6451960755
 20
111.1817244894
 10
50.723413308
 20
111.1769165625
  0
LWPOLYLINE
  5
353
100
AcDbEntity
  8
X48002257_BL7
100
AcDbPolyline
 62
9
  6
CONTINUOUS
 90
11
 70
0
 10
50.223413308
 20
120.3102321515
 10
50.2295691194
 20
120.2491417376
 10
50.2478849933
 20
120.1895555303
 10
50.277909956
 20
120.1329407414
 10
50.3189047154
 20
120.0806914216
 10
50.3698598793
 20
120.0340941214
 10
50.4295207312
 20
119.9942962717
 10
50.4964181641
 20
119.9622778546
 10
50.5689049366
 20
119.9388272509
 10
50.6451961659
 20
119.9245218793
 10
50.723413308
 20
119.9197139659
  0
LWPOLYLINE
  5
354
100
AcDbEntity
  8
X48002257_BL7
100
AcDbPolyline
 62
7
  6
CONTINUOUS
 90
19
 70
0
 10
50.223413308
 20
111.5674347518
 10
50.274518801
 20
110.4602295997
 10
50.4279083696
 20
109.3555688129
 10
50.6833584554
 20
108.2575948018
 10
51.0404337497
 20
107.1698036397
 10
51.4985476306
 20
106.0955439985
 10
52.0564431308
 20
105.0390196002
 10
52.7126321202
 20
104.0039650706
 10
53.4649245689
 20
102.994491944
 10
54.3107564306
 20
102.0144354516
 10
55.2471025237
 20
101.0675178495
 10
56.2704620345
 20
100.1573426001
 10
57.3771523844
 20
99.2871515734
 10
58.5630039637
 20
98.4601238769
 10
59.82380344
 20
97.6790598738
 10
61.154909014
 20
96.9466805638
 10
62.551662369
 20
96.2653883685
 10
64.0090404349
 20
95.6374776225
 10
65.5220661038
 20
95.0649495516
  0
LINE
  5
355
100
AcDbEntity
  8
X48002257_BL7
100
AcDbLine
 62
7
  6
CONTINUOUS
 10
50.223413308
 20
111.5674347518
 11
50.223413308
 21
121.4194574565
  0
LINE
  5
356
100
AcDbEntity
  8
X48002257_BL7
100
AcDbLine
 62
9
  6
CONTINUOUS
 10
50.723413308
 20
111.1769165625
 11
50.723413308
 21
121.4266840358
  0
LINE
  5
357
100
AcDbEntity
  8
X48002257_BL7
100
AcDbLine
 62
7
  6
CONTINUOUS
 10
139.473413308
 20
23.6454274886
 11
117.473413308
 21
23.6454274886
  0
LINE
  5
358
100
AcDbEntity
  8
X48002257_BL7
100
AcDbLine
 62
9
  6
CONTINUOUS
 10
117.473413308
 20
24.3404562113
 11
139.473413308
 21
24.3404562113
  0
LINE
  5
359
100
AcDbEntity
  8
X48002257_BL7
100
AcDbLine
 62
9
  6
CONTINUOUS
 10
117.473413308
 20
31.8672544366
 11
139.473413308
 21
31.8672544366
  0
LINE
  5
35A
100
AcDbEntity
  8
X48002257_BL7
100
AcDbLine
 62
9
  6
CONTINUOUS
 10
83.223413308
 20
121.4266840358
 11
83.223413308
 21
111.1769165625
  0
LINE
  5
35B
100
AcDbEntity
  8
X48002257_BL7
100
AcDbLine
 62
7
  6
CONTINUOUS
 10
83.723413308
 20
121.4194574565
 11
83.723413308
 21
111.5674347518
  0
LWPOLYLINE
  5
35C
100
AcDbEntity
  8
X48002257_BL7
100
AcDbPolyline
 62
9
  6
CONTINUOUS
 90
11
 70
0
 10
83.723413308
 20
120.3102321515
 10
83.7172574783
 20
120.2491416474
 10
83.6989415661
 20
120.1895553943
 10
83.6689165701
 20
120.1329406035
 10
83.6279218052
 20
120.080691319
 10
83.5769666986
 20
120.0340940916
 10
83.5173059341
 20
119.9942962997
 10
83.4504085578
 20
119.962277897
 10
83.3779218051
 20
119.9388272828
 10
83.3016305405
 20
119.9245218891
 10
83.223413308
 20
119.9197139622
  0
LWPOLYLINE
  5
35D
100
AcDbEntity
  8
X48002257_BL7
100
AcDbPolyline
 62
9
  6
CONTINUOUS
 90
11
 70
0
 10
83.723413308
 20
111.5674347518
 10
83.7172574786
 20
111.5063442492
 10
83.6989415671
 20
111.4467579969
 10
83.6689165716
 20
111.3901432061
 10
83.6279218068
 20
111.3378939211
 10
83.5769666993
 20
111.2912966925
 10
83.5173059334
 20
111.2514988996
 10
83.4504085562
 20
111.2194804966
 10
83.3779218032
 20
111.1960298826
 10
83.3016305391
 20
111.1817244892
 10
83.223413308
 20
111.1769165625
  0
LINE
  5
35E
100
AcDbEntity
  8
X48002257_BL7
100
AcDbLine
 62
9
  6
CONTINUOUS
 10
87.4774850049
 20
122.5857727288
 11
87.4374638491
 21
122.4980593209
  0
LWPOLYLINE
  5
35F
100
AcDbEntity
  8
X48002257_BL7
100
AcDbPolyline
 62
9
  6
CONTINUOUS
 90
5
 70
0
 10
87.7225453986
 20
122.3090189989
 10
87.6959274664
 20
122.2523982088
 10
87.6686019372
 20
122.1955602416
 10
87.6405683949
 20
122.1385047589
 10
87.3948112223
 20
121.6452462172
  0
LWPOLYLINE
  5
360
100
AcDbEntity
  8
X48002257_BL7
100
AcDbPolyline
 62
9
  6
CONTINUOUS
 90
4
 70
0
 10
87.4374638491
 20
122.4980593209
 10
87.3955838077
 20
122.4095478435
 10
87.3518448808
 20
122.3202747698
 10
87.3062470682
 20
122.2302774187
  0
LWPOLYLINE
  5
361
100
AcDbEntity
  8
X48002257_BL7
100
AcDbPolyline
 62
9
  6
CONTINUOUS
 90
12
 70
0
 10
87.3062470682
 20
122.2302774187
 10
87.0768518356
 20
121.8093899708
 10
86.8246588171
 20
121.3840215565
 10
86.5486798081
 20
120.958423596
 10
86.2518794229
 20
120.5337473651
 10
85.9355363276
 20
120.1130725275
 10
85.6037201634
 20
119.6989471651
 10
85.2584934298
 20
119.2955853809
 10
84.9071562188
 20
118.9072971129
 10
84.5501271506
 20
118.5354405974
 10
84.2101131397
 20
118.2022020455
 10
84.123413308
 20
118.1211145626
  0
LWPOLYLINE
  5
362
100
AcDbEntity
  8
X48002257_BL7
100
AcDbPolyline
 62
9
  6
CONTINUOUS
 90
16
 70
0
 10
87.3948112223
 20
121.6452462172
 10
87.1533105854
 20
121.2054598522
 10
86.8908057178
 20
120.7632512604
 10
86.6078301485
 20
120.3210929102
 10
86.3070705605
 20
119.8812263214
 10
85.9905496953
 20
119.4471077175
 10
85.6626285747
 20
119.0214589751
 10
85.327156889
 20
118.6102084736
 10
84.9863158345
 20
118.2136440272
 10
84.6632617162
 20
117.8526034137
 10
84.3715183144
 20
117.542928708
 10
84.1294597469
 20
117.2899862093
 10
83.9484583962
 20
117.1052993429
 10
83.8219312307
 20
116.9752362859
 10
83.7476386001
 20
116.8905787367
 10
83.723413308
 20
116.8511505427
  0
LWPOLYLINE
  5
363
100
AcDbEntity
  8
X48002257_BL7
100
AcDbPolyline
 62
9
  6
CONTINUOUS
 90
3
 70
0
 10
83.9437558902
 20
117.9530869265
 10
83.9065055451
 20
117.9182479117
 10
83.723413308
 20
117.758762529
  0
LWPOLYLINE
  5
364
100
AcDbEntity
  8
X48002257_BL7
100
AcDbPolyline
 62
9
  6
CONTINUOUS
 90
13
 70
0
 10
83.723413308
 20
111.5674347518
 10
83.7523599906
 20
111.0926221205
 10
83.839032457
 20
110.6205583365
 10
83.9829289335
 20
110.1539763321
 10
84.1832163519
 20
109.6955773194
 10
84.4387351696
 20
109.2480151386
 10
84.7480061054
 20
108.8138808634
 10
85.1092386896
 20
108.395687836
 10
85.5203416308
 20
107.9958571121
 10
85.9789349305
 20
107.616703437
 10
86.4823636274
 20
107.260421872
 10
87.0277131913
 20
106.9290750592
 10
87.611826413
 20
106.6245812735
  0
LWPOLYLINE
  5
365
100
AcDbEntity
  8
X48002257_BL7
100
AcDbPolyline
 62
9
  6
CONTINUOUS
 90
13
 70
0
 10
83.223413308
 20
111.1769165625
 10
83.2536345776
 20
110.679045123
 10
83.3440738435
 20
110.1857117988
 10
83.4952796088
 20
109.6951711832
 10
83.7056063639
 20
109.212659496
 10
83.9742604766
 20
108.7421038091
 10
84.2992348168
 20
108.2856861599
 10
84.67911218
 20
107.8461131561
 10
85.1113291571
 20
107.4257381587
 10
85.594346951
 20
107.0268860459
 10
86.1236745208
 20
106.6523488751
 10
86.6936823966
 20
106.3061395404
 10
87.3062470682
 20
105.9869204103
  0
LINE
  5
366
100
AcDbEntity
  8
X48002257_BL7
100
AcDbLine
 62
9
  6
CONTINUOUS
 10
87.611826413
 20
122.0812314136
 11
87.611826413
 21
106.6245812735
  0
LWPOLYLINE
  5
367
100
AcDbEntity
  8
X48002257_BL7
100
AcDbPolyline
 62
9
  6
CONTINUOUS
 90
11
 70
0
 10
87.611826413
 20
106.6245812735
 10
87.6080642242
 20
106.5604480331
 10
87.5968702953
 20
106.491808493
 10
87.5785202581
 20
106.4203527866
 10
87.5534659513
 20
106.3478403904
 10
87.5223242951
 20
106.2760568004
 10
87.4858621005
 20
106.2067695668
 10
87.4449771877
 20
106.1416847712
 10
87.4006762789
 20
106.0824050172
 10
87.3540502096
 20
106.0303899693
 10
87.3062470682
 20
105.9869204103
  0
LWPOLYLINE
  5
368
100
AcDbEntity
  8
X48002257_BL7
100
AcDbPolyline
 62
9
  6
CONTINUOUS
 90
11
 70
0
 10
83.723413308
 20
121.012993105
 10
83.7172575101
 20
121.0618385093
 10
83.6989416645
 20
121.1094812364
 10
83.6689167265
 20
121.1547481618
 10
83.6279219712
 20
121.1965246542
 10
83.5769667648
 20
121.2337820396
 10
83.5173058482
 20
121.2656028467
 10
83.4504083735
 20
121.2912035039
 10
83.3779215862
 20
121.3099536651
 10
83.3016303831
 20
121.3213916578
 10
83.223413308
 20
121.325235868
  0
LINE
  5
369
100
AcDbEntity
  8
X48002257_BL7
100
AcDbLine
 62
9
  6
CONTINUOUS
 10
139.8087812681
 20
56.6692557393
 11
139.9603129524
 21
56.6704891621
  0
LWPOLYLINE
  5
36A
100
AcDbEntity
  8
X48002257_BL7
100
AcDbPolyline
 62
9
  6
CONTINUOUS
 90
11
 70
0
 10
116.973413308
 20
32.2577726259
 10
116.9795691377
 20
32.1966821219
 10
116.9978850498
 20
32.1370958688
 10
117.0279100459
 20
32.080481078
 10
117.0689048108
 20
32.0282317935
 10
117.1198599174
 20
31.9816345661
 10
117.1795206818
 20
31.9418367742
 10
117.2464180581
 20
31.9098183714
 10
117.3189048108
 20
31.8863677572
 10
117.3951960755
 20
31.8720623636
 10
117.473413308
 20
31.8672544366
  0
LWPOLYLINE
  5
36B
100
AcDbEntity
  8
X48002257_BL7
100
AcDbPolyline
 62
9
  6
CONTINUOUS
 90
11
 70
0
 10
116.973413308
 20
40.0638417328
 10
116.9795691377
 20
40.0027512287
 10
116.9978850498
 20
39.9431649757
 10
117.0279100459
 20
39.8865501849
 10
117.0689048108
 20
39.8343009004
 10
117.1198599174
 20
39.787703673
 10
117.1795206818
 20
39.747905881
 10
117.2464180581
 20
39.7158874783
 10
117.3189048108
 20
39.6924368641
 10
117.3951960755
 20
39.6781314704
 10
117.473413308
 20
39.6733235435
  0
LWPOLYLINE
  5
36C
100
AcDbEntity
  8
X48002257_BL7
100
AcDbPolyline
 62
9
  6
CONTINUOUS
 90
11
 70
0
 10
116.973413308
 20
24.8068149372
 10
116.9795691377
 20
24.7338603594
 10
116.9978850498
 20
24.6627021654
 10
117.0279100459
 20
24.5950925062
 10
117.0689048108
 20
24.5326961558
 10
117.1198599174
 20
24.4770495196
 10
117.1795206818
 20
24.4295228024
 10
117.2464180581
 20
24.3912862698
 10
117.3189048108
 20
24.363281432
 10
117.3951960755
 20
24.346197861
 10
117.473413308
 20
24.3404562113
  0
LINE
  5
36D
100
AcDbEntity
  8
X48002257_BL7
100
AcDbLine
 62
7
  6
CONTINUOUS
 10
69.3564793539
 20
93.6388909395
 11
65.5220661038
 21
95.0649495516
  0
LWPOLYLINE
  5
36E
100
AcDbEntity
  8
X48002257_BL7
100
AcDbPolyline
 62
9
  6
CONTINUOUS
 90
19
 70
0
 10
65.6887436905
 20
95.1458320222
 10
64.2107088745
 20
95.7046827597
 10
62.7904686684
 20
96.3154409554
 10
61.42512833
 20
96.9795240677
 10
60.123372086
 20
97.6926797211
 10
58.8919225748
 20
98.4519437863
 10
57.7337698194
 20
99.2548689836
 10
56.6529693018
 20
100.0991027299
 10
55.6530472834
 20
100.9813968048
 10
54.7380076275
 20
101.8988044198
 10
53.9104730096
 20
102.848068696
 10
53.1736895901
 20
103.8261596359
 10
52.5297907772
 20
104.8294498065
 10
51.9815652745
 20
105.8544228312
 10
51.5302933569
 20
106.8977155434
 10
51.1779121486
 20
107.9564975566
 10
50.9252398056
 20
109.0256541538
 10
50.7739231751
 20
110.0983698833
 10
50.723413308
 20
111.1769165625
  0
LWPOLYLINE
  5
36F
100
AcDbEntity
  8
X48002257_BL7
100
AcDbPolyline
 62
9
  6
CONTINUOUS
 90
4
 70
0
 10
87.5861903935
 20
122.498302837
 10
87.5655849918
 20
122.5316157781
 10
87.5395528462
 20
122.5562176071
 10
87.5234150292
 20
122.5656971117
  0
LWPOLYLINE
  5
370
100
AcDbEntity
  8
X48002257_BL7
100
AcDbPolyline
 62
7
  6
CONTINUOUS
 90
3
 70
0
 10
87.68221358
 20
122.378012825
 10
87.7030416265
 20
122.3441511152
 10
87.7225453986
 20
122.3090189989
  0
LWPOLYLINE
  5
371
100
AcDbEntity
  8
X48002257_BL7
100
AcDbPolyline
 62
7
  6
CONTINUOUS
 90
24
 70
0
 10
116.973413308
 20
40.0638417328
 10
116.8751853262
 20
42.842115934
 10
116.5807469415
 20
45.6146734316
 10
116.0907310432
 20
48.3762960746
 10
115.4061726869
 20
51.121606143
 10
114.5285132732
 20
53.8452382914
 10
113.4595258004
 20
56.5420303137
 10
112.2013903644
 20
59.206757047
 10
110.7565617799
 20
61.8344294596
 10
109.1278688308
 20
64.4200429693
 10
107.318437937
 20
66.958723002
 10
105.3317223702
 20
69.4456638024
 10
103.1715391212
 20
71.8760965141
 10
100.8420310367
 20
74.245352621
 10
98.3476031461
 20
76.5489236458
 10
95.6929387295
 20
78.7824296772
 10
92.8831259978
 20
80.9415227033
 10
89.9235002329
 20
83.0220326284
 10
86.8197444203
 20
85.0198923301
 10
83.5777854162
 20
86.9312157067
 10
80.2038699262
 20
88.7522513103
 10
76.7044761645
 20
90.4794381707
 10
73.086358194
 20
92.1093823767
 10
69.3564793539
 20
93.6388909395
  0
LWPOLYLINE
  5
372
100
AcDbEntity
  8
X48002257_BL7
100
AcDbPolyline
 62
9
  6
CONTINUOUS
 90
25
 70
0
 10
117.473413308
 20
39.6733235435
 10
117.3746489597
 20
42.4765635012
 10
117.0792167953
 20
45.2701590435
 10
116.5865254601
 20
48.0571399503
 10
115.8983490178
 20
50.8284168818
 10
115.0155364685
 20
53.577471764
 10
113.9402716477
 20
56.2996205791
 10
112.6740008016
 20
58.9897670297
 10
111.2197856978
 20
61.6426298804
 10
109.579946242
 20
64.252845614
 10
107.7581542665
 20
66.815564778
 10
105.7573897882
 20
69.3257229097
 10
103.5820481588
 20
71.7786015221
 10
101.2358394846
 20
74.1692749991
 10
98.7237995192
 20
76.4933002655
 10
96.0503377805
 20
78.745963914
 10
93.2210430813
 20
80.9231513252
 10
90.2408637559
 20
83.0204778697
 10
87.116130757
 20
85.0340401704
 10
83.8526948258
 20
86.959572264
 10
80.4569449312
 20
88.7937772789
 10
76.9343323773
 20
90.5331605474
 10
73.2935209004
 20
92.1740494934
 10
69.5463014428
 20
93.7110019685
 10
65.6887436905
 20
95.1458320222
  0
LINE
  5
373
100
AcDbEntity
  8
X48002257_BL7
100
AcDbLine
 62
7
  6
CONTINUOUS
 10
116.973413308
 20
24.1455418816
 11
116.973413308
 21
40.0638417328
  0
LINE
  5
374
100
AcDbEntity
  8
X48002257_BL7
100
AcDbLine
 62
9
  6
CONTINUOUS
 10
117.473413308
 20
23.6454274886
 11
117.473413308
 21
39.6733235435
  0
LWPOLYLINE
  5
375
100
AcDbEntity
  8
X48002257_BL7
100
AcDbPolyline
 62
7
  6
CONTINUOUS
 90
4
 70
0
 10
87.6119890232
 20
122.4707463993
 10
87.636597818
 20
122.4414285175
 10
87.6600348531
 20
122.4104764593
 10
87.68221358
 20
122.378012825
  0
LWPOLYLINE
  5
376
100
AcDbEntity
  8
X48002257_BL7
100
AcDbPolyline
 62
9
  6
CONTINUOUS
 90
6
 70
0
 10
65.5220661038
 20
95.0649495516
 10
65.5439425982
 20
95.0607052907
 10
65.57690298
 20
95.0650407014
 10
65.6126172512
 20
95.0809813163
 10
65.650206008
 20
95.1081346248
 10
65.6887436905
 20
95.1458320222
  0
LWPOLYLINE
  5
377
100
AcDbEntity
  8
X48002257_BL7
100
AcDbPolyline
 62
9
  6
CONTINUOUS
 90
25
 70
0
 10
87.3062470682
 20
105.9869204103
 10
91.2862364147
 20
103.9912007212
 10
95.1378455786
 20
101.9045714929
 10
98.8641843196
 20
99.7251892686
 10
102.4559233585
 20
97.4585844191
 10
105.9061065476
 20
95.108604812
 10
109.2107242526
 20
92.6784544995
 10
112.3649154369
 20
90.1713172221
 10
115.3642781589
 20
87.5911017816
 10
118.2040263484
 20
84.9414640964
 10
120.8804513553
 20
82.2263465558
 10
123.3893418521
 20
79.4495231955
 10
125.7274198011
 20
76.6151549952
 10
127.8909207778
 20
73.7272285802
 10
129.8770926143
 20
70.7900410502
 10
131.6826648964
 20
67.8077556387
 10
133.3054279387
 20
64.78476057
 10
134.7426514537
 20
61.7252985163
 10
135.9926268338
 20
58.633969367
 10
137.053090187
 20
55.5153377008
 10
137.9229770786
 20
52.3737521211
 10
138.6006770054
 20
49.2131526672
 10
139.0855642801
 20
46.0393296106
 10
139.3763310657
 20
42.8602745216
 10
139.473413308
 20
39.6733235435
  0
LWPOLYLINE
  5
378
100
AcDbEntity
  8
X48002257_BL7
100
AcDbPolyline
 62
9
  6
CONTINUOUS
 90
23
 70
0
 10
87.611826413
 20
106.6245812735
 10
91.6071479416
 20
104.6211510533
 10
95.4775275732
 20
102.5242510019
 10
99.2173615453
 20
100.3369171341
 10
102.8212351129
 20
98.0623163967
 10
106.2839303842
 20
95.703742084
 10
109.6004338575
 20
93.2646090833
 10
112.765943716
 20
90.7484489049
 10
115.7758767029
 20
88.1589046322
 10
118.6258748064
 20
85.4997256204
 10
121.3118117102
 20
82.7747619271
 10
123.8297986074
 20
79.9879588652
 10
126.1761897932
 20
77.1433513466
 10
128.3475880257
 20
74.2450579601
 10
130.3408494279
 20
71.2972750236
 10
132.1530880297
 20
68.3042705271
 10
133.7816799974
 20
65.2703778634
 10
135.2242673857
 20
62.1999896061
 10
136.4787614877
 20
59.0975513075
 10
137.5433459517
 20
55.9675549064
 10
138.416479415
 20
52.8145321839
 10
139.0968977024
 20
49.6430482781
 10
139.5836156674
 20
46.4576950422
  0
LWPOLYLINE
  5
379
100
AcDbEntity
  8
X48002257_BL7
100
AcDbPolyline
 62
7
  6
CONTINUOUS
 90
3
 70
0
 10
87.5321193128
 20
122.5472277001
 10
87.5502715505
 20
122.5320574632
 10
87.5683005536
 20
122.5157509989
  0
LINE
  5
37A
100
AcDbEntity
  8
X48002257_BL7
100
AcDbLine
 62
7
  6
CONTINUOUS
 10
87.5683005536
 20
122.5157509989
 11
87.5861903935
 21
122.498302837
  0
LINE
  5
37B
100
AcDbEntity
  8
X48002257_BL7
100
AcDbLine
 62
7
  6
CONTINUOUS
 10
87.5861903935
 20
122.498302837
 11
87.6119890232
 21
122.4707463993
  0
LWPOLYLINE
  5
37C
100
AcDbEntity
  8
X48002257_BL7
100
AcDbPolyline
 62
7
  6
CONTINUOUS
 90
4
 70
0
 10
87.4774850049
 20
122.5857727304
 10
87.4956848941
 20
122.5740841907
 10
87.513903041
 20
122.5612413832
 10
87.5321193128
 20
122.5472277001
  0
LWPOLYLINE
  5
37D
100
AcDbEntity
  8
X48002257_BL7
100
AcDbPolyline
 62
9
  6
CONTINUOUS
 90
7
 70
0
 10
87.6118298282
 20
122.0812341758
 10
87.567401065
 20
122.1167856371
 10
87.5194837347
 20
122.1485605886
 10
87.4687179519
 20
122.1761345574
 10
87.4157818832
 20
122.1991391906
 10
87.3613826873
 20
122.2172671758
 10
87.3062470683
 20
122.2302763461
  0
LWPOLYLINE
  5
37E
100
AcDbEntity
  8
X48002257_BL7
100
AcDbPolyline
 62
9
  6
CONTINUOUS
 90
21
 70
0
 10
137.3043864211
 20
72.4615846418
 10
136.2699686999
 20
75.3880870745
 10
135.0692241442
 20
78.2897131366
 10
133.7036778029
 20
81.1627775135
 10
132.1750640388
 20
84.003631163
 10
130.4853243218
 20
86.8086659583
 10
128.6366047769
 20
89.5743192493
 10
126.6312534443
 20
92.2970784122
 10
124.4718173131
 20
94.9734852887
 10
122.1610390994
 20
97.6001405706
 10
119.7018536422
 20
100.1737082468
 10
117.0973842737
 20
102.69091971
 10
114.350938879
 20
105.1485778919
 10
111.4660056237
 20
107.5435613921
 10
108.4462486772
 20
109.8728283176
 10
105.2955034485
 20
112.133420254
 10
102.0177716355
 20
114.3224660718
 10
98.6172162383
 20
116.4371854957
 10
95.0981562551
 20
118.4748926503
 10
91.4650611935
 20
120.4329994731
 10
87.7225453986
 20
122.3090189989
  0
LWPOLYLINE
  5
37F
100
AcDbEntity
  8
X48002257_BL7
100
AcDbPolyline
 62
7
  6
CONTINUOUS
 90
20
 70
0
 10
137.2900015693
 20
72.5536895679
 10
136.2513505605
 20
75.4923541879
 10
135.0457408521
 20
78.4061297083
 10
133.6746314692
 20
81.2913236676
 10
132.1397638461
 20
84.1441396867
 10
130.4430875809
 20
86.960867476
 10
128.5867623182
 20
89.7378631142
 10
126.5731599055
 20
92.4715403711
 10
124.4048675639
 20
95.1583666352
 10
122.0846803186
 20
97.794874269
 10
119.6155847216
 20
100.377677436
 10
117.0007732923
 20
102.9034544574
 10
114.2436091559
 20
105.3689817833
 10
111.3476550835
 20
107.7711038565
 10
108.3166285481
 20
110.1067710106
 10
105.1544366245
 20
112.3730084437
 10
101.8651295251
 20
114.566950454
 10
98.4529345057
 20
116.685814436
 10
94.9222130311
 20
118.7269284563
 10
91.2774970654
 20
120.6877082261
  0
LINE
  5
380
100
AcDbEntity
  8
X48002257_BL7
100
AcDbLine
 62
7
  6
CONTINUOUS
 10
137.9016662919
 20
70.5779597579
 11
137.2899981554
 21
72.5536978128
  0
LWPOLYLINE
  5
381
100
AcDbEntity
  8
X48002257_BL7
100
AcDbPolyline
 62
9
  6
CONTINUOUS
 90
3
 70
0
 10
137.3043864211
 20
72.4615846417
 10
137.2983524205
 20
72.5219144543
 10
137.2900015693
 20
72.5536895679
  0
LWPOLYLINE
  5
382
100
AcDbEntity
  8
X48002257_BL7
100
AcDbPolyline
 62
9
  6
CONTINUOUS
 90
3
 70
0
 10
139.5836156674
 20
46.4576950422
 10
139.8759286118
 20
43.2630844122
 10
139.973413308
 20
40.0638417328
  0
LWPOLYLINE
  5
383
100
AcDbEntity
  8
X48002257_BL7
100
AcDbPolyline
 62
7
  6
CONTINUOUS
 90
6
 70
0
 10
139.9603129524
 20
56.6704891621
 10
139.9491931513
 20
56.9009220301
 10
139.935328517
 20
57.0723094802
 10
139.9190415713
 20
57.1849721204
 10
139.9009105429
 20
57.237933286
 10
139.8937759134
 20
57.2420928526
  0
LWPOLYLINE
  5
384
100
AcDbEntity
  8
X48002257_BL7
100
AcDbPolyline
 62
9
  6
CONTINUOUS
 90
9
 70
0
 10
139.973413308
 20
58.5964756957
 10
139.9330329738
 20
59.9986313481
 10
139.8110365327
 20
61.4989615044
 10
139.6060839816
 20
63.0970222105
 10
139.3172404684
 20
64.7889656439
 10
138.944202672
 20
66.5700736418
 10
138.4854785624
 20
68.4423789514
 10
137.9391874002
 20
70.4069966742
 10
137.3043864211
 20
72.4615846418
  0
LWPOLYLINE
  5
385
100
AcDbEntity
  8
X48002257_BL7
100
AcDbPolyline
 62
7
  6
CONTINUOUS
 90
8
 70
0
 10
139.9734126052
 20
58.5964499354
 10
139.9352715997
 20
59.9660271191
 10
139.8124726079
 20
61.5018673945
 10
139.6038126413
 20
63.1353340652
 10
139.3086330493
 20
64.8633373795
 10
138.9264654134
 20
66.6824728583
 10
138.4573796115
 20
68.5887228761
 10
137.9016662919
 20
70.5779597579
  0
LWPOLYLINE
  5
386
100
AcDbEntity
  8
X48002257_BL7
100
AcDbPolyline
 62
7
  6
CONTINUOUS
 90
6
 70
0
 10
139.8815600724
 20
47.3066868165
 10
139.900910753
 20
46.6062038547
 10
139.9190416957
 20
45.9197801989
 10
139.9353285588
 20
45.2532680086
 10
139.9491931611
 20
44.614657737
 10
139.9603129524
 20
44.0012908463
  0
LWPOLYLINE
  5
387
100
AcDbEntity
  8
X48002257_BL7
100
AcDbPolyline
 62
7
  6
CONTINUOUS
 90
7
 70
0
 10
139.9603129524
 20
44.0012908463
 10
139.9643017116
 20
43.7306255617
 10
139.9675728922
 20
43.4613555468
 10
139.9701231039
 20
43.1934786456
 10
139.9719488165
 20
42.9270054435
 10
139.9730466365
 20
42.6619465362
 10
139.973413308
 20
42.3982997976
  0
LWPOLYLINE
  5
388
100
AcDbEntity
  8
X48002257_BL7
100
AcDbPolyline
 62
7
  6
CONTINUOUS
 90
7
 70
0
 10
139.973413308
 20
55.9275312883
 10
139.9730466365
 20
56.0563720428
 10
139.9719488165
 20
56.1832116187
 10
139.9701231039
 20
56.3080519583
 10
139.9675728922
 20
56.4308830171
 10
139.9643017116
 20
56.551694761
 10
139.9603129524
 20
56.6704891621
  0
LINE
  5
389
100
AcDbEntity
  8
X48002257_BL7
100
AcDbLine
 62
9
  6
CONTINUOUS
 10
139.473413308
 20
39.6733235435
 11
139.473413308
 21
23.6454274886
  0
LINE
  5
38A
100
AcDbEntity
  8
X48002257_BL7
100
AcDbLine
 62
7
  6
CONTINUOUS
 10
139.973413308
 20
58.5964756957
 11
139.973413308
 21
56.6704891621
  0
LINE
  5
38B
100
AcDbEntity
  8
X48002257_BL7
100
AcDbLine
 62
7
  6
CONTINUOUS
 10
139.973413308
 20
42.3982997976
 11
139.973413308
 21
24.1455405803
  0
LINE
  5
38C
100
AcDbEntity
  8
X48002257_BL7
100
AcDbLine
 62
7
  6
CONTINUOUS
 10
139.973413308
 20
55.2727190977
 11
139.973413308
 21
55.9275312883
  0
LINE
  5
38D
100
AcDbEntity
  8
X48002257_BL7
100
AcDbLine
 62
7
  6
CONTINUOUS
 10
87.4391260837
 20
122.6066962198
 11
87.4287971984
 21
122.611666211
  0
LINE
  5
38E
100
AcDbEntity
  8
X48002257_BL7
100
AcDbLine
 62
7
  6
CONTINUOUS
 10
91.2774970654
 20
120.6877082261
 11
87.5234150292
 21
122.5656971117
  0
LINE
  5
38F
100
AcDbEntity
  8
X48002257_BL7
100
AcDbLine
 62
7
  6
CONTINUOUS
 10
87.4774850049
 20
122.5857727288
 11
87.4391260837
 21
122.6066962198
  0
LWPOLYLINE
  5
390
100
AcDbEntity
  8
X48002257_BL7
100
AcDbPolyline
 62
9
  6
CONTINUOUS
 90
11
 70
0
 10
139.973413308
 20
24.8068149372
 10
139.9672574784
 20
24.73386036
 10
139.9489415664
 20
24.6627021662
 10
139.9189165705
 20
24.5950925069
 10
139.8779218054
 20
24.5326961561
 10
139.8269666983
 20
24.4770495194
 10
139.7673059332
 20
24.4295228018
 10
139.7004085566
 20
24.3912862692
 10
139.6279218039
 20
24.3632814316
 10
139.5516305397
 20
24.3461978609
 10
139.473413308
 20
24.3404562113
  0
LWPOLYLINE
  5
391
100
AcDbEntity
  8
X48002257_BL7
100
AcDbPolyline
 62
9
  6
CONTINUOUS
 90
11
 70
0
 10
139.973413308
 20
40.0638417328
 10
139.9672574783
 20
40.0027512287
 10
139.9489415661
 20
39.9431649757
 10
139.9189165701
 20
39.8865501849
 10
139.8779218052
 20
39.8343009004
 10
139.8269666986
 20
39.787703673
 10
139.7673059341
 20
39.747905881
 10
139.7004085578
 20
39.7158874783
 10
139.6279218052
 20
39.6924368641
 10
139.5516305405
 20
39.6781314704
 10
139.473413308
 20
39.6733235435
  0
LWPOLYLINE
  5
392
100
AcDbEntity
  8
X48002257_BL7
100
AcDbPolyline
 62
9
  6
CONTINUOUS
 90
11
 70
0
 10
139.973413308
 20
32.2577726259
 10
139.9672574783
 20
32.1966821219
 10
139.9489415661
 20
32.1370958688
 10
139.9189165701
 20
32.080481078
 10
139.8779218052
 20
32.0282317935
 10
139.8269666986
 20
31.9816345661
 10
139.7673059341
 20
31.9418367742
 10
139.7004085578
 20
31.9098183714
 10
139.6279218051
 20
31.8863677572
 10
139.5516305405
 20
31.8720623636
 10
139.473413308
 20
31.8672544366
  0
LWPOLYLINE
  5
393
100
AcDbEntity
  8
X48002257_BL7
100
AcDbPolyline
 62
7
  6
CONTINUOUS
 90
3
 70
0
 10
87.4287971984
 20
122.611666211
 10
87.3734293004
 20
122.6345924536
 10
87.3111295253
 20
122.6546073882
  0
LWPOLYLINE
  5
394
100
AcDbEntity
  8
X48002257_BL7
100
AcDbPolyline
 62
7
  6
CONTINUOUS
 90
6
 70
0
 10
87.3111295253
 20
122.6546073882
 10
87.2426532298
 20
122.6714764605
 10
87.1685877053
 20
122.685081827
 10
87.0891853626
 20
122.6951390804
 10
87.0049503978
 20
122.7012924052
 10
86.9157147456
 20
122.7036516151
  0
LWPOLYLINE
  5
395
100
AcDbEntity
  8
X48002257_BL7
100
AcDbPolyline
 62
7
  6
CONTINUOUS
 90
21
 70
0
 10
139.8937759134
 20
57.2420928526
 10
139.8815598836
 20
57.2301327472
 10
139.861554038
 20
57.1621628398
 10
139.8414826201
 20
57.0336001605
 10
139.8219927527
 20
56.8464479227
 10
139.8037724536
 20
56.6020776136
 10
139.7872993109
 20
56.3019728523
 10
139.7730450196
 20
55.9465703186
 10
139.7614591876
 20
55.5403821895
 10
139.752972503
 20
55.0874696953
 10
139.7477732589
 20
54.5896148221
 10
139.7460324507
 20
54.0477617685
 10
139.7477732905
 20
53.4684699598
 10
139.7529725728
 20
52.8579274588
 10
139.7614592902
 20
52.2181752898
 10
139.7730451316
 20
51.5507564749
 10
139.7872994369
 20
50.8633379174
 10
139.8037726351
 20
50.1632320018
 10
139.8219929715
 20
49.4530377732
 10
139.841482795
 20
48.7353283721
 10
139.8815600724
 20
47.3066868165
  0
LINE
  5
396
100
AcDbEntity
  8
X48002257_BL7
100
AcDbLine
 62
9
  6
CONTINUOUS
 10
50.723413308
 20
119.9197139622
 11
83.223413308
 21
119.9197139622
  0
LINE
  5
397
100
AcDbEntity
  8
X48002257_BL7
100
AcDbLine
 62
9
  6
CONTINUOUS
 10
50.723413308
 20
121.3252358693
 11
83.223413308
 21
121.3252358693
  0
LINE
  5
398
100
AcDbEntity
  8
X48002257_BL7
100
AcDbLine
 62
7
  6
CONTINUOUS
 10
84.123413308
 20
122.7036516229
 11
86.9157147456
 21
122.7036516151
  0
ARC
  5
399
100
AcDbEntity
  8
X48002257_BL7
100
AcDbCircle
 62
7
  6
CONTINUOUS
 10
436.742473875
 20
199.1735515757
 40
100.0
100
AcDbArc
 50
20.7573176336
 51
38.6444365725
  0
ARC
  5
39A
100
AcDbEntity
  8
X48002257_BL7
100
AcDbCircle
 62
9
  6
CONTINUOUS
 10
468.2294730692
 20
211.7845029133
 40
67.1778595932
100
AcDbArc
 50
23.7344524095
 51
26.6660234274
  0
ARC
  5
39B
100
AcDbEntity
  8
X48002257_BL7
100
AcDbCircle
 62
9
  6
CONTINUOUS
 10
480.3816695171
 20
216.6538616446
 40
55.5
100
AcDbArc
 50
24.5490814532
 51
25.1198312183
  0
ARC
  5
39C
100
AcDbEntity
  8
X48002257_BL7
100
AcDbCircle
 62
7
  6
CONTINUOUS
 10
480.3816695171
 20
216.6538616446
 40
55.0
100
AcDbArc
 50
24.5490814532
 51
38.6444365725
  0
ARC
  5
39D
100
AcDbEntity
  8
X48002257_BL7
100
AcDbCircle
 62
9
  6
CONTINUOUS
 10
480.8348055969
 20
216.9355393511
 40
54.970180589
100
AcDbArc
 50
25.0545045479
 51
38.6438124723
  0
ARC
  5
39E
100
AcDbEntity
  8
X48002257_BL7
100
AcDbCircle
 62
7
  6
CONTINUOUS
 10
497.9324055408
 20
226.1677325219
 40
35.036542802
100
AcDbArc
 50
27.5709631699
 51
27.7423782359
  0
ARC
  5
39F
100
AcDbEntity
  8
X48002257_BL7
100
AcDbCircle
 62
7
  6
CONTINUOUS
 10
498.4909462812
 20
226.460852261
 40
34.405760268
100
AcDbArc
 50
27.7433331562
 51
28.4370812273
  0
ARC
  5
3A0
100
AcDbEntity
  8
X48002257_BL7
100
AcDbCircle
 62
9
  6
CONTINUOUS
 10
446.7852105062
 20
338.9786445032
 40
24.0
100
AcDbArc
 50
359.962249119
 51
36.3051834983
  0
ARC
  5
3A1
100
AcDbEntity
  8
X48002257_BL7
100
AcDbCircle
 62
7
  6
CONTINUOUS
 10
446.7852105062
 20
338.9786445032
 40
23.5
100
AcDbArc
 50
320.5549060196
 51
36.3051834983
  0
ARC
  5
3A2
100
AcDbEntity
  8
X48002257_BL7
100
AcDbCircle
 62
7
  6
CONTINUOUS
 10
466.9356054987
 20
353.8097463384
 40
1.0
100
AcDbArc
 50
38.6444365725
 51
128.6444365725
  0
ARC
  5
3A3
100
AcDbEntity
  8
X48002257_BL7
100
AcDbCircle
 62
7
  6
CONTINUOUS
 10
466.5291411472
 20
353.484753659
 40
1.0
100
AcDbArc
 50
157.1298918047
 51
216.3051834983
  0
ARC
  5
3A4
100
AcDbEntity
  8
X48002257_BL7
100
AcDbCircle
 62
9
  6
CONTINUOUS
 10
466.5291411472
 20
353.484753659
 40
0.5
100
AcDbArc
 50
128.6444365725
 51
216.3051834983
  0
ARC
  5
3A5
100
AcDbEntity
  8
X48002257_BL7
100
AcDbCircle
 62
9
  6
CONTINUOUS
 10
466.9356054987
 20
353.8097463384
 40
0.5
100
AcDbArc
 50
38.6444365725
 51
128.6444365725
  0
ARC
  5
3A6
100
AcDbEntity
  8
X48002257_BL7
100
AcDbCircle
 62
7
  6
CONTINUOUS
 10
517.0121022508
 20
213.3195521935
 40
49.6225274725
100
AcDbArc
 50
21.1375422371
 51
38.6444365725
  0
ARC
  5
3A7
100
AcDbEntity
  8
X48002257_BL7
100
AcDbCircle
 62
9
  6
CONTINUOUS
 10
517.0121022508
 20
213.3195521935
 40
49.1225274725
100
AcDbArc
 50
21.1375422371
 51
38.6444365725
  0
ARC
  5
3A8
100
AcDbEntity
  8
X48002257_BL7
100
AcDbCircle
 62
9
  6
CONTINUOUS
 10
536.468951942
 20
245.8642858615
 40
11.0869402978
100
AcDbArc
 50
169.0661341923
 51
182.1324540708
  0
ARC
  5
3A9
100
AcDbEntity
  8
X48002257_BL7
100
AcDbCircle
 62
7
  6
CONTINUOUS
 10
536.3909822562
 20
245.7586863013
 40
10.0
100
AcDbArc
 50
174.5920210611
 51
205.055825615
  0
ARC
  5
3AA
100
AcDbEntity
  8
X48002257_BL7
100
AcDbCircle
 62
9
  6
CONTINUOUS
 10
537.8346707761
 20
247.0004852129
 40
9.9768113692
100
AcDbArc
 50
207.5613608703
 51
207.7753600759
  0
ARC
  5
3AB
100
AcDbEntity
  8
X48002257_BL7
100
AcDbCircle
 62
7
  6
CONTINUOUS
 10
553.6609283508
 20
227.4887533238
 40
10.33
100
AcDbArc
 50
236.151330908
 51
21.1375422371
  0
ARC
  5
3AC
100
AcDbEntity
  8
X48002257_BL7
100
AcDbCircle
 62
9
  6
CONTINUOUS
 10
553.6609283508
 20
227.4887533238
 40
9.83
100
AcDbArc
 50
236.151330908
 51
21.1375422371
  0
ARC
  5
3AD
100
AcDbEntity
  8
X48002257_BL7
100
AcDbCircle
 62
7
  6
CONTINUOUS
 10
575.5469165559
 20
260.1216544431
 40
49.6225274725
100
AcDbArc
 50
204.5490814532
 51
236.151330908
  0
ARC
  5
3AE
100
AcDbEntity
  8
X48002257_BL7
100
AcDbCircle
 62
9
  6
CONTINUOUS
 10
575.5469165559
 20
260.1216544431
 40
49.1225274725
100
AcDbArc
 50
204.5490814532
 51
236.151330908
  0
ARC
  5
3AF
100
AcDbEntity
  8
X48002257_BL7
100
AcDbCircle
 62
9
  6
CONTINUOUS
 10
558.9786213063
 20
246.8859224989
 40
29.7802080148
100
AcDbArc
 50
212.5375174502
 51
218.6417596986
  0
ARC
  5
3B0
100
AcDbEntity
  8
X48002257_BL7
100
AcDbCircle
 62
9
  6
CONTINUOUS
 10
558.8797494873
 20
246.7791259804
 40
29.6363015854
100
AcDbArc
 50
218.5998561163
 51
225.5657817638
  0
ARC
  5
3B1
100
AcDbEntity
  8
X48002257_BL7
100
AcDbCircle
 62
7
  6
CONTINUOUS
 10
555.716762243
 20
244.2662541861
 40
27.2329875519
100
AcDbArc
 50
200.7573176336
 51
263.0140773423
  0
ARC
  5
3B2
100
AcDbEntity
  8
X48002257_BL7
100
AcDbCircle
 62
7
  6
CONTINUOUS
 10
50.723413308
 20
354.3097463384
 40
0.5
100
AcDbArc
 50
90.0
 51
180.0
  0
ARC
  5
3B3
100
AcDbEntity
  8
X48002257_BL7
100
AcDbCircle
 62
7
  6
CONTINUOUS
 10
117.473413308
 20
217.6587533238
 40
0.5
100
AcDbArc
 50
180.0
 51
270.0
  0
ARC
  5
3B4
100
AcDbEntity
  8
X48002257_BL7
100
AcDbCircle
 62
7
  6
CONTINUOUS
 10
83.223413308
 20
354.3097463384
 40
0.5
100
AcDbArc
 50
0.0
 51
90.0
  0
ARC
  5
3B5
100
AcDbEntity
  8
X48002257_BL7
100
AcDbCircle
 62
7
  6
CONTINUOUS
 10
139.473413308
 20
217.6587533238
 40
0.5
100
AcDbArc
 50
270.0
 51
360.0
  0
ARC
  5
3B6
100
AcDbEntity
  8
X48002257_BL7
100
AcDbCircle
 62
7
  6
CONTINUOUS
 10
117.473413308
 20
24.1454274886
 40
0.5
100
AcDbArc
 50
180.0
 51
270.0
  0
ARC
  5
3B7
100
AcDbEntity
  8
X48002257_BL7
100
AcDbCircle
 62
7
  6
CONTINUOUS
 10
139.473413308
 20
24.1454274886
 40
0.5
100
AcDbArc
 50
270.0
 51
360.0
  0
SPLINE
  5
3B8
100
AcDbEntity
  8
X48002257_BL7
100
AcDbSpline
 62
2
  6
CONTINUOUS
 70
0
 71
3
 72
15
 73
11
 74
0
 42
0.0000001
 43
0.0000001
 44
0.0000000001
 40
0.0
 40
0.0
 40
0.0
 40
0.0
 40
0.125
 40
0.25
 40
0.375
 40
0.5
 40
0.625
 40
0.75
 40
0.875
 40
1.0
 40
1.0
 40
1.0
 40
1.0
 10
534.4468082682
 20
227.2596475608
 30
0.0
 10
534.3242774501
 20
227.4128953496
 30
0.0
 10
534.08241138
 20
227.7222733779
 30
0.0
 10
533.7425850802
 20
228.1767618086
 30
0.0
 10
533.4374516735
 20
228.6026395529
 30
0.0
 10
533.1781985382
 20
228.9787763056
 30
0.0
 10
532.9690337209
 20
229.2925275631
 30
0.0
 10
532.8166067192
 20
229.5273554885
 30
0.0
 10
532.723572073
 20
229.6733570879
 30
0.0
 10
532.7028046777
 20
229.7062621468
 30
0.0
 10
532.7028046777
 20
229.7062621468
 30
0.0
  0
SPLINE
  5
3B9
100
AcDbEntity
  8
X48002257_BL7
100
AcDbSpline
 62
2
  6
CONTINUOUS
 70
0
 71
3
 72
15
 73
11
 74
0
 42
0.0000001
 43
0.0000001
 44
0.0000000001
 40
0.0
 40
0.0
 40
0.0
 40
0.0
 40
0.125
 40
0.25
 40
0.375
 40
0.5
 40
0.625
 40
0.75
 40
0.875
 40
1.0
 40
1.0
 40
1.0
 40
1.0
 10
536.449717849
 20
225.0200438755
 30
0.0
 10
536.449717849
 20
225.0200438755
 30
0.0
 10
536.4243591257
 20
225.0453724556
 30
0.0
 10
536.2971696468
 20
225.1734646296
 30
0.0
 10
536.0844343677
 20
225.3917106118
 30
0.0
 10
535.8120516727
 20
225.6785649915
 30
0.0
 10
535.4912092647
 20
226.02768315
 30
0.0
 10
535.1498249517
 20
226.4132177697
 30
0.0
 10
534.7965214
 20
226.8283188114
 30
0.0
 10
534.5618219143
 20
227.1158014066
 30
0.0
 10
534.4468082682
 20
227.2596475608
 30
0.0
  0
SPLINE
  5
3BA
100
AcDbEntity
  8
X48002257_BL7
100
AcDbSpline
 62
2
  6
CONTINUOUS
 70
0
 71
3
 72
12
 73
8
 74
0
 42
0.0000001
 43
0.0000001
 44
0.0000000001
 40
0.0
 40
0.0
 40
0.0
 40
0.0
 40
0.0668257454
 40
0.3001193091
 40
0.5334128727
 40
0.7667064364
 40
1.0
 40
1.0
 40
1.0
 40
1.0
 10
535.7174572523
 20
225.7821303134
 30
0.0
 10
535.7469967756
 20
225.7501652581
 30
0.0
 10
535.8771777918
 20
225.609975086
 30
0.0
 10
536.0848229371
 20
225.3913060647
 30
0.0
 10
536.2975308564
 20
225.1730983175
 30
0.0
 10
536.424455213
 20
225.0452767753
 30
0.0
 10
536.449717849
 20
225.0200438755
 30
0.0
 10
536.449717849
 20
225.0200438755
 30
0.0
  0
SPLINE
  5
3BB
100
AcDbEntity
  8
X48002257_BL7
100
AcDbSpline
 62
2
  6
CONTINUOUS
 70
0
 71
3
 72
12
 73
8
 74
0
 42
0.0000001
 43
0.0000001
 44
0.0000000001
 40
0.0
 40
0.0
 40
0.0
 40
0.0
 40
0.2208368902
 40
0.4416737805
 40
0.6625106707
 40
0.8833475609
 40
1.0
 40
1.0
 40
1.0
 40
1.0
 10
532.7028046777
 20
229.7062621468
 30
0.0
 10
532.7028046777
 20
229.7062621468
 30
0.0
 10
532.7235762617
 20
229.6733505836
 30
0.0
 10
532.816599056
 20
229.527367246
 30
0.0
 10
532.9690396623
 20
229.2925188787
 30
0.0
 10
533.1452830317
 20
229.0281494226
 30
0.0
 10
533.2713455563
 20
228.8440160466
 30
0.0
 10
533.3171453753
 20
228.7777792566
 30
0.0
  0
SPLINE
  5
3BC
100
AcDbEntity
  8
X48002257_BL7
100
AcDbSpline
 62
7
  6
CONTINUOUS
 70
0
 71
3
 72
16
 73
12
 74
0
 42
0.0000001
 43
0.0000001
 44
0.0000000001
 40
0.0
 40
0.0
 40
0.0
 40
0.0
 40
0.010855458
 40
0.0280469065
 40
0.0533712654
 40
0.0871544958
 40
0.1795556046
 40
0.302653182
 40
0.4521524443
 40
0.6225823019
 40
1.0
 40
1.0
 40
1.0
 40
1.0
 10
533.0701591659
 20
229.3598090933
 30
0.0
 10
533.0773362673
 20
229.3655476172
 30
0.0
 10
533.1035872912
 20
229.368253487
 30
0.0
 10
533.1456416889
 20
229.3518496216
 30
0.0
 10
533.2022152104
 20
229.3201339067
 30
0.0
 10
533.3067595652
 20
229.2457022272
 30
0.0
 10
533.4673090177
 20
229.1082673808
 30
0.0
 10
533.6903998541
 20
228.8944532818
 30
0.0
 10
533.9508294592
 20
228.6244633175
 30
0.0
 10
534.3476341817
 20
228.1873542833
 30
0.0
 10
534.6455912559
 20
227.8316357631
 30
0.0
 10
534.8451373171
 20
227.5821308098
 30
0.0
  0
SPLINE
  5
3BD
100
AcDbEntity
  8
X48002257_BL7
100
AcDbSpline
 62
7
  6
CONTINUOUS
 70
0
 71
3
 72
16
 73
12
 74
0
 42
0.0000001
 43
0.0000001
 44
0.0000000001
 40
0.0
 40
0.0
 40
0.0
 40
0.0
 40
0.377190217
 40
0.5476286835
 40
0.6971828132
 40
0.8203547148
 40
0.91282079
 40
0.9466245239
 40
0.9719612046
 40
0.9891542288
 40
1.0
 40
1.0
 40
1.0
 40
1.0
 10
534.8451373171
 20
227.5821308098
 30
0.0
 10
535.0450432076
 20
227.3321564465
 30
0.0
 10
535.3271686277
 20
226.962557237
 30
0.0
 10
535.6671824081
 20
226.4783485325
 30
0.0
 10
535.8738971101
 20
226.1640758313
 30
0.0
 10
536.0339162994
 20
225.8986492645
 30
0.0
 10
536.1330105118
 20
225.7112407635
 30
0.0
 10
536.1828122713
 20
225.5925336066
 30
0.0
 10
536.201388091
 20
225.5301954187
 30
0.0
 10
536.2081914193
 20
225.485460164
 30
0.0
 10
536.199781385
 20
225.4603796968
 30
0.0
 10
536.1925930832
 20
225.4546322174
 30
0.0
  0
SPLINE
  5
3BE
100
AcDbEntity
  8
X48002257_BL7
100
AcDbSpline
 62
9
  6
CONTINUOUS
 70
0
 71
3
 72
11
 73
7
 74
0
 42
0.0000001
 43
0.0000001
 44
0.0000000001
 40
0.0
 40
0.0
 40
0.0
 40
0.0
 40
0.2658261818
 40
0.5226200254
 40
0.766188707
 40
1.0
 40
1.0
 40
1.0
 40
1.0
 10
492.3717189253
 20
322.7977708323
 30
0.0
 10
492.4222805154
 20
322.8381978625
 30
0.0
 10
492.5090308292
 20
322.9353218216
 30
0.0
 10
492.579347497
 20
323.1125373116
 30
0.0
 10
492.5781556202
 20
323.2962634002
 30
0.0
 10
492.526082001
 20
323.4053698958
 30
0.0
 10
492.4905238173
 20
323.4498420794
 30
0.0
  0
SPLINE
  5
3BF
100
AcDbEntity
  8
X48002257_BL7
100
AcDbSpline
 62
9
  6
CONTINUOUS
 70
0
 71
3
 72
13
 73
9
 74
0
 42
0.0000001
 43
0.0000001
 44
0.0000000001
 40
0.0
 40
0.0
 40
0.0
 40
0.0
 40
0.3744999109
 40
0.6929155916
 40
0.8160456231
 40
0.9089540965
 40
0.9693091143
 40
1.0
 40
1.0
 40
1.0
 40
1.0
 10
523.7688902925
 20
251.2631539688
 30
0.0
 10
523.719053641
 20
251.2233065705
 30
0.0
 10
523.6251807038
 20
251.1517576166
 30
0.0
 10
523.5098810414
 20
251.0733959951
 30
0.0
 10
523.4316825467
 20
251.0273739682
 30
0.0
 10
523.388416267
 20
251.0068434211
 30
0.0
 10
523.3605199533
 20
250.9961435018
 30
0.0
 10
523.3419358978
 20
250.996481519
 30
0.0
 10
523.3386703378
 20
251.0005657148
 30
0.0
  0
SPLINE
  5
3C0
100
AcDbEntity
  8
X48002257_BL7
100
AcDbSpline
 62
9
  6
CONTINUOUS
 70
0
 71
3
 72
11
 73
7
 74
0
 42
0.0000001
 43
0.0000001
 44
0.0000000001
 40
0.0
 40
0.0
 40
0.0
 40
0.0
 40
0.2658261818
 40
0.5226200254
 40
0.766188707
 40
1.0
 40
1.0
 40
1.0
 40
1.0
 10
476.6338358973
 20
310.214387432
 30
0.0
 10
476.5832743072
 20
310.1739604017
 30
0.0
 10
476.4694425169
 20
310.1107069126
 30
0.0
 10
476.2810980804
 20
310.081107303
 30
0.0
 10
476.1021370371
 20
310.1226962582
 30
0.0
 10
476.0071625945
 20
310.197500967
 30
0.0
 10
475.9716044108
 20
310.2419731506
 30
0.0
  0
SPLINE
  5
3C1
100
AcDbEntity
  8
X48002257_BL7
100
AcDbSpline
 62
7
  6
CONTINUOUS
 70
0
 71
3
 72
9
 73
5
 74
0
 42
0.0000001
 43
0.0000001
 44
0.0000000001
 40
0.0
 40
0.0
 40
0.0
 40
0.0
 40
0.412070134
 40
1.0
 40
1.0
 40
1.0
 40
1.0
 10
464.9448780377
 20
324.0329643586
 30
0.0
 10
464.9504246923
 20
324.0260272258
 30
0.0
 10
464.9687165872
 20
324.0135066799
 30
0.0
 10
464.988450753
 20
324.0050213318
 30
0.0
 10
465.000329593
 20
324.000607034
 30
0.0
  0
SPLINE
  5
3C2
100
AcDbEntity
  8
X48002257_BL7
100
AcDbSpline
 62
7
  6
CONTINUOUS
 70
0
 71
3
 72
9
 73
5
 74
0
 42
0.0000001
 43
0.0000001
 44
0.0000000001
 40
0.0
 40
0.0
 40
0.0
 40
0.0
 40
0.2186852316
 40
1.0
 40
1.0
 40
1.0
 40
1.0
 10
465.000329593
 20
324.000607034
 30
0.0
 10
465.0073156763
 20
323.9980109343
 30
0.0
 10
465.0396447512
 20
323.9871728384
 30
0.0
 10
465.0729183498
 20
323.9793996471
 30
0.0
 10
465.0990172645
 20
323.9741207038
 30
0.0
  0
SPLINE
  5
3C3
100
AcDbEntity
  8
X48002257_BL7
100
AcDbSpline
 62
7
  6
CONTINUOUS
 70
0
 71
3
 72
9
 73
5
 74
0
 42
0.0000001
 43
0.0000001
 44
0.0000000001
 40
0.0
 40
0.0
 40
0.0
 40
0.0
 40
0.4769018776
 40
1.0
 40
1.0
 40
1.0
 40
1.0
 10
465.0990172645
 20
323.9741207038
 30
0.0
 10
465.1872369869
 20
323.9562767851
 30
0.0
 10
465.3756534516
 20
323.9369202114
 30
0.0
 10
465.5644519102
 20
323.9329712188
 30
0.0
 10
465.6631495955
 20
323.9352900114
 30
0.0
  0
SPLINE
  5
3C4
100
AcDbEntity
  8
X48002257_BL7
100
AcDbSpline
 62
9
  6
CONTINUOUS
 70
0
 71
3
 72
9
 73
5
 74
0
 42
0.0000001
 43
0.0000001
 44
0.0000000001
 40
0.0
 40
0.0
 40
0.0
 40
0.0
 40
0.5016293674
 40
1.0
 40
1.0
 40
1.0
 40
1.0
 10
528.2621402062
 20
241.9331967044
 30
0.0
 10
527.970480048
 20
242.4958227242
 30
0.0
 10
527.490744455
 20
243.6732383315
 30
0.0
 10
527.2367784293
 20
244.9192980933
 30
0.0
 10
527.1697194463
 20
245.545329819
 30
0.0
  0
SPLINE
  5
3C5
100
AcDbEntity
  8
X48002257_BL7
100
AcDbSpline
 62
9
  6
CONTINUOUS
 70
0
 71
3
 72
9
 73
5
 74
0
 42
0.0000001
 43
0.0000001
 44
0.0000000001
 40
0.0
 40
0.0
 40
0.0
 40
0.0
 40
0.5054989962
 40
1.0
 40
1.0
 40
1.0
 40
1.0
 10
546.2462618963
 20
219.6019524545
 30
0.0
 10
546.5443332911
 20
219.5391926581
 30
0.0
 10
547.1244214524
 20
219.3619586715
 30
0.0
 10
547.6596299254
 20
219.0755437649
 30
0.0
 10
547.907105454
 20
218.9095686924
 30
0.0
  0
SPLINE
  5
3C6
100
AcDbEntity
  8
X48002257_BL7
100
AcDbSpline
 62
9
  6
CONTINUOUS
 70
0
 71
3
 72
11
 73
7
 74
0
 42
0.0000001
 43
0.0000001
 44
0.0000000001
 40
0.0
 40
0.0
 40
0.0
 40
0.0
 40
0.2323017873
 40
0.4722577685
 40
0.726492282
 40
1.0
 40
1.0
 40
1.0
 40
1.0
 10
530.2514679434
 20
234.614597862
 30
0.0
 10
530.3975720685
 20
234.2291118823
 30
0.0
 10
530.7802545347
 20
233.475226965
 30
0.0
 10
531.593130631
 20
232.4641171246
 30
0.0
 10
532.6354237501
 20
231.5761206785
 30
0.0
 10
533.4411147516
 20
231.0906643599
 30
0.0
 10
533.8726816434
 20
230.8685531315
 30
0.0
  0
SPLINE
  5
3C7
100
AcDbEntity
  8
X48002257_BL7
100
AcDbSpline
 62
9
  6
CONTINUOUS
 70
0
 71
3
 72
14
 73
10
 74
0
 42
0.0000001
 43
0.0000001
 44
0.0000000001
 40
0.0
 40
0.0
 40
0.0
 40
0.0
 40
0.0574507576
 40
0.126330744
 40
0.2136166736
 40
0.3227427928
 40
0.4553599541
 40
0.6122919789
 40
1.0
 40
1.0
 40
1.0
 40
1.0
 10
529.7554784027
 20
235.8965823017
 30
0.0
 10
529.7653559845
 20
235.8715641481
 30
0.0
 10
529.8020950741
 20
235.8221435264
 30
0.0
 10
529.8898211084
 20
235.771013181
 30
0.0
 10
530.0093575825
 20
235.7349985459
 30
0.0
 10
530.1622114124
 20
235.7130424342
 30
0.0
 10
530.3488824246
 20
235.7048176487
 30
0.0
 10
530.6660284817
 20
235.7130871994
 30
0.0
 10
530.9199867804
 20
235.7401101196
 30
0.0
 10
531.099952832
 20
235.7637987986
 30
0.0
  0
SPLINE
  5
3C8
100
AcDbEntity
  8
X48002257_BL7
100
AcDbSpline
 62
9
  6
CONTINUOUS
 70
0
 71
3
 72
14
 73
10
 74
0
 42
0.0000001
 43
0.0000001
 44
0.0000000001
 40
0.0
 40
0.0
 40
0.0
 40
0.0
 40
0.0228692937
 40
0.0722452654
 40
0.1513416024
 40
0.2606955047
 40
0.4003769934
 40
0.5703214303
 40
1.0
 40
1.0
 40
1.0
 40
1.0
 10
528.6716674284
 20
238.5311855336
 30
0.0
 10
528.674973456
 20
238.5234636441
 30
0.0
 10
528.707322539
 20
238.5179666414
 30
0.0
 10
528.7583897995
 20
238.5248018579
 30
0.0
 10
528.8463057968
 20
238.5419823654
 30
0.0
 10
528.9618961402
 20
238.5728631342
 30
0.0
 10
529.1098414899
 20
238.6165090168
 30
0.0
 10
529.3683437035
 20
238.6991617429
 30
0.0
 10
529.5766584705
 20
238.7709612226
 30
0.0
 10
529.7255095034
 20
238.8234068399
 30
0.0
  0
SPLINE
  5
3C9
100
AcDbEntity
  8
X48002257_BL7
100
AcDbSpline
 62
9
  6
CONTINUOUS
 70
0
 71
3
 72
14
 73
10
 74
0
 42
0.0000001
 43
0.0000001
 44
0.0000000001
 40
0.0
 40
0.0
 40
0.0
 40
0.0
 40
0.4308590892
 40
0.7402960208
 40
0.8490872833
 40
0.9273913447
 40
0.9553445804
 40
0.9761618091
 40
1.0
 40
1.0
 40
1.0
 40
1.0
 10
528.2621395358
 20
241.9331963751
 30
0.0
 10
528.1322982995
 20
241.8629821418
 30
0.0
 10
527.9081129376
 20
241.7443199314
 30
0.0
 10
527.6472775268
 20
241.6154472738
 30
0.0
 10
527.4902225682
 20
241.5494718029
 30
0.0
 10
527.4210422703
 20
241.5247905462
 30
0.0
 10
527.3779029648
 20
241.5153049304
 30
0.0
 10
527.3543743341
 20
241.5122779598
 30
0.0
 10
527.3354880602
 20
241.5162798306
 30
0.0
 10
527.3320260604
 20
241.5236765857
 30
0.0
  0
SPLINE
  5
3CA
100
AcDbEntity
  8
X48002257_BL7
100
AcDbSpline
 62
9
  6
CONTINUOUS
 70
0
 71
3
 72
11
 73
7
 74
0
 42
0.0000001
 43
0.0000001
 44
0.0000000001
 40
0.0
 40
0.0
 40
0.0
 40
0.0
 40
0.2486921465
 40
0.4980632362
 40
0.7497250078
 40
1.0
 40
1.0
 40
1.0
 40
1.0
 10
541.0086831418
 20
224.4915345003
 30
0.0
 10
541.435456435
 20
224.0777997259
 30
0.0
 10
542.2826172856
 20
223.2413751076
 30
0.0
 10
543.5477913434
 20
221.9726074557
 30
0.0
 10
544.8411039739
 20
220.7257147699
 30
0.0
 10
545.7696331943
 20
219.9634057641
 30
0.0
 10
546.2462615215
 20
219.6019516298
 30
0.0
  0
SPLINE
  5
3CB
100
AcDbEntity
  8
X48002257_BL7
100
AcDbSpline
 62
9
  6
CONTINUOUS
 70
0
 71
3
 72
11
 73
7
 74
0
 42
0.0000001
 43
0.0000001
 44
0.0000000001
 40
0.0
 40
0.0
 40
0.0
 40
0.0
 40
0.2369202711
 40
0.4873284505
 40
0.742533779
 40
1.0
 40
1.0
 40
1.0
 40
1.0
 10
546.2462615215
 20
219.6019516298
 30
0.0
 10
546.6656686091
 20
219.2838794758
 30
0.0
 10
547.5876016492
 20
218.7067467992
 30
0.0
 10
549.0918534537
 20
218.0200185736
 30
0.0
 10
550.7136845336
 20
217.5117203521
 30
0.0
 10
551.8370885912
 20
217.3049583499
 30
0.0
 10
552.4048670952
 20
217.2353923756
 30
0.0
  0
SPLINE
  5
3CC
100
AcDbEntity
  8
X48002257_BL7
100
AcDbSpline
 62
9
  6
CONTINUOUS
 70
0
 71
3
 72
11
 73
7
 74
0
 42
0.0000001
 43
0.0000001
 44
0.0000000001
 40
0.0
 40
0.0
 40
0.0
 40
0.0
 40
0.3160285577
 40
0.5803331582
 40
0.8025312849
 40
1.0
 40
1.0
 40
1.0
 40
1.0
 10
531.0998106463
 20
235.7640713936
 30
0.0
 10
531.1948071755
 20
235.9255937811
 30
0.0
 10
531.3536524024
 20
236.2322588174
 30
0.0
 10
531.500480237
 20
236.68806576
 30
0.0
 10
531.529727122
 20
237.0980094121
 30
0.0
 10
531.460713025
 20
237.3441304428
 30
0.0
 10
531.4072137031
 20
237.4482809887
 30
0.0
  0
SPLINE
  5
3CD
100
AcDbEntity
  8
X48002257_BL7
100
AcDbSpline
 62
9
  6
CONTINUOUS
 70
0
 71
3
 72
9
 73
5
 74
0
 42
0.0000001
 43
0.0000001
 44
0.0000000001
 40
0.0
 40
0.0
 40
0.0
 40
0.0
 40
0.5018739843
 40
1.0
 40
1.0
 40
1.0
 40
1.0
 10
533.8727314299
 20
230.8685855506
 30
0.0
 10
533.3666401604
 20
231.6625436099
 30
0.0
 10
532.400591933
 20
233.2718413031
 30
0.0
 10
531.5171712454
 20
234.9279394029
 30
0.0
 10
531.0998106463
 20
235.7640713936
 30
0.0
  0
SPLINE
  5
3CE
100
AcDbEntity
  8
X48002257_BL7
100
AcDbSpline
 62
9
  6
CONTINUOUS
 70
0
 71
3
 72
34
 73
30
 74
0
 42
0.0000001
 43
0.0000001
 44
0.0000000001
 40
0.0
 40
0.0
 40
0.0
 40
0.0
 40
0.0737418777
 40
0.112845705
 40
0.1528398897
 40
0.192857234
 40
0.212442791
 40
0.2313764208
 40
0.2492580805
 40
0.2654692947
 40
0.2727339502
 40
0.27930979
 40
0.2852395341
 40
0.2908167764
 40
0.2968511266
 40
0.3045152351
 40
0.3148588526
 40
0.328384783
 40
0.344984706
 40
0.364121625
 40
0.4072467954
 40
0.453822155
 40
0.50201723
 40
0.5510125005
 40
0.6004569125
 40
0.6999832038
 40
0.7998519213
 40
0.8998817082
 40
1.0
 40
1.0
 40
1.0
 40
1.0
 10
541.0088369394
 20
224.4913854854
 30
0.0
 10
541.129346493
 20
224.3745711109
 30
0.0
 10
541.30140386
 20
224.1828563201
 30
0.0
 10
541.5141187016
 20
223.9075626208
 30
0.0
 10
541.669469763
 20
223.6852455881
 30
0.0
 10
541.7898236421
 20
223.4929892376
 30
0.0
 10
541.8768682784
 20
223.3368263959
 30
0.0
 10
541.9343432914
 20
223.2219717188
 30
0.0
 10
541.9817253148
 20
223.1109030993
 30
0.0
 10
542.0102287409
 20
223.0208309307
 30
0.0
 10
542.0215999547
 20
222.9532313394
 30
0.0
 10
542.0225638608
 20
222.908036858
 30
0.0
 10
542.0145912337
 20
222.8671420178
 30
0.0
 10
541.9932956366
 20
222.8319859751
 30
0.0
 10
541.9548894274
 20
222.8078554722
 30
0.0
 10
541.8998405942
 20
222.7992239966
 30
0.0
 10
541.8280068618
 20
222.8064341536
 30
0.0
 10
541.7387534866
 20
222.8301949873
 30
0.0
 10
541.6338433013
 20
222.870113447
 30
0.0
 10
541.4710052433
 20
222.9458498077
 30
0.0
 10
541.2544094724
 20
223.0665770628
 30
0.0
 10
540.9885820784
 20
223.2335306457
 30
0.0
 10
540.7180480977
 20
223.4176929874
 30
0.0
 10
540.4474570563
 20
223.613094179
 30
0.0
 10
540.0885005621
 20
223.885470275
 30
0.0
 10
539.6476591331
 20
224.2412039692
 30
0.0
 10
539.1298623091
 20
224.6843889878
 30
0.0
 10
538.6238773441
 20
225.1430289668
 30
0.0
 10
538.2945140359
 20
225.4577940517
 30
0.0
 10
538.1316736674
 20
225.6171855818
 30
0.0
  0
SPLINE
  5
3CF
100
AcDbEntity
  8
X48002257_BL7
100
AcDbSpline
 62
9
  6
CONTINUOUS
 70
0
 71
3
 72
13
 73
9
 74
0
 42
0.0000001
 43
0.0000001
 44
0.0000000001
 40
0.0
 40
0.0
 40
0.0
 40
0.0
 40
0.4062477185
 40
0.5687796688
 40
0.7042947748
 40
0.8132632905
 40
0.8967767245
 40
1.0
 40
1.0
 40
1.0
 40
1.0
 10
529.7254760849
 20
238.8234757866
 30
0.0
 10
529.8357809332
 20
238.9001422083
 30
0.0
 10
529.9883644923
 20
239.0102530732
 30
0.0
 10
530.1687199581
 20
239.1579792141
 30
0.0
 10
530.2680843768
 20
239.2483079371
 30
0.0
 10
530.3427227411
 20
239.3287349032
 30
0.0
 10
530.3994637314
 20
239.4045952827
 30
0.0
 10
530.4241638932
 20
239.4738074759
 30
0.0
 10
530.4099829874
 20
239.5048543299
 30
0.0
  0
SPLINE
  5
3D0
100
AcDbEntity
  8
X48002257_BL7
100
AcDbSpline
 62
9
  6
CONTINUOUS
 70
0
 71
3
 72
9
 73
5
 74
0
 42
0.0000001
 43
0.0000001
 44
0.0000000001
 40
0.0
 40
0.0
 40
0.0
 40
0.0
 40
0.2497276642
 40
1.0
 40
1.0
 40
1.0
 40
1.0
 10
531.0998192449
 20
235.7640860396
 30
0.0
 10
530.9839809802
 20
236.0181090899
 30
0.0
 10
530.5216918038
 20
237.036024563
 30
0.0
 10
530.0651534882
 20
238.0565489751
 30
0.0
 10
529.7254760849
 20
238.8234757866
 30
0.0
  0
SPLINE
  5
3D1
100
AcDbEntity
  8
X48002257_BL7
100
AcDbSpline
 62
9
  6
CONTINUOUS
 70
0
 71
3
 72
9
 73
5
 74
0
 42
0.0000001
 43
0.0000001
 44
0.0000000001
 40
0.0
 40
0.0
 40
0.0
 40
0.0
 40
0.4927459401
 40
1.0
 40
1.0
 40
1.0
 40
1.0
 10
529.0073817692
 20
242.3512340511
 30
0.0
 10
529.006729913
 20
242.3517706268
 30
0.0
 10
529.0053439055
 20
242.3527848004
 30
0.0
 10
529.0038572579
 20
242.3536435891
 30
0.0
 10
529.0030841533
 20
242.354040746
 30
0.0
  0
SPLINE
  5
3D2
100
AcDbEntity
  8
X48002257_BL7
100
AcDbSpline
 62
9
  6
CONTINUOUS
 70
0
 71
3
 72
9
 73
5
 74
0
 42
0.0000001
 43
0.0000001
 44
0.0000000001
 40
0.0
 40
0.0
 40
0.0
 40
0.0
 40
0.3597240882
 40
1.0
 40
1.0
 40
1.0
 40
1.0
 10
529.0030841533
 20
242.354040746
 30
0.0
 10
528.9907840474
 20
242.36035952
 30
0.0
 10
528.9489472609
 20
242.3549343202
 30
0.0
 10
528.9143488147
 20
242.3412305416
 30
0.0
 10
528.8917949499
 20
242.3313755583
 30
0.0
  0
SPLINE
  5
3D3
100
AcDbEntity
  8
X48002257_BL7
100
AcDbSpline
 62
9
  6
CONTINUOUS
 70
0
 71
3
 72
10
 73
6
 74
0
 42
0.0000001
 43
0.0000001
 44
0.0000000001
 40
0.0
 40
0.0
 40
0.0
 40
0.0
 40
0.1622586604
 40
0.3829265317
 40
1.0
 40
1.0
 40
1.0
 40
1.0
 10
528.8917949499
 20
242.3313755583
 30
0.0
 10
528.854831262
 20
242.3152241568
 30
0.0
 10
528.7705065936
 20
242.2706368927
 30
0.0
 10
528.5581740978
 20
242.1413142001
 30
0.0
 10
528.3870288341
 20
242.0222847786
 30
0.0
 10
528.2621395812
 20
241.933197263
 30
0.0
  0
SPLINE
  5
3D4
100
AcDbEntity
  8
X48002257_BL7
100
AcDbSpline
 62
9
  6
CONTINUOUS
 70
0
 71
3
 72
11
 73
7
 74
0
 42
0.0000001
 43
0.0000001
 44
0.0000000001
 40
0.0
 40
0.0
 40
0.0
 40
0.0
 40
0.2506560873
 40
0.5005740628
 40
0.7501239228
 40
1.0
 40
1.0
 40
1.0
 40
1.0
 10
470.7852052968
 20
338.9628314523
 30
0.0
 10
470.7953304309
 20
337.612398055
 30
0.0
 10
470.5902982401
 20
334.9083527288
 30
0.0
 10
469.610749898
 20
330.9683468697
 30
0.0
 10
467.9854842973
 20
327.2523237911
 30
0.0
 10
466.49687809
 20
324.9923314654
 30
0.0
 10
465.6631495955
 20
323.9352900114
 30
0.0
  0
SPLINE
  5
3D5
100
AcDbEntity
  8
X48002257_BL7
100
AcDbSpline
 62
7
  6
CONTINUOUS
 70
0
 71
3
 72
15
 73
11
 74
0
 42
0.0000001
 43
0.0000001
 44
0.0000000001
 40
0.0
 40
0.0
 40
0.0
 40
0.0
 40
0.3925294223
 40
0.5626161819
 40
0.7089378333
 40
0.8276484529
 40
0.9159040293
 40
0.9481122037
 40
0.9724064821
 40
1.0
 40
1.0
 40
1.0
 40
1.0
 10
534.0870072664
 20
227.7197314957
 30
0.0
 10
533.9318387399
 20
227.9225349152
 30
0.0
 10
533.7135487315
 20
228.2164295402
 30
0.0
 10
533.4505671003
 20
228.5954002687
 30
0.0
 10
533.2956633723
 20
228.8322347914
 30
0.0
 10
533.1777027824
 20
229.0299732337
 30
0.0
 10
533.1058889061
 20
229.1673025269
 30
0.0
 10
533.0713595201
 20
229.2564763892
 30
0.0
 10
533.05730585
 20
229.306536073
 30
0.0
 10
533.0561390514
 20
229.348599169
 30
0.0
 10
533.0701591659
 20
229.3598090933
 30
0.0
  0
SPLINE
  5
3D6
100
AcDbEntity
  8
X48002257_BL7
100
AcDbSpline
 62
7
  6
CONTINUOUS
 70
0
 71
3
 72
15
 73
11
 74
0
 42
0.0000001
 43
0.0000001
 44
0.0000000001
 40
0.0
 40
0.0
 40
0.0
 40
0.0
 40
0.027570752
 40
0.05185953
 40
0.084075238
 40
0.1723371934
 40
0.2910743663
 40
0.4374377092
 40
0.6075240789
 40
1.0
 40
1.0
 40
1.0
 40
1.0
 10
536.1925930832
 20
225.4546322174
 30
0.0
 10
536.1785593679
 20
225.4434114185
 30
0.0
 10
536.1377314376
 20
225.453882623
 30
0.0
 10
536.0919392362
 20
225.4786583779
 30
0.0
 10
536.0124413048
 20
225.5321322953
 30
0.0
 10
535.8941035216
 20
225.6326569204
 30
0.0
 10
535.7268873116
 20
225.7916165452
 30
0.0
 10
535.5295969934
 20
225.995268563
 30
0.0
 10
535.2171524602
 20
226.3357311875
 30
0.0
 10
534.9781265568
 20
226.6138461934
 30
0.0
 10
534.8141428252
 20
226.8101431873
 30
0.0
  0
ENDBLK
  5
3D7
100
AcDbEntity
  8
0
  6
BYBLOCK
 62
0
100
AcDbBlockEnd
  0
BLOCK
  5
3D8
100
AcDbEntity
  8
X48002007_BL8
100
AcDbBlockBegin
  2
X48002007_BL8
 70
64
 10
468.2920412337
 20
336.0526068515
  3
X48002007_BL8
  1

  0
LINE
  5
3D9
100
AcDbEntity
  8
X48002007_BL8
100
AcDbLine
 62
7
  6
CONTINUOUS
 10
470.1457216651
 20
341.4363143636
 11
469.6095059783
 21
340.895205234
  0
LINE
  5
3DA
100
AcDbEntity
  8
X48002007_BL8
100
AcDbLine
 62
7
  6
CONTINUOUS
 10
470.1436890004
 20
341.4577630132
 11
469.6041457155
 21
341.0050324419
  0
LINE
  5
3DB
100
AcDbEntity
  8
X48002007_BL8
100
AcDbLine
 62
7
  6
CONTINUOUS
 10
466.4383608023
 20
327.8645947565
 11
466.9196944212
 21
327.6208694774
  0
LINE
  5
3DC
100
AcDbEntity
  8
X48002007_BL8
100
AcDbLine
 62
7
  6
CONTINUOUS
 10
469.0238768616
 20
344.4960972139
 11
469.7536102535
 21
343.8986232647
  0
ARC
  5
3DD
100
AcDbEntity
  8
X48002007_BL8
100
AcDbCircle
 62
7
  6
CONTINUOUS
 10
467.1455658846
 20
328.0669435542
 40
0.5
100
AcDbArc
 50
243.1444365725
 51
293.7012063514
  0
ENDBLK
  5
3DE
100
AcDbEntity
  8
0
  6
BYBLOCK
 62
0
100
AcDbBlockEnd
  0
BLOCK
  5
3DF
100
AcDbEntity
  8
X48002258_BL9
100
AcDbBlockBegin
  2
X48002258_BL9
 70
64
 10
427.1279097868
 20
189.2275869135
  3
X48002258_BL9
  1

  0
LINE
  5
3E0
100
AcDbEntity
  8
X48002258_BL9
100
AcDbLine
 62
2
  6
CONTINUOUS
 10
536.449717849
 20
225.0200438755
 11
536.4496392917
 21
225.0201223559
  0
LINE
  5
3E1
100
AcDbEntity
  8
X48002258_BL9
100
AcDbLine
 62
7
  6
CONTINUOUS
 10
313.1954456066
 20
217.1587533238
 11
291.1954456066
 21
217.1587533238
  0
LINE
  5
3E2
100
AcDbEntity
  8
X48002258_BL9
100
AcDbLine
 62
9
  6
CONTINUOUS
 10
313.1954456066
 20
231.2138343275
 11
291.1954456066
 21
231.2138343275
  0
LINE
  5
3E3
100
AcDbEntity
  8
X48002258_BL9
100
AcDbLine
 62
9
  6
CONTINUOUS
 10
313.1954456066
 20
244.3081024902
 11
291.1954456066
 21
244.3081024902
  0
LINE
  5
3E4
100
AcDbEntity
  8
X48002258_BL9
100
AcDbLine
 62
7
  6
CONTINUOUS
 10
290.6954456066
 20
253.7588144579
 11
290.6954456066
 21
217.6587764497
  0
LINE
  5
3E5
100
AcDbEntity
  8
X48002258_BL9
100
AcDbLine
 62
9
  6
CONTINUOUS
 10
291.1954456066
 20
254.0710572222
 11
291.1954456066
 21
217.1587533238
  0
LWPOLYLINE
  5
3E6
100
AcDbEntity
  8
X48002258_BL9
100
AcDbPolyline
 62
7
  6
CONTINUOUS
 90
25
 70
0
 10
290.6954456066
 20
253.7588144579
 10
290.7929758788
 20
257.7657490023
 10
291.0854342618
 20
261.7669635259
 10
291.5724070964
 20
265.7566326938
 10
292.2532002784
 20
269.7289770872
 10
293.1268340982
 20
273.678217278
 10
294.1920693411
 20
277.5986867009
 10
295.4474077572
 20
281.4847778229
 10
296.8910342427
 20
285.3307882688
 10
298.5208639312
 20
289.1311103267
 10
300.3345452014
 20
292.8802208124
 10
302.3294461775
 20
296.5726509912
 10
304.5027151194
 20
300.2030942475
 10
306.8512694419
 20
303.7663572454
 10
309.3716598445
 20
307.2571699671
 10
312.0601899996
 20
310.6704014386
 10
314.9129667045
 20
314.0011072992
 10
317.9258265984
 20
317.2444294201
 10
321.0944441781
 20
320.395713079
 10
324.4142965001
 20
323.4504498667
 10
327.8804904225
 20
326.4041304832
 10
331.4879243796
 20
329.2524174803
 10
335.2313781941
 20
331.9912043284
 10
339.1054019124
 20
334.6165185351
 10
343.1043971553
 20
337.1245802664
  0
LWPOLYLINE
  5
3E7
100
AcDbEntity
  8
X48002258_BL9
100
AcDbPolyline
 62
9
  6
CONTINUOUS
 90
7
 70
0
 10
347.0409371094
 20
354.3055207946
 10
347.0918922161
 20
354.3427780786
 10
347.1515529805
 20
354.3745988053
 10
347.2184503568
 20
354.4001994428
 10
347.2909371095
 20
354.4189496183
 10
347.3672283742
 20
354.4303876404
 10
347.4454456066
 20
354.4342318669
  0
LWPOLYLINE
  5
3E8
100
AcDbEntity
  8
X48002258_BL9
100
AcDbPolyline
 62
9
  6
CONTINUOUS
 90
8
 70
0
 10
343.1043971553
 20
337.1245802664
 10
343.1153929633
 20
337.1300128506
 10
343.1465346195
 20
337.1357698603
 10
343.1829968141
 20
337.1307085045
 10
343.223881727
 20
337.1149534106
 10
343.2681826357
 20
337.0888925212
 10
343.3148087051
 20
337.0531675419
 10
343.3626118464
 20
337.0086581403
  0
LWPOLYLINE
  5
3E9
100
AcDbEntity
  8
X48002258_BL9
100
AcDbPolyline
 62
9
  6
CONTINUOUS
 90
11
 70
0
 10
290.6954456066
 20
253.7588144579
 10
290.7016014363
 20
253.8076599877
 10
290.7199173485
 20
253.8553027784
 10
290.7499423445
 20
253.9005697065
 10
290.7909371094
 20
253.9423461499
 10
290.841892216
 20
253.9796034339
 10
290.9015529805
 20
254.0114241606
 10
290.9684503568
 20
254.037024798
 10
291.0409371094
 20
254.0557749735
 10
291.1172283741
 20
254.0672129956
 10
291.1954456066
 20
254.0710572222
  0
LWPOLYLINE
  5
3EA
100
AcDbEntity
  8
X48002258_BL9
100
AcDbPolyline
 62
9
  6
CONTINUOUS
 90
11
 70
0
 10
290.6954456066
 20
243.9958597259
 10
290.7016014363
 20
244.0447052557
 10
290.7199173485
 20
244.0923480464
 10
290.7499423445
 20
244.1376149745
 10
290.7909371094
 20
244.1793914179
 10
290.841892216
 20
244.2166487019
 10
290.9015529805
 20
244.2484694286
 10
290.9684503568
 20
244.274070066
 10
291.0409371095
 20
244.2928202416
 10
291.1172283741
 20
244.3042582636
 10
291.1954456066
 20
244.3081024902
  0
LWPOLYLINE
  5
3EB
100
AcDbEntity
  8
X48002258_BL9
100
AcDbPolyline
 62
9
  6
CONTINUOUS
 90
25
 70
0
 10
343.3626118464
 20
337.0086581403
 10
339.3826224999
 20
334.5126360431
 10
335.531013336
 20
331.9029145022
 10
331.804674595
 20
329.1771879287
 10
328.2129355561
 20
326.3423730893
 10
324.762752367
 20
323.403282465
 10
321.458134662
 20
320.3639233242
 10
318.3039434777
 20
317.2282775325
 10
315.3045807557
 20
314.0012337797
 10
312.4648325662
 20
310.6873644785
 10
309.7884075593
 20
307.2916003266
 10
307.2795170625
 20
303.8186614639
 10
304.9414391135
 20
300.2737519769
 10
302.7779381368
 20
296.6618578887
 10
300.7917663003
 20
292.9883535293
 10
298.9861940182
 20
289.2584458034
 10
297.3634309759
 20
285.4776230094
 10
295.9262074609
 20
281.6511914053
 10
294.6762320808
 20
277.7849040162
 10
293.6157687276
 20
273.8844697046
 10
292.745881836
 20
269.9553272155
 10
292.0681819092
 20
266.0024043074
 10
291.5832946345
 20
262.032942802
 10
291.2925278489
 20
258.0569376579
 10
291.1954456066
 20
254.0710572222
  0
LWPOLYLINE
  5
3EC
100
AcDbEntity
  8
X48002258_BL9
100
AcDbPolyline
 62
9
  6
CONTINUOUS
 90
11
 70
0
 10
313.6954456066
 20
231.0335303099
 10
313.6892897769
 20
231.0617360724
 10
313.6709738648
 20
231.0892473154
 10
313.6409488688
 20
231.1153866209
 10
313.5999541039
 20
231.1395103523
 10
313.5489989972
 20
231.1610245034
 10
313.4893382328
 20
231.1793993243
 10
313.4224408565
 20
231.1941823659
 10
313.3499541038
 20
231.2050096207
 10
313.2736628391
 20
231.2116144858
 10
313.1954456066
 20
231.2138343275
  0
LWPOLYLINE
  5
3ED
100
AcDbEntity
  8
X48002258_BL9
100
AcDbPolyline
 62
9
  6
CONTINUOUS
 90
11
 70
0
 10
290.6954456066
 20
231.0335303099
 10
290.7016014362
 20
231.0617360722
 10
290.7199173482
 20
231.0892473151
 10
290.7499423441
 20
231.1153866206
 10
290.7909371092
 20
231.1395103522
 10
290.8418922163
 20
231.1610245035
 10
290.9015529814
 20
231.1793993245
 10
290.968450358
 20
231.1941823661
 10
291.0409371107
 20
231.2050096209
 10
291.1172283749
 20
231.2116144859
 10
291.1954456066
 20
231.2138343275
  0
LWPOLYLINE
  5
3EE
100
AcDbEntity
  8
X48002258_BL9
100
AcDbPolyline
 62
9
  6
CONTINUOUS
 90
11
 70
0
 10
313.6954456066
 20
243.9958597259
 10
313.6892897769
 20
244.0447052557
 10
313.6709738648
 20
244.0923480465
 10
313.6409488687
 20
244.1376149745
 10
313.5999541038
 20
244.1793914179
 10
313.5489989972
 20
244.2166487019
 10
313.4893382328
 20
244.2484694286
 10
313.4224408565
 20
244.274070066
 10
313.3499541038
 20
244.2928202416
 10
313.2736628392
 20
244.3042582636
 10
313.1954456066
 20
244.3081024902
  0
LWPOLYLINE
  5
3EF
100
AcDbEntity
  8
X48002258_BL9
100
AcDbPolyline
 62
9
  6
CONTINUOUS
 90
11
 70
0
 10
313.6954456066
 20
253.7588144579
 10
313.6892897769
 20
253.8076599877
 10
313.6709738648
 20
253.8553027784
 10
313.6409488687
 20
253.9005697065
 10
313.5999541038
 20
253.9423461499
 10
313.5489989972
 20
253.9796034339
 10
313.4893382328
 20
254.0114241606
 10
313.4224408565
 20
254.037024798
 10
313.3499541038
 20
254.0557749735
 10
313.2736628392
 20
254.0672129956
 10
313.1954456066
 20
254.0710572222
  0
LINE
  5
3F0
100
AcDbEntity
  8
X48002258_BL9
100
AcDbLine
 62
9
  6
CONTINUOUS
 10
313.1954456066
 20
217.1587533238
 11
313.1954456066
 21
254.0710572222
  0
LINE
  5
3F1
100
AcDbEntity
  8
X48002258_BL9
100
AcDbLine
 62
7
  6
CONTINUOUS
 10
313.6954456066
 20
217.6588408244
 11
313.6954456066
 21
253.7588144579
  0
LINE
  5
3F2
100
AcDbEntity
  8
X48002258_BL9
100
AcDbLine
 62
7
  6
CONTINUOUS
 10
313.695446066
 20
240.2143257751
 11
313.715792055
 21
242.0806571679
  0
LWPOLYLINE
  5
3F3
100
AcDbEntity
  8
X48002258_BL9
100
AcDbPolyline
 62
9
  6
CONTINUOUS
 90
25
 70
0
 10
313.1954456066
 20
254.0710572222
 10
313.2942099549
 20
257.5770349986
 10
313.5896421193
 20
261.0709506231
 10
314.0823334545
 20
264.5565934043
 10
314.7705098968
 20
268.0225954165
 10
315.6533224461
 20
271.4608045848
 10
316.7285872669
 20
274.8653626654
 10
317.994858113
 20
278.2298957819
 10
319.4490732168
 20
281.5477987579
 10
321.0889126726
 20
284.8123635087
 10
322.9107046481
 20
288.0175248832
 10
324.9114691264
 20
291.1569488205
 10
327.0868107558
 20
294.2247339667
 10
329.43301943
 20
297.2147199142
 10
331.9450593954
 20
300.1213497635
 10
334.6185211341
 20
302.938728514
 10
337.4478158333
 20
305.6617100617
 10
340.4279951587
 20
308.2848106047
 10
343.5527281576
 20
310.8031482369
 10
346.8161640888
 20
313.2113875707
 10
350.2119139834
 20
315.5054052489
 10
353.7345265373
 20
317.680830534
 10
357.3753380143
 20
319.73307018
 10
361.1225574718
 20
321.6553177586
 10
364.9801152241
 20
323.4498420794
  0
LWPOLYLINE
  5
3F4
100
AcDbEntity
  8
X48002258_BL9
100
AcDbPolyline
 62
9
  6
CONTINUOUS
 90
25
 70
0
 10
313.6954456066
 20
253.7588144579
 10
313.7936849809
 20
257.2472142157
 10
314.0882130858
 20
260.728866568
 10
314.5784602326
 20
264.1970371437
 10
315.2634781692
 20
267.6450176794
 10
316.1419419235
 20
271.0661389937
 10
317.212152312
 20
274.4537837056
 10
318.4720392994
 20
277.8013993243
 10
319.9191657977
 20
281.102510399
 10
321.550732392
 20
284.3507312989
 10
323.3635833933
 20
287.5397797104
 10
325.3542124883
 20
290.6634876061
 10
327.5187692732
 20
293.7158129061
 10
329.8530669912
 20
296.6908517076
 10
332.3525905728
 20
299.5828495958
 10
335.0125052762
 20
302.3862126803
 10
337.8276664996
 20
305.0955188794
 10
340.7926295554
 20
307.7055281067
 10
343.9016591077
 20
310.2111915157
 10
347.1487412282
 20
312.6076622637
 10
350.5275953067
 20
314.8903050199
 10
354.0316857157
 20
317.0547045344
 10
357.6542347405
 20
319.0966743708
 10
361.3882355127
 20
321.0122648775
 10
365.2264655566
 20
322.7977708323
  0
LINE
  5
3F5
100
AcDbEntity
  8
X48002258_BL9
100
AcDbLine
 62
7
  6
CONTINUOUS
 10
313.715792055
 20
242.0806571679
 11
313.7833315632
 21
244.0383969082
  0
LWPOLYLINE
  5
3F6
100
AcDbEntity
  8
X48002258_BL9
100
AcDbPolyline
 62
9
  6
CONTINUOUS
 90
3
 70
0
 10
313.7854676926
 20
244.0880452031
 10
313.7178461933
 20
242.1743548735
 10
313.6954456066
 20
240.2143238678
  0
LWPOLYLINE
  5
3F7
100
AcDbEntity
  8
X48002258_BL9
100
AcDbPolyline
 62
7
  6
CONTINUOUS
 90
5
 70
0
 10
313.7833315632
 20
244.0383969082
 10
313.899031261
 20
245.9485021727
 10
314.0633325392
 20
247.80730952
 10
314.2764329258
 20
249.6112808301
 10
314.5173734069
 20
251.2318244945
  0
LWPOLYLINE
  5
3F8
100
AcDbEntity
  8
X48002258_BL9
100
AcDbPolyline
 62
9
  6
CONTINUOUS
 90
19
 70
0
 10
364.9801152241
 20
323.4498420794
 10
366.4581500401
 20
324.1487898312
 10
367.8783902462
 20
324.9126576032
 10
369.2437305846
 20
325.7432181932
 10
370.5454868286
 20
326.6351532076
 10
371.7769363398
 20
327.5847554462
 10
372.9350890952
 20
328.5889641262
 10
374.0158896128
 20
329.6448369011
 10
375.0158116312
 20
330.7483112614
 10
375.9308512871
 20
331.8957016948
 10
376.758385905
 20
333.082934863
 10
377.4951693245
 20
334.3062211854
 10
378.1390681374
 20
335.5610238761
 10
378.6872936401
 20
336.8429450459
 10
379.1385655577
 20
338.1477784239
 10
379.490946766
 20
339.4719840803
 10
379.743619109
 20
340.8091651015
 10
379.8949357395
 20
342.1507974858
 10
379.9454456066
 20
343.4997225671
  0
LWPOLYLINE
  5
3F9
100
AcDbEntity
  8
X48002258_BL9
100
AcDbPolyline
 62
9
  6
CONTINUOUS
 90
19
 70
0
 10
365.2264655566
 20
322.7977708323
 10
366.7311563176
 20
323.5094604184
 10
368.1798531677
 20
324.2888074389
 10
369.5675751518
 20
325.1331323181
 10
370.889551003
 20
326.0395320997
 10
372.1412355484
 20
327.0048904472
 10
373.3183250457
 20
328.0258881172
 10
374.4167723027
 20
329.0990145734
 10
375.4328006164
 20
330.2205801076
 10
376.3629165339
 20
331.3867282785
 10
377.2039225046
 20
332.5934500196
 10
377.9529272256
 20
333.8365968234
 10
378.6073552346
 20
335.1118942698
 10
379.1649563938
 20
336.4149575757
 10
379.6238134611
 20
337.7413063951
 10
379.9823487276
 20
339.0863802668
 10
380.2393295075
 20
340.4455546106
 10
380.3938722519
 20
341.8141563124
 10
380.4454456066
 20
343.1874798028
  0
LWPOLYLINE
  5
3FA
100
AcDbEntity
  8
X48002258_BL9
100
AcDbPolyline
 62
7
  6
CONTINUOUS
 90
3
 70
0
 10
379.217784741
 20
323.9349455881
 10
379.2145539481
 20
323.9346314011
 10
379.2047155537
 20
323.9352900114
  0
LINE
  5
3FB
100
AcDbEntity
  8
X48002258_BL9
100
AcDbLine
 62
9
  6
CONTINUOUS
 10
314.5199166232
 20
251.2631539688
 11
314.5173733848
 21
251.2318274404
  0
LWPOLYLINE
  5
3FC
100
AcDbEntity
  8
X48002258_BL9
100
AcDbPolyline
 62
9
  6
CONTINUOUS
 90
5
 70
0
 10
314.5199166232
 20
251.2631539688
 10
314.2656374296
 20
249.5430884853
 10
314.0588205962
 20
247.773338757
 10
313.8989355832
 20
245.9546790334
 10
313.7854676926
 20
244.0880452031
  0
LWPOLYLINE
  5
3FD
100
AcDbEntity
  8
X48002258_BL9
100
AcDbPolyline
 62
7
  6
CONTINUOUS
 90
23
 70
0
 10
314.5173733848
 20
251.2318274404
 10
315.1509049552
 20
254.5366464249
 10
315.9625500577
 20
257.8175195045
 10
316.9508335818
 20
261.0686272996
 10
318.1139772985
 20
264.2842275018
 10
319.4498968911
 20
267.4586353648
 10
320.9561929276
 20
270.5862113327
 10
322.6301626865
 20
273.6613987209
 10
324.4688095761
 20
276.6787409227
 10
326.4688249363
 20
279.6328547199
 10
328.6266789459
 20
282.5185616399
 10
330.9385626255
 20
285.3307826981
 10
333.4003693773
 20
288.0645271872
 10
336.0077463588
 20
290.714959761
 10
338.756041854
 20
293.2773479879
 10
341.6403446866
 20
295.747113068
 10
344.6555664521
 20
298.1198954378
 10
347.7963794375
 20
300.3914923696
 10
351.0572197174
 20
302.5578653747
 10
354.4323253739
 20
304.6151686346
 10
357.915698049
 20
306.5597265484
 10
361.5011673877
 20
308.3880750861
 10
365.1823337268
 20
310.0969329858
  0
LINE
  5
3FE
100
AcDbEntity
  8
X48002258_BL9
100
AcDbLine
 62
7
  6
CONTINUOUS
 10
366.6170667408
 20
310.7734719958
 11
365.1823337268
 21
310.0969329858
  0
LWPOLYLINE
  5
3FF
100
AcDbEntity
  8
X48002258_BL9
100
AcDbPolyline
 62
9
  6
CONTINUOUS
 90
23
 70
0
 10
365.2264655566
 20
310.214387432
 10
361.5430360435
 20
308.5043926147
 10
357.9552199251
 20
306.6745882265
 10
354.4694015948
 20
304.7282303389
 10
351.0917839546
 20
302.6687824323
 10
347.8283773768
 20
300.4999092349
 10
344.6849889466
 20
298.2254701586
 10
341.6672120681
 20
295.8495123645
 10
338.780417148
 20
293.3762640877
 10
336.0297415181
 20
290.8101268045
 10
333.4200794876
 20
288.1556665753
 10
330.9560746494
 20
285.4176067448
 10
328.6421115454
 20
282.6008195239
 10
326.4823076578
 20
279.7103170934
 10
324.480506404
 20
276.7512431245
 10
322.6402699857
 20
273.7288632765
 10
320.9648730035
 20
270.648555707
 10
319.4572967562
 20
267.5158016745
 10
318.1202239452
 20
264.3361758268
 10
316.9560338544
 20
261.1153361975
 10
315.966798135
 20
257.8590141848
 10
315.1542771083
 20
254.5730043325
 10
314.5199166232
 20
251.2631539688
  0
LWPOLYLINE
  5
400
100
AcDbEntity
  8
X48002258_BL9
100
AcDbPolyline
 62
9
  6
CONTINUOUS
 90
5
 70
0
 10
346.9454456066
 20
354.1219891026
 10
346.9516014363
 20
354.1708346324
 10
346.9699173485
 20
354.2184774232
 10
346.9999423445
 20
354.2637443512
 10
347.0409371094
 20
354.3055207946
  0
LINE
  5
401
100
AcDbEntity
  8
X48002258_BL9
100
AcDbLine
 62
7
  6
CONTINUOUS
 10
346.9454456066
 20
354.3097268234
 11
346.9454456066
 21
343.1874798028
  0
LINE
  5
402
100
AcDbEntity
  8
X48002258_BL9
100
AcDbLine
 62
9
  6
CONTINUOUS
 10
347.4454456066
 20
354.8097463384
 11
347.4454456066
 21
343.4997225671
  0
LWPOLYLINE
  5
403
100
AcDbEntity
  8
X48002258_BL9
100
AcDbPolyline
 62
9
  6
CONTINUOUS
 90
13
 70
0
 10
347.4454456066
 20
343.4997225671
 10
347.415224337
 20
342.8770408743
 10
347.3247850711
 20
342.2600349464
 10
347.1735793058
 20
341.6465218249
 10
346.9632525508
 20
341.0430503856
 10
346.694598438
 20
340.4545321689
 10
346.3696240978
 20
339.8836962223
 10
345.9897467346
 20
339.3339276666
 10
345.5575297575
 20
338.8081698219
 10
345.0745119636
 20
338.3093303844
 10
344.5451843938
 20
337.8409013462
 10
343.975176518
 20
337.4079015846
 10
343.3626118464
 20
337.0086581403
  0
LWPOLYLINE
  5
404
100
AcDbEntity
  8
X48002258_BL9
100
AcDbPolyline
 62
7
  6
CONTINUOUS
 90
13
 70
0
 10
346.9454456066
 20
343.1874798028
 10
346.9163760448
 20
342.6019585092
 10
346.829534466
 20
342.0207758399
 10
346.6856565351
 20
341.4470131407
 10
346.4858950539
 20
340.8841360837
 10
346.2318559893
 20
340.3356110012
 10
345.9252252409
 20
339.8042302665
 10
345.5680895219
 20
339.2929770941
 10
345.1624968425
 20
338.8043303976
 10
344.7107287195
 20
338.3407860042
 10
344.2153006598
 20
337.9047903791
 10
343.6787581252
 20
337.4985582256
 10
343.1043971553
 20
337.1245802664
  0
LWPOLYLINE
  5
405
100
AcDbEntity
  8
X48002258_BL9
100
AcDbPolyline
 62
9
  6
CONTINUOUS
 90
11
 70
0
 10
346.9454456066
 20
343.1874798028
 10
346.951601436
 20
343.2363253314
 10
346.9699173476
 20
343.2839681216
 10
346.999942343
 20
343.3292350496
 10
347.0409371078
 20
343.3710114934
 10
347.0918922154
 20
343.4082687784
 10
347.1515529812
 20
343.4400895058
 10
347.2184503584
 20
343.4656901435
 10
347.2909371114
 20
343.4844403189
 10
347.3672283756
 20
343.4958783407
 10
347.4454456066
 20
343.4997225671
  0
LINE
  5
406
100
AcDbEntity
  8
X48002258_BL9
100
AcDbLine
 62
9
  6
CONTINUOUS
 10
379.9454456066
 20
354.4342318669
 11
347.4454456066
 21
354.4342318669
  0
LINE
  5
407
100
AcDbEntity
  8
X48002258_BL9
100
AcDbLine
 62
7
  6
CONTINUOUS
 10
347.4454456066
 20
354.8097463384
 11
379.9454456066
 21
354.8097463384
  0
LINE
  5
408
100
AcDbEntity
  8
X48002258_BL9
100
AcDbLine
 62
9
  6
CONTINUOUS
 10
365.2264655566
 20
310.214387432
 11
365.2264655566
 21
322.7977708323
  0
LWPOLYLINE
  5
409
100
AcDbEntity
  8
X48002258_BL9
100
AcDbPolyline
 62
9
  6
CONTINUOUS
 90
5
 70
0
 10
365.2264655566
 20
310.214387432
 10
365.2234325752
 20
310.1697257547
 10
365.2144083131
 20
310.1345315013
 10
365.1996149776
 20
310.1096712709
 10
365.1823337268
 20
310.0969329858
  0
LWPOLYLINE
  5
40A
100
AcDbEntity
  8
X48002258_BL9
100
AcDbPolyline
 62
9
  6
CONTINUOUS
 90
11
 70
0
 10
365.2264655566
 20
322.7977708323
 10
365.2234325752
 20
322.8508002146
 10
365.2144083131
 20
322.9108915426
 10
365.1996149776
 20
322.9765651683
 10
365.1794168297
 20
323.0462039893
 10
365.1543112148
 20
323.1180932665
 10
365.1249163164
 20
323.1904628473
 10
365.0919559346
 20
323.2615307525
 10
365.0562416634
 20
323.3295470544
 10
365.0186529066
 20
323.3928369659
 10
364.9801152241
 20
323.4498420794
  0
LWPOLYLINE
  5
40B
100
AcDbEntity
  8
X48002258_BL9
100
AcDbPolyline
 62
7
  6
CONTINUOUS
 90
14
 70
0
 10
379.2177752639
 20
323.9349203881
 10
378.8061808186
 20
322.9248081058
 10
378.2178008649
 20
321.6975999917
 10
377.5429165889
 20
320.4974448403
 10
376.7835763672
 20
319.3282552369
 10
375.9420919691
 20
318.1937823489
 10
375.0210502288
 20
317.0976550814
 10
374.0232986844
 20
316.0433659947
 10
372.9519612034
 20
315.0342870699
 10
371.8104097887
 20
314.0736355292
 10
370.6022307897
 20
313.164448514
 10
369.3312471587
 20
312.3096039962
 10
368.0014471406
 20
311.5117727298
 10
366.6170667408
 20
310.7734719958
  0
LWPOLYLINE
  5
40C
100
AcDbEntity
  8
X48002258_BL9
100
AcDbPolyline
 62
9
  6
CONTINUOUS
 90
15
 70
0
 10
379.2047155537
 20
323.9352900114
 10
378.70499674
 20
322.7393365893
 10
378.1223721357
 20
321.5633603481
 10
377.4576957933
 20
320.4104992196
 10
376.7131621011
 20
319.2856134609
 10
375.8913262833
 20
318.1930583168
 10
374.9948936983
 20
317.1366057409
 10
374.0270092748
 20
316.1199277486
 10
372.991265707
 20
315.1465597547
 10
371.8972679466
 20
314.2243032483
 10
370.7322435518
 20
313.3425593291
 10
369.4817235157
 20
312.4944896112
 10
368.1482561164
 20
311.687361453
 10
366.7289830672
 20
310.9249799426
 10
365.2264655566
 20
310.214387432
  0
LINE
  5
40D
100
AcDbEntity
  8
X48002258_BL9
100
AcDbLine
 62
9
  6
CONTINUOUS
 10
379.9454456066
 20
343.4997225671
 11
379.9454456066
 21
354.8097463384
  0
LINE
  5
40E
100
AcDbEntity
  8
X48002258_BL9
100
AcDbLine
 62
7
  6
CONTINUOUS
 10
380.4454456066
 20
354.3097268234
 11
380.4454453319
 21
338.9576613932
  0
LWPOLYLINE
  5
40F
100
AcDbEntity
  8
X48002258_BL9
100
AcDbPolyline
 62
9
  6
CONTINUOUS
 90
15
 70
0
 10
380.4454453319
 20
338.9576613932
 10
380.4282512031
 20
337.6416488979
 10
380.3799228554
 20
336.3268652576
 10
380.3050431195
 20
335.0168941312
 10
380.2085356641
 20
333.7187010474
 10
380.0945868903
 20
332.4266682638
 10
379.9704823389
 20
331.1756426103
 10
379.845170643
 20
329.9972017479
 10
379.723015352
 20
328.8936557371
 10
379.6095598595
 20
327.880718577
 10
379.5062729936
 20
326.9493644591
 10
379.4145518581
 20
326.1000920675
 10
379.3342591925
 20
325.3206085669
 10
379.2635346447
 20
324.5976517904
 10
379.2047155537
 20
323.9352900114
  0
LWPOLYLINE
  5
410
100
AcDbEntity
  8
X48002258_BL9
100
AcDbPolyline
 62
7
  6
CONTINUOUS
 90
4
 70
0
 10
379.2177922339
 20
323.9349976969
 10
379.2851883615
 20
324.6979495637
 10
379.3997993293
 20
325.8665001056
 10
379.5282501271
 20
327.0774320315
  0
LWPOLYLINE
  5
411
100
AcDbEntity
  8
X48002258_BL9
100
AcDbPolyline
 62
7
  6
CONTINUOUS
 90
9
 70
0
 10
379.5282501271
 20
327.0774320315
 10
379.8072351784
 20
329.6073977019
 10
379.9472668226
 20
330.9173960901
 10
380.0803544862
 20
332.2514488198
 10
380.2008580847
 20
333.6051835621
 10
380.3031613169
 20
334.9741786429
 10
380.381632978
 20
336.3540952965
 10
380.4307502356
 20
337.7403789092
 10
380.4454435226
 20
338.9576834876
  0
LINE
  5
412
100
AcDbEntity
  8
X48002258_BL9
100
AcDbLine
 62
7
  6
CONTINUOUS
 10
379.2177946974
 20
323.9350041689
 11
379.217784741
 21
323.9349455881
  0
LWPOLYLINE
  5
413
100
AcDbEntity
  8
X48002258_BL9
100
AcDbPolyline
 62
9
  6
CONTINUOUS
 90
7
 70
0
 10
380.3499541993
 20
354.3055207126
 10
380.2989990353
 20
354.3427780549
 10
380.2393381834
 20
354.3745988277
 10
380.1724407506
 20
354.4001994762
 10
380.099953978
 20
354.4189496438
 10
380.0236627487
 20
354.430387651
 10
379.9454456066
 20
354.4342318715
  0
LWPOLYLINE
  5
414
100
AcDbEntity
  8
X48002258_BL9
100
AcDbPolyline
 62
9
  6
CONTINUOUS
 90
11
 70
0
 10
380.4454456066
 20
343.1874798028
 10
380.4392897769
 20
343.2363253326
 10
380.4209738648
 20
343.2839681234
 10
380.3909488687
 20
343.3292350514
 10
380.3499541038
 20
343.3710114948
 10
380.2989989972
 20
343.4082687788
 10
380.2393382328
 20
343.4400895055
 10
380.1724408565
 20
343.4656901429
 10
380.0999541038
 20
343.4844403185
 10
380.0236628392
 20
343.4958783405
 10
379.9454456066
 20
343.4997225671
  0
LWPOLYLINE
  5
415
100
AcDbEntity
  8
X48002258_BL9
100
AcDbPolyline
 62
9
  6
CONTINUOUS
 90
5
 70
0
 10
380.4454456066
 20
354.1219891026
 10
380.4392897952
 20
354.1708345603
 10
380.4209739213
 20
354.2184773145
 10
380.3909489586
 20
354.263744241
 10
380.3499541993
 20
354.3055207126
  0
LINE
  5
416
100
AcDbEntity
  8
X48002258_BL9
100
AcDbLine
 62
7
  6
CONTINUOUS
 10
313.1954456066
 20
23.6454274886
 11
291.1954456066
 21
23.6454274886
  0
LINE
  5
417
100
AcDbEntity
  8
X48002258_BL9
100
AcDbLine
 62
9
  6
CONTINUOUS
 10
313.1954456066
 20
24.3404562113
 11
291.1954456066
 21
24.3404562113
  0
LINE
  5
418
100
AcDbEntity
  8
X48002258_BL9
100
AcDbLine
 62
9
  6
CONTINUOUS
 10
313.1954456066
 20
31.8672544366
 11
291.1954456066
 21
31.8672544366
  0
LINE
  5
419
100
AcDbEntity
  8
X48002258_BL9
100
AcDbLine
 62
9
  6
CONTINUOUS
 10
290.8600776465
 20
56.6692557393
 11
290.7085459622
 21
56.6704891621
  0
LWPOLYLINE
  5
41A
100
AcDbEntity
  8
X48002258_BL9
100
AcDbPolyline
 62
7
  6
CONTINUOUS
 90
20
 70
0
 10
290.7750830012
 20
57.2420928526
 10
290.787299031
 20
57.2301327472
 10
290.8073048767
 20
57.1621628398
 10
290.8273762945
 20
57.0336001605
 10
290.8468661619
 20
56.8464479227
 10
290.865086461
 20
56.6020776136
 10
290.8815596037
 20
56.3019728523
 10
290.895813895
 20
55.9465703186
 10
290.907399727
 20
55.5403821895
 10
290.9158864116
 20
55.0874696953
 10
290.9210856558
 20
54.5896148221
 10
290.9228264639
 20
54.0477617685
 10
290.9210856241
 20
53.4684699598
 10
290.9158863418
 20
52.8579274588
 10
290.9073996245
 20
52.2181752898
 10
290.895813783
 20
51.5507564749
 10
290.8815594777
 20
50.8633379174
 10
290.8650862795
 20
50.1632320018
 10
290.8468659431
 20
49.4530377732
 10
290.8273761196
 20
48.7353283721
  0
LWPOLYLINE
  5
41B
100
AcDbEntity
  8
X48002258_BL9
100
AcDbPolyline
 62
9
  6
CONTINUOUS
 90
11
 70
0
 10
290.6954456066
 20
32.2577726259
 10
290.7016014363
 20
32.1966821219
 10
290.7199173485
 20
32.1370958688
 10
290.7499423445
 20
32.080481078
 10
290.7909371094
 20
32.0282317935
 10
290.841892216
 20
31.9816345661
 10
290.9015529805
 20
31.9418367742
 10
290.9684503568
 20
31.9098183714
 10
291.0409371095
 20
31.8863677572
 10
291.1172283741
 20
31.8720623636
 10
291.1954456066
 20
31.8672544366
  0
LWPOLYLINE
  5
41C
100
AcDbEntity
  8
X48002258_BL9
100
AcDbPolyline
 62
9
  6
CONTINUOUS
 90
11
 70
0
 10
290.6954456066
 20
40.0638417328
 10
290.7016014363
 20
40.0027512287
 10
290.7199173485
 20
39.9431649757
 10
290.7499423445
 20
39.8865501849
 10
290.7909371094
 20
39.8343009004
 10
290.841892216
 20
39.787703673
 10
290.9015529805
 20
39.747905881
 10
290.9684503568
 20
39.7158874783
 10
291.0409371094
 20
39.6924368641
 10
291.1172283741
 20
39.6781314704
 10
291.1954456066
 20
39.6733235435
  0
LWPOLYLINE
  5
41D
100
AcDbEntity
  8
X48002258_BL9
100
AcDbPolyline
 62
9
  6
CONTINUOUS
 90
11
 70
0
 10
290.6954456066
 20
24.8068149372
 10
290.7016014362
 20
24.73386036
 10
290.7199173482
 20
24.6627021662
 10
290.7499423441
 20
24.5950925069
 10
290.7909371092
 20
24.5326961561
 10
290.8418922163
 20
24.4770495194
 10
290.9015529814
 20
24.4295228018
 10
290.968450358
 20
24.3912862692
 10
291.0409371107
 20
24.3632814316
 10
291.1172283749
 20
24.3461978609
 10
291.1954456066
 20
24.3404562113
  0
LINE
  5
41E
100
AcDbEntity
  8
X48002258_BL9
100
AcDbLine
 62
7
  6
CONTINUOUS
 10
290.6954456066
 20
58.5964756957
 11
290.6954456066
 21
56.6704891621
  0
LINE
  5
41F
100
AcDbEntity
  8
X48002258_BL9
100
AcDbLine
 62
7
  6
CONTINUOUS
 10
290.6954456066
 20
42.3982997976
 11
290.6954456066
 21
24.1455405803
  0
LINE
  5
420
100
AcDbEntity
  8
X48002258_BL9
100
AcDbLine
 62
7
  6
CONTINUOUS
 10
290.6954456066
 20
55.2727190977
 11
290.6954456066
 21
55.9275312883
  0
LINE
  5
421
100
AcDbEntity
  8
X48002258_BL9
100
AcDbLine
 62
7
  6
CONTINUOUS
 10
290.6954456066
 20
58.5964756957
 11
290.6954456649
 21
58.5981046167
  0
LINE
  5
422
100
AcDbEntity
  8
X48002258_BL9
100
AcDbLine
 62
9
  6
CONTINUOUS
 10
291.1954456066
 20
39.6733235435
 11
291.1954456066
 21
23.6454274886
  0
LWPOLYLINE
  5
423
100
AcDbEntity
  8
X48002258_BL9
100
AcDbPolyline
 62
7
  6
CONTINUOUS
 90
7
 70
0
 10
290.6954456066
 20
55.9275312883
 10
290.6958122781
 20
56.0563720428
 10
290.6969100981
 20
56.1832116187
 10
290.6987358107
 20
56.3080519583
 10
290.7012860224
 20
56.4308830171
 10
290.704557203
 20
56.551694761
 10
290.7085459622
 20
56.6704891621
  0
LWPOLYLINE
  5
424
100
AcDbEntity
  8
X48002258_BL9
100
AcDbPolyline
 62
7
  6
CONTINUOUS
 90
7
 70
0
 10
290.7085459622
 20
44.0012908463
 10
290.704557203
 20
43.7306255617
 10
290.7012860224
 20
43.4613555468
 10
290.6987358107
 20
43.1934786456
 10
290.6969100981
 20
42.9270054435
 10
290.6958122781
 20
42.6619465362
 10
290.6954456066
 20
42.3982997976
  0
LWPOLYLINE
  5
425
100
AcDbEntity
  8
X48002258_BL9
100
AcDbPolyline
 62
7
  6
CONTINUOUS
 90
7
 70
0
 10
290.8273761196
 20
48.7353283721
 10
290.7872988422
 20
47.3066868165
 10
290.7679481616
 20
46.6062038547
 10
290.7498172189
 20
45.9197801989
 10
290.7335303558
 20
45.2532680086
 10
290.7196657535
 20
44.614657737
 10
290.7085459622
 20
44.0012908463
  0
LWPOLYLINE
  5
426
100
AcDbEntity
  8
X48002258_BL9
100
AcDbPolyline
 62
9
  6
CONTINUOUS
 90
9
 70
0
 10
290.6954456649
 20
58.5981046167
 10
290.7358259408
 20
59.9986313481
 10
290.8578223819
 20
61.4989615044
 10
291.062774933
 20
63.0970222105
 10
291.3516184462
 20
64.7889656439
 10
291.7246562426
 20
66.5700736418
 10
292.1833803522
 20
68.4423789514
 10
292.7296715144
 20
70.4069966742
 10
293.3644724935
 20
72.4615846418
  0
LWPOLYLINE
  5
427
100
AcDbEntity
  8
X48002258_BL9
100
AcDbPolyline
 62
7
  6
CONTINUOUS
 90
6
 70
0
 10
290.7085459622
 20
56.6704891621
 10
290.7196657634
 20
56.9009220301
 10
290.7335303976
 20
57.0723094802
 10
290.7498173433
 20
57.1849721204
 10
290.7679483717
 20
57.237933286
 10
290.7750830012
 20
57.2420928526
  0
LINE
  5
428
100
AcDbEntity
  8
X48002258_BL9
100
AcDbLine
 62
7
  6
CONTINUOUS
 10
343.1913739097
 20
122.5857727288
 11
343.2297328309
 21
122.6066962198
  0
LINE
  5
429
100
AcDbEntity
  8
X48002258_BL9
100
AcDbLine
 62
7
  6
CONTINUOUS
 10
339.3913618492
 20
120.6877082261
 11
343.1454438854
 21
122.5656971117
  0
LINE
  5
42A
100
AcDbEntity
  8
X48002258_BL9
100
AcDbLine
 62
7
  6
CONTINUOUS
 10
343.2297328309
 20
122.6066962198
 11
343.2400617162
 21
122.611666211
  0
LWPOLYLINE
  5
42B
100
AcDbEntity
  8
X48002258_BL9
100
AcDbPolyline
 62
7
  6
CONTINUOUS
 90
3
 70
0
 10
343.2400617162
 20
122.611666211
 10
343.2954296142
 20
122.6345924536
 10
343.3577293893
 20
122.6546073882
  0
LWPOLYLINE
  5
42C
100
AcDbEntity
  8
X48002258_BL9
100
AcDbPolyline
 62
9
  6
CONTINUOUS
 90
6
 70
0
 10
365.1467928108
 20
95.0649495516
 10
365.1249163164
 20
95.0607052907
 10
365.0919559346
 20
95.0650407014
 10
365.0562416634
 20
95.0809813163
 10
365.0186529066
 20
95.1081346248
 10
364.9801152241
 20
95.1458320222
  0
LWPOLYLINE
  5
42D
100
AcDbEntity
  8
X48002258_BL9
100
AcDbPolyline
 62
9
  6
CONTINUOUS
 90
3
 70
0
 10
291.0852432473
 20
46.4576950422
 10
290.7929303028
 20
43.2630844122
 10
290.6954456066
 20
40.0638417328
  0
LWPOLYLINE
  5
42E
100
AcDbEntity
  8
X48002258_BL9
100
AcDbPolyline
 62
9
  6
CONTINUOUS
 90
3
 70
0
 10
293.3644724935
 20
72.4615846417
 10
293.3705064941
 20
72.5219144543
 10
293.3788573453
 20
72.5536895679
  0
LWPOLYLINE
  5
42F
100
AcDbEntity
  8
X48002258_BL9
100
AcDbPolyline
 62
7
  6
CONTINUOUS
 90
9
 70
0
 10
293.3788607592
 20
72.5536978128
 10
292.7671926227
 20
70.5779597579
 10
292.2114793031
 20
68.5887228761
 10
291.7423935012
 20
66.6824728583
 10
291.3602258653
 20
64.8633373795
 10
291.0650462733
 20
63.1353340652
 10
290.8563863067
 20
61.5018673945
 10
290.7335873149
 20
59.9660271191
 10
290.6954463879
 20
58.5981010756
  0
LWPOLYLINE
  5
430
100
AcDbEntity
  8
X48002258_BL9
100
AcDbPolyline
 62
7
  6
CONTINUOUS
 90
20
 70
0
 10
293.3788573453
 20
72.5536895679
 10
294.4175083541
 20
75.4923541879
 10
295.6231180625
 20
78.4061297083
 10
296.9942274454
 20
81.2913236676
 10
298.5290950685
 20
84.1441396867
 10
300.2257713337
 20
86.960867476
 10
302.0820965964
 20
89.7378631142
 10
304.0956990092
 20
92.4715403711
 10
306.2639913507
 20
95.1583666352
 10
308.584178596
 20
97.794874269
 10
311.053274193
 20
100.377677436
 10
313.6680856223
 20
102.9034544574
 10
316.4252497587
 20
105.3689817833
 10
319.3212038311
 20
107.7711038565
 10
322.3522303666
 20
110.1067710106
 10
325.5144222902
 20
112.3730084437
 10
328.8037293895
 20
114.566950454
 10
332.2159244089
 20
116.685814436
 10
335.7466458835
 20
118.7269284563
 10
339.3913618492
 20
120.6877082261
  0
LWPOLYLINE
  5
431
100
AcDbEntity
  8
X48002258_BL9
100
AcDbPolyline
 62
9
  6
CONTINUOUS
 90
21
 70
0
 10
293.3644724935
 20
72.4615846418
 10
294.3988902147
 20
75.3880870745
 10
295.5996347704
 20
78.2897131366
 10
296.9651811117
 20
81.1627775135
 10
298.4937948759
 20
84.003631163
 10
300.1835345928
 20
86.8086659583
 10
302.0322541377
 20
89.5743192493
 10
304.0376054704
 20
92.2970784122
 10
306.1970416016
 20
94.9734852887
 10
308.5078198152
 20
97.6001405706
 10
310.9670052724
 20
100.1737082468
 10
313.5714746409
 20
102.69091971
 10
316.3179200356
 20
105.1485778919
 10
319.2028532909
 20
107.5435613921
 10
322.2226102374
 20
109.8728283176
 10
325.3733554661
 20
112.133420254
 10
328.6510872792
 20
114.3224660718
 10
332.0516426763
 20
116.4371854957
 10
335.5707026595
 20
118.4748926503
 10
339.2037977211
 20
120.4329994731
 10
342.946313516
 20
122.3090189989
  0
LWPOLYLINE
  5
432
100
AcDbEntity
  8
X48002258_BL9
100
AcDbPolyline
 62
7
  6
CONTINUOUS
 90
4
 70
0
 10
343.1913739097
 20
122.5857727304
 10
343.1731740205
 20
122.5740841907
 10
343.1549558736
 20
122.5612413832
 10
343.1367396019
 20
122.5472277001
  0
LWPOLYLINE
  5
433
100
AcDbEntity
  8
X48002258_BL9
100
AcDbPolyline
 62
7
  6
CONTINUOUS
 90
3
 70
0
 10
343.1367396019
 20
122.5472277001
 10
343.1185873641
 20
122.5320574632
 10
343.100558361
 20
122.5157509989
  0
LWPOLYLINE
  5
434
100
AcDbEntity
  8
X48002258_BL9
100
AcDbPolyline
 62
9
  6
CONTINUOUS
 90
7
 70
0
 10
343.0570290864
 20
122.0812341758
 10
343.1014578496
 20
122.1167856371
 10
343.1493751799
 20
122.1485605886
 10
343.2001409627
 20
122.1761345574
 10
343.2530770314
 20
122.1991391906
 10
343.3074762273
 20
122.2172671758
 10
343.3626118463
 20
122.2302763461
  0
LWPOLYLINE
  5
435
100
AcDbEntity
  8
X48002258_BL9
100
AcDbPolyline
 62
9
  6
CONTINUOUS
 90
23
 70
0
 10
343.0570325016
 20
106.6245812735
 10
339.061710973
 20
104.6211510533
 10
335.1913313414
 20
102.5242510019
 10
331.4514973693
 20
100.3369171341
 10
327.8476238017
 20
98.0623163967
 10
324.3849285304
 20
95.703742084
 10
321.0684250571
 20
93.2646090833
 10
317.9029151986
 20
90.7484489049
 10
314.8929822117
 20
88.1589046322
 10
312.0429841082
 20
85.4997256204
 10
309.3570472044
 20
82.7747619271
 10
306.8390603072
 20
79.9879588652
 10
304.4926691214
 20
77.1433513466
 10
302.3212708889
 20
74.2450579601
 10
300.3280094867
 20
71.2972750236
 10
298.5157708849
 20
68.3042705271
 10
296.8871789172
 20
65.2703778634
 10
295.4445915289
 20
62.1999896061
 10
294.1900974269
 20
59.0975513075
 10
293.1255129629
 20
55.9675549064
 10
292.2523794997
 20
52.8145321839
 10
291.5719612122
 20
49.6430482781
 10
291.0852432473
 20
46.4576950422
  0
LWPOLYLINE
  5
436
100
AcDbEntity
  8
X48002258_BL9
100
AcDbPolyline
 62
9
  6
CONTINUOUS
 90
25
 70
0
 10
343.3626118464
 20
105.9869204103
 10
339.3826224999
 20
103.9912007212
 10
335.531013336
 20
101.9045714929
 10
331.804674595
 20
99.7251892686
 10
328.2129355561
 20
97.4585844191
 10
324.762752367
 20
95.108604812
 10
321.458134662
 20
92.6784544995
 10
318.3039434777
 20
90.1713172221
 10
315.3045807557
 20
87.5911017816
 10
312.4648325662
 20
84.9414640964
 10
309.7884075593
 20
82.2263465558
 10
307.2795170625
 20
79.4495231955
 10
304.9414391135
 20
76.6151549952
 10
302.7779381368
 20
73.7272285802
 10
300.7917663003
 20
70.7900410502
 10
298.9861940182
 20
67.8077556387
 10
297.3634309759
 20
64.78476057
 10
295.9262074609
 20
61.7252985163
 10
294.6762320808
 20
58.633969367
 10
293.6157687276
 20
55.5153377008
 10
292.745881836
 20
52.3737521211
 10
292.0681819092
 20
49.2131526672
 10
291.5832946345
 20
46.0393296106
 10
291.2925278489
 20
42.8602745216
 10
291.1954456066
 20
39.6733235435
  0
LINE
  5
437
100
AcDbEntity
  8
X48002258_BL9
100
AcDbLine
 62
9
  6
CONTINUOUS
 10
313.1954456066
 20
23.6454274886
 11
313.1954456066
 21
39.6733235435
  0
LINE
  5
438
100
AcDbEntity
  8
X48002258_BL9
100
AcDbLine
 62
7
  6
CONTINUOUS
 10
313.6954456066
 20
24.1455418816
 11
313.6954456066
 21
40.0638417328
  0
LWPOLYLINE
  5
439
100
AcDbEntity
  8
X48002258_BL9
100
AcDbPolyline
 62
9
  6
CONTINUOUS
 90
25
 70
0
 10
313.1954456066
 20
39.6733235435
 10
313.2942099549
 20
42.4765635012
 10
313.5896421193
 20
45.2701590435
 10
314.0823334545
 20
48.0571399503
 10
314.7705098968
 20
50.8284168818
 10
315.6533224461
 20
53.577471764
 10
316.7285872669
 20
56.2996205791
 10
317.994858113
 20
58.9897670297
 10
319.4490732168
 20
61.6426298804
 10
321.0889126726
 20
64.252845614
 10
322.9107046481
 20
66.815564778
 10
324.9114691264
 20
69.3257229097
 10
327.0868107558
 20
71.7786015221
 10
329.43301943
 20
74.1692749991
 10
331.9450593954
 20
76.4933002655
 10
334.6185211341
 20
78.745963914
 10
337.4478158333
 20
80.9231513252
 10
340.4279951587
 20
83.0204778697
 10
343.5527281576
 20
85.0340401704
 10
346.8161640888
 20
86.959572264
 10
350.2119139834
 20
88.7937772789
 10
353.7345265373
 20
90.5331605474
 10
357.3753380143
 20
92.1740494934
 10
361.1225574718
 20
93.7110019685
 10
364.9801152241
 20
95.1458320222
  0
LWPOLYLINE
  5
43A
100
AcDbEntity
  8
X48002258_BL9
100
AcDbPolyline
 62
7
  6
CONTINUOUS
 90
4
 70
0
 10
343.0568698914
 20
122.4707463993
 10
343.0322610967
 20
122.4414285175
 10
343.0088240615
 20
122.4104764593
 10
342.9866453346
 20
122.378012825
  0
LINE
  5
43B
100
AcDbEntity
  8
X48002258_BL9
100
AcDbLine
 62
7
  6
CONTINUOUS
 10
343.0826685211
 20
122.498302837
 11
343.0568698914
 21
122.4707463993
  0
LINE
  5
43C
100
AcDbEntity
  8
X48002258_BL9
100
AcDbLine
 62
7
  6
CONTINUOUS
 10
343.100558361
 20
122.5157509989
 11
343.0826685211
 21
122.498302837
  0
LWPOLYLINE
  5
43D
100
AcDbEntity
  8
X48002258_BL9
100
AcDbPolyline
 62
7
  6
CONTINUOUS
 90
24
 70
0
 10
313.6954456066
 20
40.0638417328
 10
313.7936735884
 20
42.842115934
 10
314.0881119731
 20
45.6146734316
 10
314.5781278714
 20
48.3762960746
 10
315.2626862277
 20
51.121606143
 10
316.1403456414
 20
53.8452382914
 10
317.2093331142
 20
56.5420303137
 10
318.4674685502
 20
59.206757047
 10
319.9122971347
 20
61.8344294596
 10
321.5409900838
 20
64.4200429693
 10
323.3504209776
 20
66.958723002
 10
325.3371365444
 20
69.4456638024
 10
327.4973197934
 20
71.8760965141
 10
329.826827878
 20
74.245352621
 10
332.3212557685
 20
76.5489236458
 10
334.9759201851
 20
78.7824296772
 10
337.7857329168
 20
80.9415227033
 10
340.7453586817
 20
83.0220326284
 10
343.8491144943
 20
85.0198923301
 10
347.0910734984
 20
86.9312157067
 10
350.4649889884
 20
88.7522513103
 10
353.9643827501
 20
90.4794381707
 10
357.5825007206
 20
92.1093823767
 10
361.3123795607
 20
93.6388909395
  0
LWPOLYLINE
  5
43E
100
AcDbEntity
  8
X48002258_BL9
100
AcDbPolyline
 62
9
  6
CONTINUOUS
 90
11
 70
0
 10
313.6954456066
 20
24.8068149372
 10
313.6892897769
 20
24.7338603594
 10
313.6709738648
 20
24.6627021654
 10
313.6409488688
 20
24.5950925062
 10
313.5999541039
 20
24.5326961558
 10
313.5489989972
 20
24.4770495196
 10
313.4893382328
 20
24.4295228024
 10
313.4224408565
 20
24.3912862698
 10
313.3499541038
 20
24.363281432
 10
313.2736628391
 20
24.346197861
 10
313.1954456066
 20
24.3404562113
  0
LWPOLYLINE
  5
43F
100
AcDbEntity
  8
X48002258_BL9
100
AcDbPolyline
 62
9
  6
CONTINUOUS
 90
11
 70
0
 10
313.6954456066
 20
40.0638417328
 10
313.6892897769
 20
40.0027512287
 10
313.6709738648
 20
39.9431649757
 10
313.6409488687
 20
39.8865501849
 10
313.5999541038
 20
39.8343009004
 10
313.5489989972
 20
39.787703673
 10
313.4893382328
 20
39.747905881
 10
313.4224408565
 20
39.7158874783
 10
313.3499541038
 20
39.6924368641
 10
313.2736628392
 20
39.6781314704
 10
313.1954456066
 20
39.6733235435
  0
LWPOLYLINE
  5
440
100
AcDbEntity
  8
X48002258_BL9
100
AcDbPolyline
 62
9
  6
CONTINUOUS
 90
11
 70
0
 10
313.6954456066
 20
32.2577726259
 10
313.6892897769
 20
32.1966821219
 10
313.6709738648
 20
32.1370958688
 10
313.6409488687
 20
32.080481078
 10
313.5999541038
 20
32.0282317935
 10
313.5489989972
 20
31.9816345661
 10
313.4893382328
 20
31.9418367742
 10
313.4224408565
 20
31.9098183714
 10
313.3499541038
 20
31.8863677572
 10
313.2736628392
 20
31.8720623636
 10
313.1954456066
 20
31.8672544366
  0
LWPOLYLINE
  5
441
100
AcDbEntity
  8
X48002258_BL9
100
AcDbPolyline
 62
7
  6
CONTINUOUS
 90
3
 70
0
 10
342.9866453346
 20
122.378012825
 10
342.9658172881
 20
122.3441511152
 10
342.946313516
 20
122.3090189989
  0
LWPOLYLINE
  5
442
100
AcDbEntity
  8
X48002258_BL9
100
AcDbPolyline
 62
9
  6
CONTINUOUS
 90
4
 70
0
 10
343.0826685211
 20
122.498302837
 10
343.1032739228
 20
122.5316157781
 10
343.1293060684
 20
122.5562176071
 10
343.1454438854
 20
122.5656971117
  0
LWPOLYLINE
  5
443
100
AcDbEntity
  8
X48002258_BL9
100
AcDbPolyline
 62
9
  6
CONTINUOUS
 90
19
 70
0
 10
364.9801152241
 20
95.1458320222
 10
366.4581500401
 20
95.7046827597
 10
367.8783902462
 20
96.3154409554
 10
369.2437305846
 20
96.9795240677
 10
370.5454868286
 20
97.6926797211
 10
371.7769363398
 20
98.4519437863
 10
372.9350890952
 20
99.2548689836
 10
374.0158896128
 20
100.0991027299
 10
375.0158116312
 20
100.9813968048
 10
375.9308512871
 20
101.8988044198
 10
376.758385905
 20
102.848068696
 10
377.4951693245
 20
103.8261596359
 10
378.1390681374
 20
104.8294498065
 10
378.6872936401
 20
105.8544228312
 10
379.1385655577
 20
106.8977155434
 10
379.490946766
 20
107.9564975566
 10
379.743619109
 20
109.0256541538
 10
379.8949357395
 20
110.0983698833
 10
379.9454456066
 20
111.1769165625
  0
LINE
  5
444
100
AcDbEntity
  8
X48002258_BL9
100
AcDbLine
 62
7
  6
CONTINUOUS
 10
361.3123795607
 20
93.6388909395
 11
365.1467928108
 21
95.0649495516
  0
LWPOLYLINE
  5
445
100
AcDbEntity
  8
X48002258_BL9
100
AcDbPolyline
 62
7
  6
CONTINUOUS
 90
6
 70
0
 10
343.3577293893
 20
122.6546073882
 10
343.4262056849
 20
122.6714764605
 10
343.5002712093
 20
122.685081827
 10
343.579673552
 20
122.6951390804
 10
343.6639085168
 20
122.7012924052
 10
343.753144169
 20
122.7036516151
  0
LINE
  5
446
100
AcDbEntity
  8
X48002258_BL9
100
AcDbLine
 62
9
  6
CONTINUOUS
 10
379.9454456066
 20
119.9197139622
 11
347.4454456066
 21
119.9197139622
  0
LINE
  5
447
100
AcDbEntity
  8
X48002258_BL9
100
AcDbLine
 62
9
  6
CONTINUOUS
 10
379.9454456066
 20
121.3252358693
 11
347.4454456066
 21
121.3252358693
  0
LINE
  5
448
100
AcDbEntity
  8
X48002258_BL9
100
AcDbLine
 62
7
  6
CONTINUOUS
 10
346.5454456066
 20
122.7036516229
 11
343.753144169
 21
122.7036516151
  0
LINE
  5
449
100
AcDbEntity
  8
X48002258_BL9
100
AcDbLine
 62
9
  6
CONTINUOUS
 10
343.0570325016
 20
122.0812314136
 11
343.0570325016
 21
106.6245812735
  0
LWPOLYLINE
  5
44A
100
AcDbEntity
  8
X48002258_BL9
100
AcDbPolyline
 62
9
  6
CONTINUOUS
 90
11
 70
0
 10
346.9454456066
 20
121.012993105
 10
346.9516014045
 20
121.0618385093
 10
346.9699172501
 20
121.1094812364
 10
346.9999421881
 20
121.1547481618
 10
347.0409369434
 20
121.1965246542
 10
347.0918921498
 20
121.2337820396
 10
347.1515530664
 20
121.2656028467
 10
347.2184505411
 20
121.2912035039
 10
347.2909373284
 20
121.3099536651
 10
347.3672285316
 20
121.3213916578
 10
347.4454456066
 20
121.325235868
  0
LWPOLYLINE
  5
44B
100
AcDbEntity
  8
X48002258_BL9
100
AcDbPolyline
 62
9
  6
CONTINUOUS
 90
11
 70
0
 10
346.9454456066
 20
111.5674347518
 10
346.951601436
 20
111.5063442492
 10
346.9699173476
 20
111.4467579969
 10
346.999942343
 20
111.3901432061
 10
347.0409371078
 20
111.3378939211
 10
347.0918922154
 20
111.2912966925
 10
347.1515529812
 20
111.2514988996
 10
347.2184503584
 20
111.2194804966
 10
347.2909371114
 20
111.1960298826
 10
347.3672283756
 20
111.1817244892
 10
347.4454456066
 20
111.1769165625
  0
LWPOLYLINE
  5
44C
100
AcDbEntity
  8
X48002258_BL9
100
AcDbPolyline
 62
9
  6
CONTINUOUS
 90
11
 70
0
 10
346.9454456066
 20
120.3102321515
 10
346.9516014363
 20
120.2491416474
 10
346.9699173485
 20
120.1895553943
 10
346.9999423445
 20
120.1329406035
 10
347.0409371094
 20
120.080691319
 10
347.0918922161
 20
120.0340940916
 10
347.1515529805
 20
119.9942962997
 10
347.2184503568
 20
119.962277897
 10
347.2909371095
 20
119.9388272828
 10
347.3672283742
 20
119.9245218891
 10
347.4454456066
 20
119.9197139622
  0
LWPOLYLINE
  5
44D
100
AcDbEntity
  8
X48002258_BL9
100
AcDbPolyline
 62
9
  6
CONTINUOUS
 90
11
 70
0
 10
343.0570325016
 20
106.6245812735
 10
343.0607946904
 20
106.5604480331
 10
343.0719886193
 20
106.491808493
 10
343.0903386565
 20
106.4203527866
 10
343.1153929633
 20
106.3478403904
 10
343.1465346195
 20
106.2760568004
 10
343.1829968141
 20
106.2067695668
 10
343.223881727
 20
106.1416847712
 10
343.2681826357
 20
106.0824050172
 10
343.3148087051
 20
106.0303899693
 10
343.3626118464
 20
105.9869204103
  0
LINE
  5
44E
100
AcDbEntity
  8
X48002258_BL9
100
AcDbLine
 62
7
  6
CONTINUOUS
 10
346.9454456066
 20
121.4194574565
 11
346.9454456066
 21
111.5674347518
  0
LINE
  5
44F
100
AcDbEntity
  8
X48002258_BL9
100
AcDbLine
 62
9
  6
CONTINUOUS
 10
347.4454456066
 20
121.4266840358
 11
347.4454456066
 21
111.1769165625
  0
LWPOLYLINE
  5
450
100
AcDbEntity
  8
X48002258_BL9
100
AcDbPolyline
 62
9
  6
CONTINUOUS
 90
13
 70
0
 10
347.4454456066
 20
111.1769165625
 10
347.415224337
 20
110.679045123
 10
347.3247850711
 20
110.1857117988
 10
347.1735793058
 20
109.6951711832
 10
346.9632525508
 20
109.212659496
 10
346.694598438
 20
108.7421038091
 10
346.3696240978
 20
108.2856861599
 10
345.9897467346
 20
107.8461131561
 10
345.5575297575
 20
107.4257381587
 10
345.0745119636
 20
107.0268860459
 10
344.5451843938
 20
106.6523488751
 10
343.975176518
 20
106.3061395404
 10
343.3626118464
 20
105.9869204103
  0
LWPOLYLINE
  5
451
100
AcDbEntity
  8
X48002258_BL9
100
AcDbPolyline
 62
9
  6
CONTINUOUS
 90
13
 70
0
 10
346.9454456066
 20
111.5674347518
 10
346.916498924
 20
111.0926221205
 10
346.8298264577
 20
110.6205583365
 10
346.6859299811
 20
110.1539763321
 10
346.4856425627
 20
109.6955773194
 10
346.230123745
 20
109.2480151386
 10
345.9208528092
 20
108.8138808634
 10
345.559620225
 20
108.395687836
 10
345.1485172838
 20
107.9958571121
 10
344.6899239841
 20
107.616703437
 10
344.1864952872
 20
107.260421872
 10
343.6411457233
 20
106.9290750592
 10
343.0570325016
 20
106.6245812735
  0
LWPOLYLINE
  5
452
100
AcDbEntity
  8
X48002258_BL9
100
AcDbPolyline
 62
9
  6
CONTINUOUS
 90
3
 70
0
 10
346.7251030244
 20
117.9530869265
 10
346.7623533695
 20
117.9182479117
 10
346.9454456066
 20
117.758762529
  0
LWPOLYLINE
  5
453
100
AcDbEntity
  8
X48002258_BL9
100
AcDbPolyline
 62
9
  6
CONTINUOUS
 90
12
 70
0
 10
343.3626118464
 20
122.2302774187
 10
343.592007079
 20
121.8093899708
 10
343.8442000975
 20
121.3840215565
 10
344.1201791065
 20
120.958423596
 10
344.4169794917
 20
120.5337473651
 10
344.7333225871
 20
120.1130725275
 10
345.0651387512
 20
119.6989471651
 10
345.4103654848
 20
119.2955853809
 10
345.7617026958
 20
118.9072971129
 10
346.118731764
 20
118.5354405974
 10
346.4587457749
 20
118.2022020455
 10
346.5454456066
 20
118.1211145626
  0
LWPOLYLINE
  5
454
100
AcDbEntity
  8
X48002258_BL9
100
AcDbPolyline
 62
9
  6
CONTINUOUS
 90
17
 70
0
 10
343.0282905197
 20
122.1385047589
 10
343.2740476923
 20
121.6452462172
 10
343.5155483292
 20
121.2054598522
 10
343.7780531968
 20
120.7632512604
 10
344.0610287661
 20
120.3210929102
 10
344.3617883541
 20
119.8812263214
 10
344.6783092193
 20
119.4471077175
 10
345.0062303399
 20
119.0214589751
 10
345.3417020256
 20
118.6102084736
 10
345.6825430801
 20
118.2136440272
 10
346.0055971984
 20
117.8526034137
 10
346.2973406002
 20
117.542928708
 10
346.5393991677
 20
117.2899862093
 10
346.7204005184
 20
117.1052993429
 10
346.8469276839
 20
116.9752362859
 10
346.9212203145
 20
116.8905787367
 10
346.9454456066
 20
116.8511505427
  0
LWPOLYLINE
  5
455
100
AcDbEntity
  8
X48002258_BL9
100
AcDbPolyline
 62
9
  6
CONTINUOUS
 90
4
 70
0
 10
343.2313950655
 20
122.4980593209
 10
343.2732751069
 20
122.4095478435
 10
343.3170140338
 20
122.3202747698
 10
343.3626118464
 20
122.2302774187
  0
LWPOLYLINE
  5
456
100
AcDbEntity
  8
X48002258_BL9
100
AcDbPolyline
 62
9
  6
CONTINUOUS
 90
4
 70
0
 10
342.946313516
 20
122.3090189989
 10
342.9729314482
 20
122.2523982088
 10
343.0002569774
 20
122.1955602416
 10
343.0282905197
 20
122.1385047589
  0
LINE
  5
457
100
AcDbEntity
  8
X48002258_BL9
100
AcDbLine
 62
9
  6
CONTINUOUS
 10
343.1913739097
 20
122.5857727288
 11
343.2313950655
 21
122.4980593209
  0
LWPOLYLINE
  5
458
100
AcDbEntity
  8
X48002258_BL9
100
AcDbPolyline
 62
9
  6
CONTINUOUS
 90
11
 70
0
 10
380.4454456066
 20
120.3102321515
 10
380.4392897952
 20
120.2491417376
 10
380.4209739213
 20
120.1895555303
 10
380.3909489586
 20
120.1329407414
 10
380.3499541993
 20
120.0806914216
 10
380.2989990353
 20
120.0340941214
 10
380.2393381834
 20
119.9942962717
 10
380.1724407506
 20
119.9622778546
 10
380.099953978
 20
119.9388272509
 10
380.0236627487
 20
119.9245218793
 10
379.9454456066
 20
119.9197139659
  0
LWPOLYLINE
  5
459
100
AcDbEntity
  8
X48002258_BL9
100
AcDbPolyline
 62
9
  6
CONTINUOUS
 90
11
 70
0
 10
380.4454456066
 20
111.5674347518
 10
380.4392897769
 20
111.5063442477
 10
380.4209738648
 20
111.4467579947
 10
380.3909488687
 20
111.3901432039
 10
380.3499541038
 20
111.3378939193
 10
380.2989989972
 20
111.2912966919
 10
380.2393382328
 20
111.2514989
 10
380.1724408565
 20
111.2194804973
 10
380.0999541038
 20
111.1960298831
 10
380.0236628392
 20
111.1817244894
 10
379.9454456066
 20
111.1769165625
  0
LINE
  5
45A
100
AcDbEntity
  8
X48002258_BL9
100
AcDbLine
 62
9
  6
CONTINUOUS
 10
379.9454456066
 20
111.1769165625
 11
379.9454456066
 21
121.4266840358
  0
LINE
  5
45B
100
AcDbEntity
  8
X48002258_BL9
100
AcDbLine
 62
7
  6
CONTINUOUS
 10
380.4454456066
 20
111.5674347518
 11
380.4454456066
 21
121.4194574565
  0
LWPOLYLINE
  5
45C
100
AcDbEntity
  8
X48002258_BL9
100
AcDbPolyline
 62
7
  6
CONTINUOUS
 90
19
 70
0
 10
380.4454456066
 20
111.5674347518
 10
380.3943401136
 20
110.4602295997
 10
380.240950545
 20
109.3555688129
 10
379.9855004592
 20
108.2575948018
 10
379.6284251649
 20
107.1698036397
 10
379.170311284
 20
106.0955439985
 10
378.6124157838
 20
105.0390196002
 10
377.9562267944
 20
104.0039650706
 10
377.2039343458
 20
102.994491944
 10
376.358102484
 20
102.0144354516
 10
375.4217563909
 20
101.0675178495
 10
374.3983968801
 20
100.1573426001
 10
373.2917065302
 20
99.2871515734
 10
372.1058549509
 20
98.4601238769
 10
370.8450554746
 20
97.6790598738
 10
369.5139499006
 20
96.9466805638
 10
368.1171965456
 20
96.2653883685
 10
366.6598184797
 20
95.6374776225
 10
365.1467928108
 20
95.0649495516
  0
LWPOLYLINE
  5
45D
100
AcDbEntity
  8
X48002258_BL9
100
AcDbPolyline
 62
9
  6
CONTINUOUS
 90
11
 70
0
 10
380.4454456066
 20
121.012993105
 10
380.4392897769
 20
121.0618386348
 10
380.4209738648
 20
121.1094814256
 10
380.3909488687
 20
121.1547483536
 10
380.3499541038
 20
121.196524797
 10
380.2989989972
 20
121.233782081
 10
380.2393382327
 20
121.2656028077
 10
380.1724408564
 20
121.2912034452
 10
380.0999541037
 20
121.3099536207
 10
380.023662839
 20
121.3213916427
 10
379.9454456066
 20
121.3252358693
  0
LINE
  5
45E
100
AcDbEntity
  8
X48002258_BL9
100
AcDbLine
 62
7
  6
CENTER
 10
486.1500732781
 20
170.2522346311
 11
488.2331002414
 21
82.2250852741
  0
ARC
  5
45F
100
AcDbEntity
  8
X48002258_BL9
100
AcDbCircle
 62
7
  6
CONTINUOUS
 10
466.9356054987
 20
353.8097463384
 40
1.0
100
AcDbArc
 50
38.6444365725
 51
121.1444365776
  0
ARC
  5
460
100
AcDbEntity
  8
X48002258_BL9
100
AcDbCircle
 62
7
  6
CONTINUOUS
 10
517.0121022508
 20
213.3195521935
 40
49.6225274725
100
AcDbArc
 50
21.1375422371
 51
38.6444365725
  0
ARC
  5
461
100
AcDbEntity
  8
X48002258_BL9
100
AcDbCircle
 62
7
  6
CONTINUOUS
 10
553.6609283508
 20
227.4887533238
 40
10.33
100
AcDbArc
 50
16.6005159957
 51
21.1375422371
  0
ARC
  5
462
100
AcDbEntity
  8
X48002258_BL9
100
AcDbCircle
 62
7
  6
CONTINUOUS
 10
555.716762243
 20
244.2662541861
 40
27.2329875519
100
AcDbArc
 50
200.7573176336
 51
203.9271545376
  0
ARC
  5
463
100
AcDbEntity
  8
X48002258_BL9
100
AcDbCircle
 62
7
  6
CONTINUOUS
 10
555.716762243
 20
244.2662541861
 40
27.2329875519
100
AcDbArc
 50
220.8466800429
 51
224.9690051297
  0
ARC
  5
464
100
AcDbEntity
  8
X48002258_BL9
100
AcDbCircle
 62
7
  6
CONTINUOUS
 10
555.716762243
 20
244.2662541861
 40
27.2329875519
100
AcDbArc
 50
212.320046093
 51
214.3647360844
  0
ARC
  5
465
100
AcDbEntity
  8
X48002258_BL9
100
AcDbCircle
 62
7
  6
CONTINUOUS
 10
555.716762243
 20
244.2662541861
 40
27.2329875519
100
AcDbArc
 50
207.1319534073
 51
208.2487454482
  0
ARC
  5
466
100
AcDbEntity
  8
X48002258_BL9
100
AcDbCircle
 62
7
  6
CONTINUOUS
 10
379.9454456066
 20
354.3097463384
 40
0.5
100
AcDbArc
 50
0.0
 51
90.0
  0
ARC
  5
467
100
AcDbEntity
  8
X48002258_BL9
100
AcDbCircle
 62
7
  6
CONTINUOUS
 10
313.1954456066
 20
217.6587533238
 40
0.5
100
AcDbArc
 50
270.0
 51
360.0
  0
ARC
  5
468
100
AcDbEntity
  8
X48002258_BL9
100
AcDbCircle
 62
7
  6
CONTINUOUS
 10
347.4454456066
 20
354.3097463384
 40
0.5
100
AcDbArc
 50
90.0
 51
180.0
  0
ARC
  5
469
100
AcDbEntity
  8
X48002258_BL9
100
AcDbCircle
 62
7
  6
CONTINUOUS
 10
291.1954456066
 20
217.6587533238
 40
0.5
100
AcDbArc
 50
180.0
 51
270.0
  0
ARC
  5
46A
100
AcDbEntity
  8
X48002258_BL9
100
AcDbCircle
 62
7
  6
CONTINUOUS
 10
313.1954456066
 20
24.1454274886
 40
0.5
100
AcDbArc
 50
270.0
 51
360.0
  0
ARC
  5
46B
100
AcDbEntity
  8
X48002258_BL9
100
AcDbCircle
 62
7
  6
CONTINUOUS
 10
291.1954456066
 20
24.1454274886
 40
0.5
100
AcDbArc
 50
180.0
 51
270.0
  0
SPLINE
  5
46C
100
AcDbEntity
  8
X48002258_BL9
100
AcDbSpline
 62
2
  6
CONTINUOUS
 70
0
 71
3
 72
12
 73
8
 74
0
 42
0.0000001
 43
0.0000001
 44
0.0000000001
 40
0.0
 40
0.0
 40
0.0
 40
0.0
 40
0.2244288446
 40
0.4488576893
 40
0.6732865339
 40
0.8977153785
 40
1.0
 40
1.0
 40
1.0
 40
1.0
 10
532.7028046777
 20
229.7062621468
 30
0.0
 10
532.7028046777
 20
229.7062621468
 30
0.0
 10
532.7235762617
 20
229.6733505836
 30
0.0
 10
532.816599056
 20
229.527367246
 30
0.0
 10
532.9690396623
 20
229.2925188787
 30
0.0
 10
533.1402308739
 20
229.0357277855
 30
0.0
 10
533.2594328665
 20
228.8614257646
 30
0.0
 10
533.2984200038
 20
228.8048954203
 30
0.0
  0
LINE
  5
46D
100
AcDbEntity
  8
X48002258_BL9
100
AcDbLine
 62
2
  6
CONTINUOUS
 10
533.2984200038
 20
228.8048954203
 11
533.3171453753
 21
228.7777792566
  0
ENDBLK
  5
46E
100
AcDbEntity
  8
0
  6
BYBLOCK
 62
0
100
AcDbBlockEnd
  0
BLOCK
  5
46F
100
AcDbEntity
  8
X48002028_BL10
100
AcDbBlockBegin
  2
X48002028_BL10
 70
64
 10
147.3649285092
 20
139.9519642607
  3
X48002028_BL10
  1

  0
LINE
  5
470
100
AcDbEntity
  8
X48002028_BL10
100
AcDbLine
 62
7
  6
CONTINUOUS
 10
152.973413308
 20
220.9782518897
 11
139.973413308
 21
220.9782518897
  0
LINE
  5
471
100
AcDbEntity
  8
X48002028_BL10
100
AcDbLine
 62
9
  6
CONTINUOUS
 10
139.973413308
 20
230.1331533973
 11
152.973413308
 21
230.1331533973
  0
LINE
  5
472
100
AcDbEntity
  8
X48002028_BL10
100
AcDbLine
 62
9
  6
CONTINUOUS
 10
139.973413308
 20
251.2575389986
 11
152.973413308
 21
251.2575389986
  0
LINE
  5
473
100
AcDbEntity
  8
X48002028_BL10
100
AcDbLine
 62
7
  6
CONTINUOUS
 10
152.973413308
 20
252.462954747
 11
139.973413308
 21
252.462954747
  0
LWPOLYLINE
  5
474
100
AcDbEntity
  8
X48002028_BL10
100
AcDbPolyline
 62
9
  6
CONTINUOUS
 90
13
 70
0
 10
154.973413308
 20
229.3714938173
 10
154.956303097
 20
229.4709101465
 10
154.9052651972
 20
229.5686254788
 10
154.82117284
 20
229.6629678802
 10
154.7054648277
 20
229.7523231252
 10
154.5601209154
 20
229.8351623179
 10
154.3876279474
 20
229.9100680469
 10
154.1909372992
 20
229.9757586442
 10
153.9734143925
 20
230.0311101114
 10
153.7387811002
 20
230.075175357
 10
153.4910520759
 20
230.1072003996
 10
153.2344660589
 20
230.1266372716
 10
152.973413308
 20
230.1331533977
  0
LWPOLYLINE
  5
475
100
AcDbEntity
  8
X48002028_BL10
100
AcDbPolyline
 62
9
  6
CONTINUOUS
 90
13
 70
0
 10
154.973413308
 20
249.6211636588
 10
154.9563030358
 20
249.8347534691
 10
154.9052649786
 20
250.0446887065
 10
154.821172408
 20
250.2473773213
 10
154.7054641679
 20
250.4393512544
 10
154.5601200557
 20
250.6173257773
 10
154.3876269473
 20
250.7782556951
 10
154.1909362461
 20
250.9193874503
 10
153.9734133838
 20
251.0383062373
 10
153.7387802371
 20
251.1329773209
 10
153.491051445
 20
251.2017808507
 10
153.2344657176
 20
251.243539578
 10
152.973413308
 20
251.2575389986
  0
LINE
  5
476
100
AcDbEntity
  8
X48002028_BL10
100
AcDbLine
 62
7
  6
CONTINUOUS
 10
154.973413308
 20
239.2771464138
 11
154.9646883457
 21
240.426440163
  0
LWPOLYLINE
  5
477
100
AcDbEntity
  8
X48002028_BL10
100
AcDbPolyline
 62
7
  6
CONTINUOUS
 90
6
 70
0
 10
154.9646883457
 20
240.426440163
 10
154.9630460938
 20
240.7802612742
 10
154.9646925145
 20
241.1152303845
 10
154.9676340032
 20
241.4293024376
 10
154.9703747312
 20
241.7203886858
 10
154.973413308
 20
241.987735238
  0
LINE
  5
478
100
AcDbEntity
  8
X48002028_BL10
100
AcDbLine
 62
9
  6
CONTINUOUS
 10
152.973413308
 20
252.462954747
 11
152.973413308
 21
220.9782518897
  0
LINE
  5
479
100
AcDbEntity
  8
X48002028_BL10
100
AcDbLine
 62
7
  6
CONTINUOUS
 10
154.973413308
 20
250.4628667717
 11
154.973413308
 21
241.987735238
  0
LINE
  5
47A
100
AcDbEntity
  8
X48002028_BL10
100
AcDbLine
 62
7
  6
CONTINUOUS
 10
154.973413308
 20
241.7973397789
 11
154.973413308
 21
239.3027465378
  0
LINE
  5
47B
100
AcDbEntity
  8
X48002028_BL10
100
AcDbLine
 62
7
  6
CONTINUOUS
 10
154.973413308
 20
239.2771464138
 11
154.973413308
 21
222.9783398649
  0
LINE
  5
47C
100
AcDbEntity
  8
X48002028_BL10
100
AcDbLine
 62
7
  6
CONTINUOUS
 10
152.973413308
 20
27.4409737745
 11
139.973413308
 21
27.4409737745
  0
LINE
  5
47D
100
AcDbEntity
  8
X48002028_BL10
100
AcDbLine
 62
9
  6
CONTINUOUS
 10
139.973413308
 20
27.9405763668
 11
152.973413308
 21
27.9405763668
  0
LINE
  5
47E
100
AcDbEntity
  8
X48002028_BL10
100
AcDbLine
 62
9
  6
CONTINUOUS
 10
139.9445007528
 20
44.8307923281
 11
152.973413308
 21
44.8307923281
  0
LINE
  5
47F
100
AcDbEntity
  8
X48002028_BL10
100
AcDbLine
 62
7
  6
CONTINUOUS
 10
152.973413308
 20
55.2727190977
 11
139.7564437105
 21
55.2727190977
  0
LINE
  5
480
100
AcDbEntity
  8
X48002028_BL10
100
AcDbLine
 62
7
  6
CONTINUOUS
 10
154.973413308
 20
35.3807199816
 11
154.9703697286
 21
35.5658460955
  0
LWPOLYLINE
  5
481
100
AcDbEntity
  8
X48002028_BL10
100
AcDbPolyline
 62
7
  6
CONTINUOUS
 90
5
 70
0
 10
154.9703697286
 20
35.5658460955
 10
154.9646883457
 20
36.0167365795
 10
154.9630460938
 20
36.2805114115
 10
154.9646925145
 20
36.5675612129
 10
154.9676340032
 20
36.8759812736
  0
LINE
  5
482
100
AcDbEntity
  8
X48002028_BL10
100
AcDbLine
 62
9
  6
CONTINUOUS
 10
152.973413308
 20
55.2727190977
 11
152.973413308
 21
27.4409737745
  0
LINE
  5
483
100
AcDbEntity
  8
X48002028_BL10
100
AcDbLine
 62
7
  6
CONTINUOUS
 10
154.973413308
 20
53.2726531547
 11
154.973413308
 21
37.5479986654
  0
LINE
  5
484
100
AcDbEntity
  8
X48002028_BL10
100
AcDbLine
 62
7
  6
CONTINUOUS
 10
154.973413308
 20
37.2976905005
 11
154.973413308
 21
35.3917365131
  0
LINE
  5
485
100
AcDbEntity
  8
X48002028_BL10
100
AcDbLine
 62
7
  6
CONTINUOUS
 10
154.973413308
 20
35.3807199816
 11
154.973413308
 21
29.4410397175
  0
LINE
  5
486
100
AcDbEntity
  8
X48002028_BL10
100
AcDbLine
 62
7
  6
CONTINUOUS
 10
154.9676340032
 20
36.8759812736
 11
154.973413308
 21
37.5479986654
  0
LINE
  5
487
100
AcDbEntity
  8
X48002028_BL10
100
AcDbLine
 62
9
  6
CONTINUOUS
 10
154.973413308
 20
29.7898666858
 11
154.956303097
 21
29.548486326
  0
LWPOLYLINE
  5
488
100
AcDbEntity
  8
X48002028_BL10
100
AcDbPolyline
 62
9
  6
CONTINUOUS
 90
13
 70
0
 10
154.973413308
 20
45.9806948227
 10
154.9563030358
 20
45.830602451
 10
154.9052649786
 20
45.6830781958
 10
154.821172408
 20
45.5406462377
 10
154.7054641679
 20
45.4057436275
 10
154.5601200557
 20
45.2806785871
 10
154.3876269473
 20
45.1675910152
 10
154.1909362461
 20
45.0684158728
 10
153.9734133838
 20
44.9848500756
 10
153.7387802371
 20
44.9183234588
 10
153.491051445
 20
44.8699743126
 10
153.2344657176
 20
44.8406299053
 10
152.973413308
 20
44.8307923281
  0
LWPOLYLINE
  5
489
100
AcDbEntity
  8
X48002028_BL10
100
AcDbPolyline
 62
9
  6
CONTINUOUS
 90
12
 70
0
 10
154.956303097
 20
29.548486326
 10
154.9052651972
 20
29.3112359449
 10
154.82117284
 20
29.0821749573
 10
154.7054648277
 20
28.8652226617
 10
154.5601209154
 20
28.6640911798
 10
154.3876279474
 20
28.4822219509
 10
154.1909372992
 20
28.3227268323
 10
153.9734143925
 20
28.1883348643
 10
153.7387811002
 20
28.0813455612
 10
153.4910520759
 20
28.0035895711
 10
153.2344660589
 20
27.9563973448
 10
152.973413308
 20
27.9405763669
  0
ARC
  5
48A
100
AcDbEntity
  8
X48002028_BL10
100
AcDbCircle
 62
7
  6
CONTINUOUS
 10
152.973413308
 20
250.462954747
 40
2.0
100
AcDbArc
 50
0.0
 51
90.0
  0
ARC
  5
48B
100
AcDbEntity
  8
X48002028_BL10
100
AcDbCircle
 62
7
  6
CONTINUOUS
 10
152.973413308
 20
222.9782518897
 40
2.0
100
AcDbArc
 50
270.0
 51
360.0
  0
ARC
  5
48C
100
AcDbEntity
  8
X48002028_BL10
100
AcDbCircle
 62
7
  6
CONTINUOUS
 10
152.973413308
 20
53.2727190977
 40
2.0
100
AcDbArc
 50
0.0
 51
90.0
  0
ARC
  5
48D
100
AcDbEntity
  8
X48002028_BL10
100
AcDbCircle
 62
7
  6
CONTINUOUS
 10
152.973413308
 20
29.4409737745
 40
2.0
100
AcDbArc
 50
270.0
 51
360.0
  0
ENDBLK
  5
48E
100
AcDbEntity
  8
0
  6
BYBLOCK
 62
0
100
AcDbBlockEnd
  0
BLOCK
  5
48F
100
AcDbEntity
  8
X48002024_BL11
100
AcDbBlockBegin
  2
X48002024_BL11
 70
64
 10
66.973413308
 20
344.9718211222
  3
X48002024_BL11
  1

  0
LINE
  5
490
100
AcDbEntity
  8
X48002024_BL11
100
AcDbLine
 62
7
  6
CENTER
 10
66.973413308
 20
372.2218211222
 11
66.973413308
 21
368.5218211222
  0
LINE
  5
491
100
AcDbEntity
  8
X48002024_BL11
100
AcDbLine
 62
7
  6
CENTER
 10
66.973413308
 20
317.7218211222
 11
66.973413308
 21
314.0218211222
  0
LINE
  5
492
100
AcDbEntity
  8
X48002024_BL11
100
AcDbLine
 62
7
  6
CENTER
 10
66.973413308
 20
317.7218211222
 11
66.973413308
 21
321.4218211222
  0
LINE
  5
493
100
AcDbEntity
  8
X48002024_BL11
100
AcDbLine
 62
7
  6
CENTER
 10
66.973413308
 20
372.2218211222
 11
66.973413308
 21
375.9218211222
  0
LINE
  5
494
100
AcDbEntity
  8
X48002024_BL11
100
AcDbLine
 62
7
  6
CENTER
 10
66.973413308
 20
317.7218211222
 11
63.273413308
 21
317.7218211222
  0
LINE
  5
495
100
AcDbEntity
  8
X48002024_BL11
100
AcDbLine
 62
7
  6
CENTER
 10
66.973413308
 20
317.7218211222
 11
70.673413308
 21
317.7218211222
  0
LINE
  5
496
100
AcDbEntity
  8
X48002024_BL11
100
AcDbLine
 62
7
  6
CENTER
 10
66.973413308
 20
372.2218211222
 11
63.273413308
 21
372.2218211222
  0
LINE
  5
497
100
AcDbEntity
  8
X48002024_BL11
100
AcDbLine
 62
7
  6
CENTER
 10
66.973413308
 20
372.2218211222
 11
70.673413308
 21
372.2218211222
  0
ENDBLK
  5
498
100
AcDbEntity
  8
0
  6
BYBLOCK
 62
0
100
AcDbBlockEnd
  0
BLOCK
  5
499
100
AcDbEntity
  8
X48002028_BL12
100
AcDbBlockBegin
  2
X48002028_BL12
 70
64
 10
283.3039304054
 20
139.9519642607
  3
X48002028_BL12
  1

  0
LINE
  5
49A
100
AcDbEntity
  8
X48002028_BL12
100
AcDbLine
 62
7
  6
CONTINUOUS
 10
277.6954456066
 20
220.9782518897
 11
290.6954456066
 21
220.9782518897
  0
LINE
  5
49B
100
AcDbEntity
  8
X48002028_BL12
100
AcDbLine
 62
9
  6
CONTINUOUS
 10
290.6954456066
 20
230.1331533973
 11
277.6954456066
 21
230.1331533973
  0
LINE
  5
49C
100
AcDbEntity
  8
X48002028_BL12
100
AcDbLine
 62
9
  6
CONTINUOUS
 10
290.6954456066
 20
251.2575389986
 11
277.6954456066
 21
251.2575389986
  0
LINE
  5
49D
100
AcDbEntity
  8
X48002028_BL12
100
AcDbLine
 62
7
  6
CONTINUOUS
 10
277.6954456066
 20
252.462954747
 11
290.6954456066
 21
252.462954747
  0
LINE
  5
49E
100
AcDbEntity
  8
X48002028_BL12
100
AcDbLine
 62
7
  6
CONTINUOUS
 10
275.6954456066
 20
241.987735238
 11
275.698489186
 21
241.7201311973
  0
LWPOLYLINE
  5
49F
100
AcDbEntity
  8
X48002028_BL12
100
AcDbPolyline
 62
7
  6
CONTINUOUS
 90
5
 70
0
 10
275.698489186
 20
241.7201311973
 10
275.7041705689
 20
241.1144206459
 10
275.7058128208
 20
240.7792571939
 10
275.7041664001
 20
240.4255373118
 10
275.6954456066
 20
239.2771464138
  0
LINE
  5
4A0
100
AcDbEntity
  8
X48002028_BL12
100
AcDbLine
 62
7
  6
CONTINUOUS
 10
275.6954456066
 20
222.978340194
 11
275.6954456066
 21
239.2771464138
  0
LINE
  5
4A1
100
AcDbEntity
  8
X48002028_BL12
100
AcDbLine
 62
7
  6
CONTINUOUS
 10
275.6954456066
 20
239.3027465378
 11
275.6954456066
 21
241.7973397789
  0
LINE
  5
4A2
100
AcDbEntity
  8
X48002028_BL12
100
AcDbLine
 62
7
  6
CONTINUOUS
 10
275.6954456066
 20
241.987735238
 11
275.6954456066
 21
250.4628664426
  0
LINE
  5
4A3
100
AcDbEntity
  8
X48002028_BL12
100
AcDbLine
 62
9
  6
CONTINUOUS
 10
277.6954456066
 20
220.9782518897
 11
277.6954456066
 21
252.462954747
  0
LWPOLYLINE
  5
4A4
100
AcDbEntity
  8
X48002028_BL12
100
AcDbPolyline
 62
9
  6
CONTINUOUS
 90
13
 70
0
 10
275.6954456066
 20
249.6211636588
 10
275.7125558176
 20
249.8347530915
 10
275.7635937174
 20
250.0446880437
 10
275.8476860746
 20
250.2473764744
 10
275.9633940869
 20
250.4393503272
 10
276.1087379992
 20
250.6173248693
 10
276.2812309672
 20
250.7782548858
 10
276.4779216154
 20
250.9193867979
 10
276.6954445221
 20
251.0383057688
 10
276.9300778144
 20
251.1329770351
 10
277.1778068387
 20
251.2017807173
 10
277.4343928557
 20
251.2435395438
 10
277.6954456066
 20
251.2575389984
  0
LWPOLYLINE
  5
4A5
100
AcDbEntity
  8
X48002028_BL12
100
AcDbPolyline
 62
9
  6
CONTINUOUS
 90
13
 70
0
 10
275.6954456066
 20
229.3714938173
 10
275.7125558788
 20
229.4709103273
 10
275.763593936
 20
229.5686257969
 10
275.8476865066
 20
229.6629682876
 10
275.9633947467
 20
229.7523235729
 10
276.1087388589
 20
229.8351627584
 10
276.2812319673
 20
229.9100684421
 10
276.4779226685
 20
229.975758966
 10
276.6954455308
 20
230.0311103461
 10
276.9300786775
 20
230.075175504
 10
277.1778074696
 20
230.1072004718
 10
277.434393197
 20
230.1266372928
 10
277.6954456066
 20
230.1331533973
  0
LINE
  5
4A6
100
AcDbEntity
  8
X48002028_BL12
100
AcDbLine
 62
7
  6
CONTINUOUS
 10
277.6954456066
 20
27.4409737745
 11
290.6954456066
 21
27.4409737745
  0
LINE
  5
4A7
100
AcDbEntity
  8
X48002028_BL12
100
AcDbLine
 62
9
  6
CONTINUOUS
 10
290.6954456066
 20
27.9405763668
 11
277.6954456066
 21
27.9405763668
  0
LINE
  5
4A8
100
AcDbEntity
  8
X48002028_BL12
100
AcDbLine
 62
9
  6
CONTINUOUS
 10
290.7243581618
 20
44.8307923281
 11
277.6954456066
 21
44.8307923281
  0
LINE
  5
4A9
100
AcDbEntity
  8
X48002028_BL12
100
AcDbLine
 62
7
  6
CONTINUOUS
 10
277.6954456066
 20
55.2727190977
 11
290.9124152041
 21
55.2727190977
  0
LWPOLYLINE
  5
4AA
100
AcDbEntity
  8
X48002028_BL12
100
AcDbPolyline
 62
9
  6
CONTINUOUS
 90
12
 70
0
 10
275.7125558788
 20
29.5484858981
 10
275.763593936
 20
29.3112351936
 10
275.8476865066
 20
29.0821739972
 10
275.9633947467
 20
28.8652216103
 10
276.1087388589
 20
28.6640901496
 10
276.2812319673
 20
28.4822210321
 10
276.4779226685
 20
28.3227260909
 10
276.6954455308
 20
28.1883343311
 10
276.9300786775
 20
28.0813452351
 10
277.1778074696
 20
28.003589418
 10
277.434393197
 20
27.9563973049
 10
277.6954456066
 20
27.9405763668
  0
LINE
  5
4AB
100
AcDbEntity
  8
X48002028_BL12
100
AcDbLine
 62
9
  6
CONTINUOUS
 10
275.6954456066
 20
29.7898666858
 11
275.7125558788
 21
29.5484858981
  0
LWPOLYLINE
  5
4AC
100
AcDbEntity
  8
X48002028_BL12
100
AcDbPolyline
 62
9
  6
CONTINUOUS
 90
13
 70
0
 10
275.6954456066
 20
45.9806948227
 10
275.7125558176
 20
45.8306027215
 10
275.7635937174
 20
45.6830786714
 10
275.8476860746
 20
45.5406468464
 10
275.9633940869
 20
45.4057442955
 10
276.1087379992
 20
45.2806792435
 10
276.2812309672
 20
45.167591603
 10
276.4779216154
 20
45.0684163499
 10
276.6954445221
 20
44.9848504218
 10
276.9300778144
 20
44.9183236739
 10
277.1778068387
 20
44.8699744168
 10
277.4343928557
 20
44.8406299347
 10
277.6954456066
 20
44.8307923278
  0
LWPOLYLINE
  5
4AD
100
AcDbEntity
  8
X48002028_BL12
100
AcDbPolyline
 62
7
  6
CONTINUOUS
 90
5
 70
0
 10
275.6954456066
 20
37.5479986654
 10
275.7012315815
 20
36.8754369003
 10
275.7041705689
 20
36.5668183264
 10
275.7058128208
 20
36.2797085891
 10
275.7041664001
 20
36.0161101475
  0
LINE
  5
4AE
100
AcDbEntity
  8
X48002028_BL12
100
AcDbLine
 62
7
  6
CONTINUOUS
 10
275.6954456066
 20
29.4410386158
 11
275.6954456066
 21
35.3807199816
  0
LINE
  5
4AF
100
AcDbEntity
  8
X48002028_BL12
100
AcDbLine
 62
7
  6
CONTINUOUS
 10
275.6954456066
 20
35.3917365131
 11
275.6954456066
 21
37.2976905005
  0
LINE
  5
4B0
100
AcDbEntity
  8
X48002028_BL12
100
AcDbLine
 62
7
  6
CONTINUOUS
 10
275.6954456066
 20
37.5479986654
 11
275.6954456066
 21
53.2726542564
  0
LINE
  5
4B1
100
AcDbEntity
  8
X48002028_BL12
100
AcDbLine
 62
9
  6
CONTINUOUS
 10
277.6954456066
 20
27.4409737745
 11
277.6954456066
 21
55.2727190977
  0
LWPOLYLINE
  5
4B2
100
AcDbEntity
  8
X48002028_BL12
100
AcDbPolyline
 62
7
  6
CONTINUOUS
 90
3
 70
0
 10
275.7041664001
 20
36.0161101475
 10
275.6984841834
 20
35.5656631127
 10
275.6954456066
 20
35.3807199816
  0
ARC
  5
4B3
100
AcDbEntity
  8
X48002028_BL12
100
AcDbCircle
 62
7
  6
CONTINUOUS
 10
277.6954456066
 20
250.462954747
 40
2.0
100
AcDbArc
 50
90.0
 51
180.0
  0
ARC
  5
4B4
100
AcDbEntity
  8
X48002028_BL12
100
AcDbCircle
 62
7
  6
CONTINUOUS
 10
277.6954456066
 20
222.9782518897
 40
2.0
100
AcDbArc
 50
180.0
 51
270.0
  0
ARC
  5
4B5
100
AcDbEntity
  8
X48002028_BL12
100
AcDbCircle
 62
7
  6
CONTINUOUS
 10
277.6954456066
 20
53.2727190977
 40
2.0
100
AcDbArc
 50
90.0
 51
180.0
  0
ARC
  5
4B6
100
AcDbEntity
  8
X48002028_BL12
100
AcDbCircle
 62
7
  6
CONTINUOUS
 10
277.6954456066
 20
29.4409737745
 40
2.0
100
AcDbArc
 50
180.0
 51
270.0
  0
ENDBLK
  5
4B7
100
AcDbEntity
  8
0
  6
BYBLOCK
 62
0
100
AcDbBlockEnd
  0
BLOCK
  5
4B8
100
AcDbEntity
  8
X48002254_KLEIN_BL13
100
AcDbBlockBegin
  2
X48002254_KLEIN_BL13
 70
64
 10
363.6954456066
 20
256.2874540244
  3
X48002254_KLEIN_BL13
  1

  0
LINE
  5
4B9
100
AcDbEntity
  8
X48002254_KLEIN_BL13
100
AcDbLine
 62
3
  6
CONTINUOUS
 10
351.98241644
 20
303.1218211222
 11
380.8454456066
 21
303.1218211222
  0
LINE
  5
4BA
100
AcDbEntity
  8
X48002254_KLEIN_BL13
100
AcDbLine
 62
9
  6
CONTINUOUS
 10
352.5757961037
 20
303.4835170337
 11
380.8454456066
 21
303.4835170337
  0
LINE
  5
4BB
100
AcDbEntity
  8
X48002254_KLEIN_BL13
100
AcDbLine
 62
9
  6
CONTINUOUS
 10
378.1685700232
 20
321.61005217
 11
380.8454456066
 21
321.61005217
  0
LINE
  5
4BC
100
AcDbEntity
  8
X48002254_KLEIN_BL13
100
AcDbLine
 62
3
  6
CONTINUOUS
 10
346.5454456066
 20
394.6218211222
 11
346.5454456066
 21
341.0519343982
  0
LINE
  5
4BD
100
AcDbEntity
  8
X48002254_KLEIN_BL13
100
AcDbLine
 62
9
  6
CONTINUOUS
 10
346.5454456066
 20
352.2961006429
 11
346.9454456066
 21
352.2961006429
  0
LINE
  5
4BE
100
AcDbEntity
  8
X48002254_KLEIN_BL13
100
AcDbLine
 62
9
  6
CONTINUOUS
 10
380.4454456066
 20
352.2961006429
 11
380.8454456066
 21
352.2961006429
  0
LINE
  5
4BF
100
AcDbEntity
  8
X48002254_KLEIN_BL13
100
AcDbLine
 62
9
  6
CONTINUOUS
 10
346.5454456066
 20
353.6712066692
 11
346.9454456066
 21
353.6712066692
  0
LINE
  5
4C0
100
AcDbEntity
  8
X48002254_KLEIN_BL13
100
AcDbLine
 62
9
  6
CONTINUOUS
 10
380.4454456066
 20
353.6712066692
 11
380.8454456066
 21
353.6712066692
  0
LINE
  5
4C1
100
AcDbEntity
  8
X48002254_KLEIN_BL13
100
AcDbLine
 62
9
  6
CONTINUOUS
 10
346.5454456066
 20
356.8432287956
 11
380.8454456066
 21
356.8432287956
  0
LINE
  5
4C2
100
AcDbEntity
  8
X48002254_KLEIN_BL13
100
AcDbLine
 62
3
  6
CONTINUOUS
 10
380.8454456066
 20
394.6218211222
 11
380.8454456066
 21
303.1218211222
  0
LINE
  5
4C3
100
AcDbEntity
  8
X48002254_KLEIN_BL13
100
AcDbLine
 62
9
  6
CONTINUOUS
 10
346.5454456066
 20
393.5501839513
 11
380.8454456066
 21
393.5501839513
  0
LINE
  5
4C4
100
AcDbEntity
  8
X48002254_KLEIN_BL13
100
AcDbLine
 62
3
  6
CONTINUOUS
 10
346.5454456066
 20
394.6218211222
 11
380.8454456066
 21
394.6218211222
  0
LINE
  5
4C5
100
AcDbEntity
  8
X48002254_KLEIN_BL13
100
AcDbLine
 62
3
  6
CONTINUOUS
 10
346.5454456066
 20
117.9530869265
 11
346.9454456066
 21
117.9530869265
  0
LINE
  5
4C6
100
AcDbEntity
  8
X48002254_KLEIN_BL13
100
AcDbLine
 62
3
  6
CONTINUOUS
 10
380.4454456066
 20
117.9530869265
 11
380.8454456066
 21
117.9530869265
  0
LINE
  5
4C7
100
AcDbEntity
  8
X48002254_KLEIN_BL13
100
AcDbLine
 62
3
  6
CONTINUOUS
 10
346.5454456066
 20
121.4266840358
 11
380.8454456066
 21
121.4266840358
  0
LINE
  5
4C8
100
AcDbEntity
  8
X48002254_KLEIN_BL13
100
AcDbLine
 62
9
  6
CONTINUOUS
 10
346.5454456066
 20
121.9530840388
 11
380.8454456066
 21
121.9530840388
  0
LINE
  5
4C9
100
AcDbEntity
  8
X48002254_KLEIN_BL13
100
AcDbLine
 62
3
  6
CONTINUOUS
 10
346.5454456066
 20
160.9530869265
 11
346.5454456066
 21
117.9530997747
  0
LINE
  5
4CA
100
AcDbEntity
  8
X48002254_KLEIN_BL13
100
AcDbLine
 62
9
  6
CONTINUOUS
 10
346.5454456066
 20
152.7538765716
 11
380.8454456066
 21
152.7538765716
  0
LINE
  5
4CB
100
AcDbEntity
  8
X48002254_KLEIN_BL13
100
AcDbLine
 62
9
  6
CONTINUOUS
 10
346.5454456066
 20
155.0520099009
 11
380.8454456066
 21
155.0520099009
  0
LINE
  5
4CC
100
AcDbEntity
  8
X48002254_KLEIN_BL13
100
AcDbLine
 62
3
  6
CONTINUOUS
 10
346.5454456066
 20
160.9530869265
 11
380.8454456066
 21
160.9530869265
  0
LINE
  5
4CD
100
AcDbEntity
  8
X48002254_KLEIN_BL13
100
AcDbLine
 62
3
  6
CONTINUOUS
 10
380.8454456066
 20
160.9530869265
 11
380.8454456066
 21
117.9530997747
  0
ENDBLK
  5
4CE
100
AcDbEntity
  8
0
  6
BYBLOCK
 62
0
100
AcDbBlockEnd
  0
BLOCK
  5
4CF
100
AcDbEntity
  8
X48002014_BL14
100
AcDbBlockBegin
  2
X48002014_BL14
 70
64
 10
363.6954456066
 20
344.9718211222
  3
X48002014_BL14
  1

  0
LINE
  5
4D0
100
AcDbEntity
  8
X48002014_BL14
100
AcDbLine
 62
7
  6
CENTER
 10
363.6954456066
 20
317.7218211222
 11
357.6954456066
 21
317.7218211222
  0
LINE
  5
4D1
100
AcDbEntity
  8
X48002014_BL14
100
AcDbLine
 62
7
  6
CENTER
 10
363.6954456066
 20
317.7218211222
 11
369.6954456066
 21
317.7218211222
  0
LINE
  5
4D2
100
AcDbEntity
  8
X48002014_BL14
100
AcDbLine
 62
7
  6
CENTER
 10
363.6954456066
 20
372.2218211222
 11
363.6954456066
 21
366.2218211222
  0
LINE
  5
4D3
100
AcDbEntity
  8
X48002014_BL14
100
AcDbLine
 62
7
  6
CENTER
 10
363.6954456066
 20
317.7218211222
 11
363.6954456066
 21
311.7218211222
  0
LINE
  5
4D4
100
AcDbEntity
  8
X48002014_BL14
100
AcDbLine
 62
7
  6
CENTER
 10
363.6954456066
 20
317.7218211222
 11
363.6954456066
 21
323.7218211222
  0
LINE
  5
4D5
100
AcDbEntity
  8
X48002014_BL14
100
AcDbLine
 62
7
  6
CENTER
 10
363.6954456066
 20
372.2218211222
 11
363.6954456066
 21
378.2218211222
  0
LINE
  5
4D6
100
AcDbEntity
  8
X48002014_BL14
100
AcDbLine
 62
7
  6
CENTER
 10
363.6954456066
 20
372.2218211222
 11
357.6954456066
 21
372.2218211222
  0
LINE
  5
4D7
100
AcDbEntity
  8
X48002014_BL14
100
AcDbLine
 62
7
  6
CENTER
 10
363.6954456066
 20
372.2218211222
 11
369.6954456066
 21
372.2218211222
  0
ENDBLK
  5
4D8
100
AcDbEntity
  8
0
  6
BYBLOCK
 62
0
100
AcDbBlockEnd
  0
BLOCK
  5
4D9
100
AcDbEntity
  8
X48002270_BL15
100
AcDbBlockBegin
  2
X48002270_BL15
 70
64
 10
363.6954456066
 20
348.7086791496
  3
X48002270_BL15
  1

  0
LINE
  5
4DA
100
AcDbEntity
  8
X48002270_BL15
100
AcDbLine
 62
7
  6
CENTER
 10
363.6954456066
 20
299.825537177
 11
363.6954456066
 21
397.5918211222
  0
ENDBLK
  5
4DB
100
AcDbEntity
  8
0
  6
BYBLOCK
 62
0
100
AcDbBlockEnd
  0
BLOCK
  5
4DC
100
AcDbEntity
  8
B_7100_4210_BD01_BL16
100
AcDbBlockBegin
  2
B_7100_4210_BD01_BL16
 70
64
 10
487.1953489145
 20
126.079674127
  3
B_7100_4210_BD01_BL16
  1

  0
LINE
  5
4DD
100
AcDbEntity
  8
B_7100_4210_BD01_BL16
100
AcDbLine
 62
7
  6
CENTER
 10
464.1928288004
 20
125.5353549031
 11
510.1978690286
 21
126.623993351
  0
ENDBLK
  5
4DE
100
AcDbEntity
  8
0
  6
BYBLOCK
 62
0
100
AcDbBlockEnd
  0
BLOCK
  5
4DF
100
AcDbEntity
  8
0
100
AcDbBlockBegin
  2
_FILLED
 70
64
 10
0.0
 20
0.0
  3
_FILLED
  1

  0
SOLID
  5
4E0
100
AcDbEntity
  8
0
  6
BYBLOCK
 62
0
100
AcDbTrace
 10
0.0
 20
0.0
 11
-1.0
 21
0.125
 12
-1.0
 22
-0.125
 13
-1.0
 23
-0.125
  0
ENDBLK
  5
4E1
100
AcDbEntity
  8
0
  6
BYBLOCK
 62
0
100
AcDbBlockEnd
  0
BLOCK
  5
4E2
100
AcDbEntity
  8
0
100
AcDbBlockBegin
  2
XSEC_FILLED
 70
64
 10
0.0
 20
0.0
  3
XSEC_FILLED
  1

  0
SOLID
  5
4E3
100
AcDbEntity
  8
0
  6
BYBLOCK
 62
0
100
AcDbTrace
 10
0.0
 20
0.0
 11
-1.0
 21
0.15
 12
-1.0
 22
-0.15
 13
-1.0
 23
-0.15
  0
ENDBLK
  5
4E4
100
AcDbEntity
  8
0
  6
BYBLOCK
 62
0
100
AcDbBlockEnd
  0
BLOCK
  5
4E5
100
AcDbEntity
  8
0
100
AcDbBlockBegin
 62
2
  6
CONTINUOUS
  2
*D0
 70
65
 10
0.0
 20
0.0
  3
*D0
  1

  0
MTEXT
  5
4E6
100
AcDbEntity
  8
0
100
AcDbMText
 62
5
  6
CONTINUOUS
  7
TEXTSTYLE_2
 71
2
 72
1
 10
66.973413308
 20
409.6218211222
 30
0.0
 11
1.0
 21
0.0
 31
0.0
 73
2
 44
0.9
  1
34
 40
4.0
 41
6.2388059701
  0
LINE
  5
4E7
100
AcDbEntity
  8
0
100
AcDbLine
 62
2
  6
CONTINUOUS
 10
49.823413308
 20
394.6218211222
 11
49.823413308
 21
406.1218211222
  0
LINE
  5
4E8
100
AcDbEntity
  8
0
100
AcDbLine
 62
2
  6
CONTINUOUS
 10
84.123413308
 20
394.6218211222
 11
84.123413308
 21
406.1218211222
  0
LINE
  5
4E9
100
AcDbEntity
  8
0
100
AcDbLine
 62
2
  6
CONTINUOUS
 10
49.823413308
 20
404.6218211222
 11
66.973413308
 21
404.6218211222
  0
LINE
  5
4EA
100
AcDbEntity
  8
0
100
AcDbLine
 62
2
  6
CONTINUOUS
 10
84.123413308
 20
404.6218211222
 11
66.973413308
 21
404.6218211222
  0
INSERT
  5
4EB
100
AcDbEntity
  8
0
100
AcDbBlockReference
 62
2
  6
CONTINUOUS
  2
_FILLED
 10
49.823413308
 20
404.6218211222
 41
3.5
 42
3.5
 43
3.5
 50
180.0
  0
INSERT
  5
4EC
100
AcDbEntity
  8
0
100
AcDbBlockReference
 62
2
  6
CONTINUOUS
  2
_FILLED
 10
84.123413308
 20
404.6218211222
 41
3.5
 42
3.5
 43
3.5
  0
ENDBLK
  5
4ED
100
AcDbEntity
  8
0
  6
BYBLOCK
 62
0
100
AcDbBlockEnd
  0
BLOCK
  5
4EE
100
AcDbEntity
  8
0
100
AcDbBlockBegin
 62
2
  6
CONTINUOUS
  2
*D1
 70
65
 10
0.0
 20
0.0
  3
*D1
  1

  0
MTEXT
  5
4EF
100
AcDbEntity
  8
0
100
AcDbMText
 62
5
  6
CONTINUOUS
  7
TEXTSTYLE_2
 71
2
 72
1
 10
34.823413308
 20
348.8718211222
 30
0.0
 11
0.0
 21
1.0
 31
0.0
 73
2
 44
0.9
  1
92
 40
4.0
 41
6.2388059701
  0
LINE
  5
4F0
100
AcDbEntity
  8
0
100
AcDbLine
 62
2
  6
CONTINUOUS
 10
49.823413308
 20
394.6218211222
 11
38.323413308
 21
394.6218211222
  0
LINE
  5
4F1
100
AcDbEntity
  8
0
100
AcDbLine
 62
2
  6
CONTINUOUS
 10
49.823413308
 20
303.1218211222
 11
38.323413308
 21
303.1218211222
  0
LINE
  5
4F2
100
AcDbEntity
  8
0
100
AcDbLine
 62
2
  6
CONTINUOUS
 10
39.823413308
 20
394.6218211222
 11
39.823413308
 21
348.8718211222
  0
LINE
  5
4F3
100
AcDbEntity
  8
0
100
AcDbLine
 62
2
  6
CONTINUOUS
 10
39.823413308
 20
303.1218211222
 11
39.823413308
 21
348.8718211222
  0
INSERT
  5
4F4
100
AcDbEntity
  8
0
100
AcDbBlockReference
 62
2
  6
CONTINUOUS
  2
_FILLED
 10
39.823413308
 20
394.6218211222
 41
3.5
 42
3.5
 43
3.5
 50
90.0
  0
INSERT
  5
4F5
100
AcDbEntity
  8
0
100
AcDbBlockReference
 62
2
  6
CONTINUOUS
  2
_FILLED
 10
39.823413308
 20
303.1218211222
 41
3.5
 42
3.5
 43
3.5
 50
270.0
  0
ENDBLK
  5
4F6
100
AcDbEntity
  8
0
  6
BYBLOCK
 62
0
100
AcDbBlockEnd
  0
BLOCK
  5
4F7
100
AcDbEntity
  8
0
100
AcDbBlockBegin
 62
2
  6
CONTINUOUS
  2
*D2
 70
65
 10
0.0
 20
0.0
  3
*D2
  1

  0
MTEXT
  5
4F8
100
AcDbEntity
  8
0
100
AcDbMText
 62
5
  6
CONTINUOUS
  7
TEXTSTYLE_2
 71
2
 72
1
 10
128.2379564138
 20
212.1656942706
 30
0.0
 11
1.0
 21
0.0
 31
0.0
 73
2
 44
0.9
  1
23
 40
4.0
 41
6.2388059701
  0
LINE
  5
4F9
100
AcDbEntity
  8
0
100
AcDbLine
 62
2
  6
CONTINUOUS
 10
116.973413308
 20
217.6587533238
 11
116.973413308
 21
205.6656942706
  0
LINE
  5
4FA
100
AcDbEntity
  8
0
100
AcDbLine
 62
2
  6
CONTINUOUS
 10
139.973413308
 20
217.6587533238
 11
139.973413308
 21
205.6656942706
  0
LINE
  5
4FB
100
AcDbEntity
  8
0
100
AcDbLine
 62
2
  6
CONTINUOUS
 10
116.973413308
 20
207.1656942706
 11
128.473413308
 21
207.1656942706
  0
LINE
  5
4FC
100
AcDbEntity
  8
0
100
AcDbLine
 62
2
  6
CONTINUOUS
 10
139.973413308
 20
207.1656942706
 11
128.473413308
 21
207.1656942706
  0
INSERT
  5
4FD
100
AcDbEntity
  8
0
100
AcDbBlockReference
 62
2
  6
CONTINUOUS
  2
_FILLED
 10
116.973413308
 20
207.1656942706
 41
3.5
 42
3.5
 43
3.5
 50
180.0
  0
INSERT
  5
4FE
100
AcDbEntity
  8
0
100
AcDbBlockReference
 62
2
  6
CONTINUOUS
  2
_FILLED
 10
139.973413308
 20
207.1656942706
 41
3.5
 42
3.5
 43
3.5
  0
ENDBLK
  5
4FF
100
AcDbEntity
  8
0
  6
BYBLOCK
 62
0
100
AcDbBlockEnd
  0
BLOCK
  5
500
100
AcDbEntity
  8
0
100
AcDbBlockBegin
 62
2
  6
CONTINUOUS
  2
*D3
 70
65
 10
0.0
 20
0.0
  3
*D3
  1

  0
MTEXT
  5
501
100
AcDbEntity
  8
0
100
AcDbMText
 62
5
  6
CONTINUOUS
  7
TEXTSTYLE_2
 71
2
 72
1
 10
83.398413308
 20
212.1656942706
 30
0.0
 11
1.0
 21
0.0
 31
0.0
 73
2
 44
0.9
  1
67
 40
4.0
 41
6.2388059701
  0
LINE
  5
502
100
AcDbEntity
  8
0
100
AcDbLine
 62
2
  6
CONTINUOUS
 10
116.973413308
 20
217.6587533238
 11
116.973413308
 21
205.6656942706
  0
LINE
  5
503
100
AcDbEntity
  8
0
100
AcDbLine
 62
2
  6
CONTINUOUS
 10
49.823413308
 20
303.4835170337
 11
49.823413308
 21
205.6656942706
  0
LINE
  5
504
100
AcDbEntity
  8
0
100
AcDbLine
 62
2
  6
CONTINUOUS
 10
116.973413308
 20
207.1656942706
 11
83.398413308
 21
207.1656942706
  0
LINE
  5
505
100
AcDbEntity
  8
0
100
AcDbLine
 62
2
  6
CONTINUOUS
 10
49.823413308
 20
207.1656942706
 11
83.398413308
 21
207.1656942706
  0
INSERT
  5
506
100
AcDbEntity
  8
0
100
AcDbBlockReference
 62
2
  6
CONTINUOUS
  2
_FILLED
 10
116.973413308
 20
207.1656942706
 41
3.5
 42
3.5
 43
3.5
  0
INSERT
  5
507
100
AcDbEntity
  8
0
100
AcDbBlockReference
 62
2
  6
CONTINUOUS
  2
_FILLED
 10
49.823413308
 20
207.1656942706
 41
3.5
 42
3.5
 43
3.5
 50
180.0
  0
ENDBLK
  5
508
100
AcDbEntity
  8
0
  6
BYBLOCK
 62
0
100
AcDbBlockEnd
  0
BLOCK
  5
509
100
AcDbEntity
  8
0
100
AcDbBlockBegin
 62
2
  6
CONTINUOUS
  2
*D4
 70
65
 10
0.0
 20
0.0
  3
*D4
  1

  0
MTEXT
  5
50A
100
AcDbEntity
  8
0
100
AcDbMText
 62
5
  6
CONTINUOUS
  7
TEXTSTYLE_2
 71
2
 72
1
 10
162.9254308591
 20
366.9218211222
 30
0.0
 11
0.0
 21
1.0
 31
0.0
 73
2
 44
0.9
  1
55
 40
4.0
 41
6.2388059701
  0
LINE
  5
50B
100
AcDbEntity
  8
0
100
AcDbLine
 62
2
  6
CONTINUOUS
 10
84.123413308
 20
394.6218211222
 11
169.4254308591
 21
394.6218211222
  0
LINE
  5
50C
100
AcDbEntity
  8
0
100
AcDbLine
 62
2
  6
CONTINUOUS
 10
167.9254308591
 20
394.6218211222
 11
167.9254308591
 21
366.9218211222
  0
LINE
  5
50D
100
AcDbEntity
  8
0
100
AcDbLine
 62
2
  6
CONTINUOUS
 10
167.9254308591
 20
339.2218211222
 11
167.9254308591
 21
366.9218211222
  0
INSERT
  5
50E
100
AcDbEntity
  8
0
100
AcDbBlockReference
 62
2
  6
CONTINUOUS
  2
_FILLED
 10
167.9254308591
 20
394.6218211222
 41
3.5
 42
3.5
 43
3.5
 50
90.0
  0
INSERT
  5
50F
100
AcDbEntity
  8
0
100
AcDbBlockReference
 62
2
  6
CONTINUOUS
  2
_FILLED
 10
167.9254308591
 20
339.2218211222
 41
3.5
 42
3.5
 43
3.5
 50
270.0
  0
ENDBLK
  5
510
100
AcDbEntity
  8
0
  6
BYBLOCK
 62
0
100
AcDbBlockEnd
  0
BLOCK
  5
511
100
AcDbEntity
  8
0
100
AcDbBlockBegin
 62
2
  6
CONTINUOUS
  2
*D5
 70
65
 10
0.0
 20
0.0
  3
*D5
  1

  0
MTEXT
  5
512
100
AcDbEntity
  8
0
100
AcDbMText
 62
5
  6
CONTINUOUS
  7
TEXTSTYLE_2
 71
2
 72
1
 10
162.9254308591
 20
278.190287223
 30
0.0
 11
0.0
 21
1.0
 31
0.0
 73
2
 44
0.9
  1
122
 40
4.0
 41
9.3582089552
  0
LINE
  5
513
100
AcDbEntity
  8
0
100
AcDbLine
 62
2
  6
CONTINUOUS
 10
139.473413308
 20
217.1587533238
 11
169.4254308591
 21
217.1587533238
  0
LINE
  5
514
100
AcDbEntity
  8
0
100
AcDbLine
 62
2
  6
CONTINUOUS
 10
167.9254308591
 20
339.2218211222
 11
167.9254308591
 21
278.190287223
  0
LINE
  5
515
100
AcDbEntity
  8
0
100
AcDbLine
 62
2
  6
CONTINUOUS
 10
167.9254308591
 20
217.1587533238
 11
167.9254308591
 21
278.190287223
  0
INSERT
  5
516
100
AcDbEntity
  8
0
100
AcDbBlockReference
 62
2
  6
CONTINUOUS
  2
_FILLED
 10
167.9254308591
 20
339.2218211222
 41
3.5
 42
3.5
 43
3.5
 50
90.0
  0
INSERT
  5
517
100
AcDbEntity
  8
0
100
AcDbBlockReference
 62
2
  6
CONTINUOUS
  2
_FILLED
 10
167.9254308591
 20
217.1587533238
 41
3.5
 42
3.5
 43
3.5
 50
270.0
  0
ENDBLK
  5
518
100
AcDbEntity
  8
0
  6
BYBLOCK
 62
0
100
AcDbBlockEnd
  0
BLOCK
  5
519
100
AcDbEntity
  8
0
100
AcDbBlockBegin
 62
2
  6
CONTINUOUS
  2
*D6
 70
65
 10
0.0
 20
0.0
  3
*D6
  1

  0
MTEXT
  5
51A
100
AcDbEntity
  8
0
100
AcDbMText
 62
5
  6
CONTINUOUS
  7
TEXTSTYLE_2
 71
2
 72
1
 10
495.3370986319
 20
409.6218211222
 30
0.0
 11
1.0
 21
0.0
 31
0.0
 73
2
 44
0.9
  1
137
 40
4.0
 41
9.3582089552
  0
LINE
  5
51B
100
AcDbEntity
  8
0
100
AcDbLine
 62
2
  6
CONTINUOUS
 10
563.9909283508
 20
227.4887533238
 11
563.9909283508
 21
406.1218211222
  0
LINE
  5
51C
100
AcDbEntity
  8
0
100
AcDbLine
 62
2
  6
CONTINUOUS
 10
426.683268913
 20
377.2218211222
 11
426.683268913
 21
406.1218211222
  0
LINE
  5
51D
100
AcDbEntity
  8
0
100
AcDbLine
 62
2
  6
CONTINUOUS
 10
563.9909283508
 20
404.6218211222
 11
495.3370986319
 21
404.6218211222
  0
LINE
  5
51E
100
AcDbEntity
  8
0
100
AcDbLine
 62
2
  6
CONTINUOUS
 10
426.683268913
 20
404.6218211222
 11
495.3370986319
 21
404.6218211222
  0
INSERT
  5
51F
100
AcDbEntity
  8
0
100
AcDbBlockReference
 62
2
  6
CONTINUOUS
  2
_FILLED
 10
563.9909283508
 20
404.6218211222
 41
3.5
 42
3.5
 43
3.5
  0
INSERT
  5
520
100
AcDbEntity
  8
0
100
AcDbBlockReference
 62
2
  6
CONTINUOUS
  2
_FILLED
 10
426.683268913
 20
404.6218211222
 41
3.5
 42
3.5
 43
3.5
 50
180.0
  0
ENDBLK
  5
521
100
AcDbEntity
  8
0
  6
BYBLOCK
 62
0
100
AcDbBlockEnd
  0
BLOCK
  5
522
100
AcDbEntity
  8
0
100
AcDbBlockBegin
 62
2
  6
CONTINUOUS
  2
*D7
 70
65
 10
0.0
 20
0.0
  3
*D7
  1

  0
MTEXT
  5
523
100
AcDbEntity
  8
0
100
AcDbMText
 62
5
  6
CONTINUOUS
  7
TEXTSTYLE_2
 71
2
 72
1
 10
568.9771024118
 20
305.890287223
 30
0.0
 11
0.0
 21
1.0
 31
0.0
 73
2
 44
0.9
  1
(177)
 40
4.0
 41
13.0895522388
  0
LINE
  5
524
100
AcDbEntity
  8
0
100
AcDbLine
 62
2
  6
CONTINUOUS
 10
432.5843459385
 20
394.6218211222
 11
575.4771024118
 21
394.6218211222
  0
LINE
  5
525
100
AcDbEntity
  8
0
100
AcDbLine
 62
2
  6
CONTINUOUS
 10
553.6609283508
 20
217.1587533238
 11
575.4771024118
 21
217.1587533238
  0
LINE
  5
526
100
AcDbEntity
  8
0
100
AcDbLine
 62
2
  6
CONTINUOUS
 10
573.9771024118
 20
394.6218211222
 11
573.9771024118
 21
305.890287223
  0
LINE
  5
527
100
AcDbEntity
  8
0
100
AcDbLine
 62
2
  6
CONTINUOUS
 10
573.9771024118
 20
217.1587533238
 11
573.9771024118
 21
305.890287223
  0
INSERT
  5
528
100
AcDbEntity
  8
0
100
AcDbBlockReference
 62
2
  6
CONTINUOUS
  2
_FILLED
 10
573.9771024118
 20
394.6218211222
 41
3.5
 42
3.5
 43
3.5
 50
90.0
  0
INSERT
  5
529
100
AcDbEntity
  8
0
100
AcDbBlockReference
 62
2
  6
CONTINUOUS
  2
_FILLED
 10
573.9771024118
 20
217.1587533238
 41
3.5
 42
3.5
 43
3.5
 50
270.0
  0
ENDBLK
  5
52A
100
AcDbEntity
  8
0
  6
BYBLOCK
 62
0
100
AcDbBlockEnd
  0
BLOCK
  5
52B
100
AcDbEntity
  8
0
100
AcDbBlockBegin
 62
2
  6
CONTINUOUS
  2
*D8
 70
65
 10
0.0
 20
0.0
  3
*D8
  1

  0
MTEXT
  5
52C
100
AcDbEntity
  8
0
100
AcDbMText
 62
5
  6
CONTINUOUS
  7
TEXTSTYLE_2
 71
2
 72
1
 10
34.823413308
 20
141.1898854811
 30
0.0
 11
0.0
 21
1.0
 31
0.0
 73
2
 44
0.9
  1
40
 40
4.0
 41
6.2388059701
  0
LINE
  5
52D
100
AcDbEntity
  8
0
100
AcDbLine
 62
2
  6
CONTINUOUS
 10
49.823413308
 20
160.9530869265
 11
38.323413308
 21
160.9530869265
  0
LINE
  5
52E
100
AcDbEntity
  8
0
100
AcDbLine
 62
2
  6
CONTINUOUS
 10
49.823413308
 20
121.4266840358
 11
38.323413308
 21
121.4266840358
  0
LINE
  5
52F
100
AcDbEntity
  8
0
100
AcDbLine
 62
2
  6
CONTINUOUS
 10
39.823413308
 20
160.9530869265
 11
39.823413308
 21
141.1898854811
  0
LINE
  5
530
100
AcDbEntity
  8
0
100
AcDbLine
 62
2
  6
CONTINUOUS
 10
39.823413308
 20
121.4266840358
 11
39.823413308
 21
141.1898854811
  0
INSERT
  5
531
100
AcDbEntity
  8
0
100
AcDbBlockReference
 62
2
  6
CONTINUOUS
  2
_FILLED
 10
39.823413308
 20
160.9530869265
 41
3.5
 42
3.5
 43
3.5
 50
90.0
  0
INSERT
  5
532
100
AcDbEntity
  8
0
100
AcDbBlockReference
 62
2
  6
CONTINUOUS
  2
_FILLED
 10
39.823413308
 20
121.4266840358
 41
3.5
 42
3.5
 43
3.5
 50
270.0
  0
ENDBLK
  5
533
100
AcDbEntity
  8
0
  6
BYBLOCK
 62
0
100
AcDbBlockEnd
  0
BLOCK
  5
534
100
AcDbEntity
  8
0
100
AcDbBlockBegin
 62
2
  6
CONTINUOUS
  2
*D9
 70
65
 10
0.0
 20
0.0
  3
*D9
  1

  0
MTEXT
  5
535
100
AcDbEntity
  8
0
100
AcDbMText
 62
5
  6
CONTINUOUS
  7
TEXTSTYLE_2
 71
2
 72
1
 10
386.8553166765
 20
355.7218211222
 30
0.0
 11
0.0
 21
1.0
 31
0.0
 73
2
 44
0.9
  1
33
 40
4.0
 41
6.2388059701
  0
LINE
  5
536
100
AcDbEntity
  8
0
100
AcDbLine
 62
2
  6
CONTINUOUS
 10
383.8454456066
 20
339.2218211222
 11
393.3553166765
 21
339.2218211222
  0
LINE
  5
537
100
AcDbEntity
  8
0
100
AcDbLine
 62
2
  6
CONTINUOUS
 10
367.3954456066
 20
372.2218211222
 11
393.3553166765
 21
372.2218211222
  0
LINE
  5
538
100
AcDbEntity
  8
0
100
AcDbLine
 62
2
  6
CONTINUOUS
 10
391.8553166765
 20
339.2218211222
 11
391.8553166765
 21
355.7218211222
  0
LINE
  5
539
100
AcDbEntity
  8
0
100
AcDbLine
 62
2
  6
CONTINUOUS
 10
391.8553166765
 20
372.2218211222
 11
391.8553166765
 21
355.7218211222
  0
INSERT
  5
53A
100
AcDbEntity
  8
0
100
AcDbBlockReference
 62
2
  6
CONTINUOUS
  2
_FILLED
 10
391.8553166765
 20
339.2218211222
 41
3.5
 42
3.5
 43
3.5
 50
270.0
  0
INSERT
  5
53B
100
AcDbEntity
  8
0
100
AcDbBlockReference
 62
2
  6
CONTINUOUS
  2
_FILLED
 10
391.8553166765
 20
372.2218211222
 41
3.5
 42
3.5
 43
3.5
 50
90.0
  0
ENDBLK
  5
53C
100
AcDbEntity
  8
0
  6
BYBLOCK
 62
0
100
AcDbBlockEnd
  0
BLOCK
  5
53D
100
AcDbEntity
  8
0
100
AcDbBlockBegin
 62
2
  6
CONTINUOUS
  2
*D10
 70
65
 10
0.0
 20
0.0
  3
*D10
  1

  0
MTEXT
  5
53E
100
AcDbEntity
  8
0
100
AcDbMText
 62
5
  6
CONTINUOUS
  7
TEXTSTYLE_2
 71
2
 72
1
 10
386.8553166765
 20
328.4718211222
 30
0.0
 11
0.0
 21
1.0
 31
0.0
 73
2
 44
0.9
  1
21.5
 40
4.0
 41
10.9104477612
  0
LINE
  5
53F
100
AcDbEntity
  8
0
100
AcDbLine
 62
2
  6
CONTINUOUS
 10
383.8454456066
 20
339.2218211222
 11
393.3553166765
 21
339.2218211222
  0
LINE
  5
540
100
AcDbEntity
  8
0
100
AcDbLine
 62
2
  6
CONTINUOUS
 10
367.3954456066
 20
317.7218211222
 11
393.3553166765
 21
317.7218211222
  0
LINE
  5
541
100
AcDbEntity
  8
0
100
AcDbLine
 62
2
  6
CONTINUOUS
 10
391.8553166765
 20
339.2218211222
 11
391.8553166765
 21
328.4718211222
  0
LINE
  5
542
100
AcDbEntity
  8
0
100
AcDbLine
 62
2
  6
CONTINUOUS
 10
391.8553166765
 20
317.7218211222
 11
391.8553166765
 21
328.4718211222
  0
INSERT
  5
543
100
AcDbEntity
  8
0
100
AcDbBlockReference
 62
2
  6
CONTINUOUS
  2
_FILLED
 10
391.8553166765
 20
339.2218211222
 41
3.5
 42
3.5
 43
3.5
 50
90.0
  0
INSERT
  5
544
100
AcDbEntity
  8
0
100
AcDbBlockReference
 62
2
  6
CONTINUOUS
  2
_FILLED
 10
391.8553166765
 20
317.7218211222
 41
3.5
 42
3.5
 43
3.5
 50
270.0
  0
ENDBLK
  5
545
100
AcDbEntity
  8
0
  6
BYBLOCK
 62
0
100
AcDbBlockEnd
  0
BLOCK
  5
546
100
AcDbEntity
  8
0
100
AcDbBlockBegin
 62
2
  6
CONTINUOUS
  2
*D11
 70
65
 10
0.0
 20
0.0
  3
*D11
  1

  0
MTEXT
  5
547
100
AcDbEntity
  8
0
100
AcDbMText
 62
5
  6
CONTINUOUS
  7
TEXTSTYLE_2
 71
2
 72
1
 10
487.1953489145
 20
76.8220636392
 30
0.0
 11
1.0
 21
0.0
 31
0.0
 73
2
 44
0.9
  1
20
 40
4.0
 41
6.2388059701
  0
LINE
  5
548
100
AcDbEntity
  8
0
100
AcDbLine
 62
2
  6
CONTINUOUS
 10
467.1884490061
 20
127.9725876837
 11
467.1884490061
 21
70.3220636392
  0
LINE
  5
549
100
AcDbEntity
  8
0
100
AcDbLine
 62
2
  6
CONTINUOUS
 10
507.2022488229
 20
124.1867605704
 11
507.2022488229
 21
70.3220636392
  0
LINE
  5
54A
100
AcDbEntity
  8
0
100
AcDbLine
 62
2
  6
CONTINUOUS
 10
467.1884490061
 20
71.8220636392
 11
487.1953489145
 21
71.8220636392
  0
LINE
  5
54B
100
AcDbEntity
  8
0
100
AcDbLine
 62
2
  6
CONTINUOUS
 10
507.2022488229
 20
71.8220636392
 11
487.1953489145
 21
71.8220636392
  0
INSERT
  5
54C
100
AcDbEntity
  8
0
100
AcDbBlockReference
 62
2
  6
CONTINUOUS
  2
_FILLED
 10
467.1884490061
 20
71.8220636392
 41
3.5
 42
3.5
 43
3.5
 50
180.0
  0
INSERT
  5
54D
100
AcDbEntity
  8
0
100
AcDbBlockReference
 62
2
  6
CONTINUOUS
  2
_FILLED
 10
507.2022488229
 20
71.8220636392
 41
3.5
 42
3.5
 43
3.5
  0
ENDBLK
  5
54E
100
AcDbEntity
  8
0
  6
BYBLOCK
 62
0
100
AcDbBlockEnd
  0
BLOCK
  5
54F
100
AcDbEntity
  8
0
100
AcDbBlockBegin
 62
2
  6
CONTINUOUS
  2
*D12
 70
65
 10
0.0
 20
0.0
  3
*D12
  1

  0
MTEXT
  5
550
100
AcDbEntity
  8
0
100
AcDbMText
 62
5
  6
CONTINUOUS
  7
TEXTSTYLE_2
 71
2
 72
1
 10
441.2302115722
 20
126.079674127
 30
0.0
 11
0.0
 21
1.0
 31
0.0
 73
2
 44
0.9
  1
40
 40
4.0
 41
6.2388059701
  0
LINE
  5
551
100
AcDbEntity
  8
0
100
AcDbLine
 62
2
  6
CONTINUOUS
 10
486.6440499642
 20
166.0371522195
 11
444.7302115722
 21
166.0371522195
  0
LINE
  5
552
100
AcDbEntity
  8
0
100
AcDbLine
 62
2
  6
CONTINUOUS
 10
487.7466478649
 20
86.1221960346
 11
444.7302115722
 21
86.1221960346
  0
LINE
  5
553
100
AcDbEntity
  8
0
100
AcDbLine
 62
2
  6
CONTINUOUS
 10
446.2302115722
 20
166.0371522195
 11
446.2302115722
 21
126.079674127
  0
LINE
  5
554
100
AcDbEntity
  8
0
100
AcDbLine
 62
2
  6
CONTINUOUS
 10
446.2302115722
 20
86.1221960346
 11
446.2302115722
 21
126.079674127
  0
INSERT
  5
555
100
AcDbEntity
  8
0
100
AcDbBlockReference
 62
2
  6
CONTINUOUS
  2
_FILLED
 10
446.2302115722
 20
166.0371522195
 41
3.5
 42
3.5
 43
3.5
 50
90.0
  0
INSERT
  5
556
100
AcDbEntity
  8
0
100
AcDbBlockReference
 62
2
  6
CONTINUOUS
  2
_FILLED
 10
446.2302115722
 20
86.1221960346
 41
3.5
 42
3.5
 43
3.5
 50
270.0
  0
ENDBLK
  5
557
100
AcDbEntity
  8
0
  6
BYBLOCK
 62
0
100
AcDbBlockEnd
  0
BLOCK
  5
558
100
AcDbEntity
  8
0
100
AcDbBlockBegin
 62
2
  6
CONTINUOUS
  2
*D13
 70
65
 10
0.0
 20
0.0
  3
*D13
  1

  0
MTEXT
  5
559
100
AcDbEntity
  8
0
100
AcDbMText
 62
5
  6
CONTINUOUS
  7
TEXTSTYLE_2
 71
1
 72
1
 10
514.1011190616
 20
108.7487949162
 30
0.0
 11
0.9820543595
 21
-0.188598078
 31
0.0
 73
2
 44
0.9
  1
1.5
 40
4.0
 41
7.7910447761
  0
LINE
  5
55A
100
AcDbEntity
  8
0
100
AcDbLine
 62
2
  6
CONTINUOUS
 10
502.4615216917
 20
105.8927470002
 11
496.5691955349
 21
107.0243354684
  0
LINE
  5
55B
100
AcDbEntity
  8
0
100
AcDbLine
 62
2
  6
CONTINUOUS
 10
496.5691955349
 20
107.0243354684
 11
503.9346032309
 21
105.6098498831
  0
LINE
  5
55C
100
AcDbEntity
  8
0
100
AcDbLine
 62
2
  6
CONTINUOUS
 10
505.4076847701
 20
105.3269527661
 11
520.8093581587
 21
102.3691470482
  0
LINE
  5
55D
100
AcDbEntity
  8
0
100
AcDbLine
 62
2
  6
CONTINUOUS
 10
520.8093581587
 20
102.3691470482
 11
503.9346032309
 21
105.6098498831
  0
INSERT
  5
55E
100
AcDbEntity
  8
0
100
AcDbBlockReference
 62
2
  6
CONTINUOUS
  2
_FILLED
 10
502.4615216917
 20
105.8927470002
 41
3.5
 42
3.5
 43
3.5
 50
349.1290190652
  0
INSERT
  5
55F
100
AcDbEntity
  8
0
100
AcDbBlockReference
 62
2
  6
CONTINUOUS
  2
_FILLED
 10
505.4076847701
 20
105.3269527661
 41
3.5
 42
3.5
 43
3.5
 50
169.1290190652
  0
ENDBLK
  5
560
100
AcDbEntity
  8
0
  6
BYBLOCK
 62
0
100
AcDbBlockEnd
  0
BLOCK
  5
561
100
AcDbEntity
  8
0
100
AcDbBlockBegin
 62
2
  6
CONTINUOUS
  2
*D14
 70
65
 10
0.0
 20
0.0
  3
*D14
  1

  0
MTEXT
  5
562
100
AcDbEntity
  8
0
100
AcDbMText
 62
5
  6
CONTINUOUS
  7
TEXTSTYLE_2
 71
2
 72
1
 10
459.071122076
 20
279.5159422545
 30
0.0
 11
0.943672713
 21
0.3308803571
 31
0.0
 73
2
 44
0.9
  1
(39\fSymbol_ASME;°\fArial Unicode MS;)
 40
4.0
 41
12.1679514515
  0
LINE
  5
563
100
AcDbEntity
  8
0
100
AcDbLine
 62
2
  6
CONTINUOUS
 10
426.683268913
 20
304.6218211222
 11
426.683268913
 21
274.5024088551
  0
ARC
  5
564
100
AcDbEntity
  8
0
100
AcDbCircle
 62
2
  6
CONTINUOUS
 10
426.683268913
 20
371.8862888351
 40
95.88387998
100
AcDbArc
 50
270.0
 51
289.3222182863
  0
ARC
  5
565
100
AcDbEntity
  8
0
100
AcDbCircle
 62
2
  6
CONTINUOUS
 10
426.683268913
 20
371.8862888351
 40
95.88387998
100
AcDbArc
 50
289.3222182863
 51
308.6444365725
  0
SOLID
  5
566
100
AcDbEntity
  8
0
100
AcDbTrace
 62
2
  6
CONTINUOUS
 10
430.1747015148
 20
276.5037117941
 11
426.683268913
 21
276.0024088551
 12
430.1906704659
 22
275.6288575248
 13
430.1906704659
 23
275.6288575248
  0
SOLID
  5
567
100
AcDbEntity
  8
0
100
AcDbTrace
 62
2
  6
CONTINUOUS
 10
484.0552335746
 20
294.5154117625
 11
486.5613643817
 21
296.9974904534
 12
483.5213720755
 22
295.2086771517
 13
483.5213720755
 23
295.2086771517
  0
ENDBLK
  5
568
100
AcDbEntity
  8
0
  6
BYBLOCK
 62
0
100
AcDbBlockEnd
  0
BLOCK
  5
569
100
AcDbEntity
  8
0
100
AcDbBlockBegin
  2
*T1
 70
1
 10
0.0
 20
0.0
  3
*T1
  1

  0
LINE
  5
56A
100
AcDbEntity
  8
0
100
AcDbLine
 62
2
  6
CONTINUOUS
 10
0.0
 20
0.0
 11
42.0
 21
0.0
  0
LINE
  5
56B
100
AcDbEntity
  8
0
100
AcDbLine
 62
2
  6
CONTINUOUS
 10
0.0
 20
0.0
 11
0.0
 21
-50.0
  0
LINE
  5
56C
100
AcDbEntity
  8
0
100
AcDbLine
 62
2
  6
CONTINUOUS
 10
0.0
 20
-20.0
 11
42.0
 21
-20.0
  0
LINE
  5
56D
100
AcDbEntity
  8
0
100
AcDbLine
 62
2
  6
CONTINUOUS
 10
0.0
 20
-32.0
 11
42.0
 21
-32.0
  0
LINE
  5
56E
100
AcDbEntity
  8
0
100
AcDbLine
 62
2
  6
CONTINUOUS
 10
0.0
 20
-41.0
 11
42.0
 21
-41.0
  0
LINE
  5
56F
100
AcDbEntity
  8
0
100
AcDbLine
 62
2
  6
CONTINUOUS
 10
0.0
 20
-50.0
 11
42.0
 21
-50.0
  0
LINE
  5
570
100
AcDbEntity
  8
0
100
AcDbLine
 62
2
  6
CONTINUOUS
 10
11.0
 20
-41.0
 11
11.0
 21
-50.0
  0
LINE
  5
571
100
AcDbEntity
  8
0
100
AcDbLine
 62
2
  6
CONTINUOUS
 10
33.0
 20
-41.0
 11
33.0
 21
-50.0
  0
LINE
  5
572
100
AcDbEntity
  8
0
100
AcDbLine
 62
2
  6
CONTINUOUS
 10
42.0
 20
0.0
 11
42.0
 21
-50.0
  0
MTEXT
  5
573
100
AcDbEntity
  8
0
100
AcDbMText
 62
5
  6
CONTINUOUS
  7
TEXTSTYLE_4
 71
2
 72
1
 10
21.0
 20
-24.5
 30
0.0
 11
1.0
 21
0.0
 31
0.0
 73
2
 44
0.9
  1
B-74010-00-0_BD01
 40
3.0
 41
76.6567164179
  0
MTEXT
  5
574
100
AcDbEntity
  8
0
100
AcDbMText
 62
5
  6
CONTINUOUS
  7
TEXTSTYLE_4
 71
1
 72
1
 10
1.4
 20
-33.75
 30
0.0
 11
1.0
 21
0.0
 31
0.0
 73
2
 44
0.9
  1
Scale\P1:1 
 40
2.5
 41
17.5186567164
  0
MTEXT
  5
575
100
AcDbEntity
  8
0
100
AcDbMText
 62
5
  6
CONTINUOUS
  7
TEXTSTYLE_4
 71
2
 72
1
 10
5.5
 20
-44.25
 30
0.0
 11
1.0
 21
0.0
 31
0.0
 73
2
 44
0.9
  1
Draft
 40
2.5
 41
15.1679104478
  0
MTEXT
  5
576
100
AcDbEntity
  8
0
100
AcDbMText
 62
5
  6
CONTINUOUS
  7
TEXTSTYLE_4
 71
2
 72
1
 10
22.0
 20
-44.25
 30
0.0
 11
1.0
 21
0.0
 31
0.0
 73
2
 44
0.9
  1
07.11.2018
 40
2.5
 41
35.0746268657
  0
MTEXT
  5
577
100
AcDbEntity
  8
0
100
AcDbMText
 62
5
  6
CONTINUOUS
  7
TEXTSTYLE_4
 71
2
 72
1
 10
37.5
 20
-44.5
 30
0.0
 11
1.0
 21
0.0
 31
0.0
 73
2
 44
0.9
  1
EB-RT
 40
2.0
 41
16.7910447761
  0
ENDBLK
  5
578
100
AcDbEntity
  8
0
  6
BYBLOCK
 62
0
100
AcDbBlockEnd
  0
ENDSEC
  0
SECTION
  2
ENTITIES
  0
INSERT
  5
579
100
AcDbEntity
  8
Grp_symbol_75_BL1
100
AcDbBlockReference
  2
GRP_SYMBOL_75_BL1
 10
46.9666526624
 20
45.1364008621
  0
DIMENSION
  5
57A
100
AcDbEntity
  8
0
100
AcDbDimension
 62
2
  6
CONTINUOUS
  2
*D0
 10
84.123413308
 20
404.6218211222
 11
66.9626461945
 21
404.6218211222
 70
160
 71
2
 42
34.3
  3
DIMSTYLE_1
100
AcDbAlignedDimension
 13
49.823413308
 23
394.6218211222
 14
84.123413308
 24
394.6218211222
100
AcDbRotatedDimension
  0
DIMENSION
  5
57B
100
AcDbEntity
  8
0
100
AcDbDimension
 62
2
  6
CONTINUOUS
  2
*D1
 10
39.823413308
 20
303.1218211222
 11
39.823413308
 21
348.8461299207
 70
160
 71
2
 42
91.5
  3
DIMSTYLE_1
100
AcDbAlignedDimension
 13
49.823413308
 23
394.6218211222
 14
49.823413308
 24
303.1218211222
 50
270.0
100
AcDbRotatedDimension
  0
DIMENSION
  5
57C
100
AcDbEntity
  8
0
100
AcDbDimension
 62
2
  6
CONTINUOUS
  2
*D2
 10
139.973413308
 20
207.1656942706
 11
128.2047975769
 21
207.1656942706
 70
160
 71
2
 42
23.0
  3
DIMSTYLE_2
100
AcDbAlignedDimension
 13
116.973413308
 23
217.6587533238
 14
139.973413308
 24
217.6587533238
100
AcDbRotatedDimension
  0
DIMENSION
  5
57D
100
AcDbEntity
  8
0
100
AcDbDimension
 62
2
  6
CONTINUOUS
  2
*D3
 10
49.823413308
 20
207.1656942706
 11
83.3876444092
 21
207.1656942706
 70
160
 71
2
 42
67.15
  3
DIMSTYLE_1
100
AcDbAlignedDimension
 13
116.973413308
 23
217.6587533238
 14
49.823413308
 24
303.4835170337
 50
180.0
100
AcDbRotatedDimension
  0
DIMENSION
  5
57E
100
AcDbEntity
  8
0
100
AcDbDimension
 62
2
  6
CONTINUOUS
  2
*D4
 10
167.9254308591
 20
339.2218211222
 11
167.9254308591
 21
366.9259741861
 70
160
 71
2
 42
55.4
  3
DIMSTYLE_1
100
AcDbAlignedDimension
 13
84.123413308
 23
394.6218211222
 14
46.823413308
 24
339.2218211222
 50
270.0
100
AcDbRotatedDimension
  0
DIMENSION
  5
57F
100
AcDbEntity
  8
0
100
AcDbDimension
 62
2
  6
CONTINUOUS
  2
*D5
 10
167.9254308591
 20
217.1587533238
 11
167.9254308591
 21
278.3553230228
 70
160
 71
2
 42
122.0630677985
  3
DIMSTYLE_3
100
AcDbAlignedDimension
 13
46.823413308
 23
339.2218211222
 14
139.473413308
 24
217.1587533238
 50
270.0
100
AcDbRotatedDimension
  0
DIMENSION
  5
580
100
AcDbEntity
  8
0
100
AcDbDimension
 62
2
  6
CONTINUOUS
  2
*D6
 10
426.683268913
 20
404.6218211222
 11
495.5170731812
 21
404.6218211222
 70
160
 71
2
 42
137.3076594378
  3
DIMSTYLE_3
100
AcDbAlignedDimension
 13
563.9909283508
 23
227.4887533238
 14
426.683268913
 24
377.2218211222
 50
180.0
100
AcDbRotatedDimension
  0
DIMENSION
  5
581
100
AcDbEntity
  8
0
100
AcDbDimension
 62
2
  6
CONTINUOUS
  2
*D7
 10
573.9771024118
 20
217.1587533238
 11
573.9771024118
 21
305.890287223
 70
160
 71
2
 42
177.4630677985
  1
(<>)
  3
DIMSTYLE_3
100
AcDbAlignedDimension
 13
432.5843459385
 23
394.6218211222
 14
553.6609283508
 24
217.1587533238
 50
270.0
100
AcDbRotatedDimension
  0
DIMENSION
  5
582
100
AcDbEntity
  8
0
100
AcDbDimension
 62
2
  6
CONTINUOUS
  2
*D8
 10
39.823413308
 20
121.4266840358
 11
39.823413308
 21
141.1044892854
 70
160
 71
2
 42
39.5264028906
  3
DIMSTYLE_1
100
AcDbAlignedDimension
 13
49.823413308
 23
160.9530869265
 14
49.823413308
 24
121.4266840358
 50
270.0
100
AcDbRotatedDimension
  0
DIMENSION
  5
583
100
AcDbEntity
  8
0
100
AcDbDimension
 62
2
  6
CONTINUOUS
  2
*D9
 10
391.8553166765
 20
372.2218211222
 11
391.8553166765
 21
355.7259763386
 70
160
 71
2
 42
33.0
  3
DIMSTYLE_4
100
AcDbAlignedDimension
 13
383.8454456066
 23
339.2218211222
 14
367.3954456066
 24
372.2218211222
 50
90.0
100
AcDbRotatedDimension
  0
DIMENSION
  5
584
100
AcDbEntity
  8
0
100
AcDbDimension
 62
2
  6
CONTINUOUS
  2
*D10
 10
391.8553166765
 20
317.7218211222
 11
391.8553166765
 21
328.4442257556
 70
160
 71
2
 42
21.5
  3
DIMSTYLE_2
100
AcDbAlignedDimension
 13
383.8454456066
 23
339.2218211222
 14
367.3954456066
 24
317.7218211222
 50
270.0
100
AcDbRotatedDimension
  0
DIMENSION
  5
585
100
AcDbEntity
  8
0
100
AcDbDimension
 62
2
  6
CONTINUOUS
  2
*D11
 10
507.2022488229
 20
71.8220636392
 11
487.1547394409
 21
71.8220636392
 70
160
 71
2
 42
20.0068999084
  3
DIMSTYLE_5
100
AcDbAlignedDimension
 13
467.1884490061
 23
127.9725876837
 14
507.2022488229
 24
124.1867605704
100
AcDbRotatedDimension
  0
DIMENSION
  5
586
100
AcDbEntity
  8
0
100
AcDbDimension
 62
2
  6
CONTINUOUS
  2
*D12
 10
446.2302115722
 20
86.1221960346
 11
446.2302115722
 21
125.9942949823
 70
160
 71
2
 42
39.9574780924
  3
DIMSTYLE_6
100
AcDbAlignedDimension
 13
486.6440499642
 23
166.0371522195
 14
487.7466478649
 24
86.1221960346
 50
270.0
100
AcDbRotatedDimension
  0
DIMENSION
  5
587
100
AcDbEntity
  8
0
100
AcDbDimension
 62
2
  6
CONTINUOUS
  2
*D13
 10
505.4076847701
 20
105.3269527661
 11
517.1797455051
 21
103.0661939722
 70
160
 71
1
 42
1.5
  3
DIMSTYLE_7
100
AcDbAlignedDimension
 13
502.4615216917
 23
105.8927470002
 14
505.4076847701
 24
105.3269527661
 50
349.1290190652
100
AcDbRotatedDimension
  0
DIMENSION
  5
588
100
AcDbEntity
  8
0
100
AcDbDimension
 62
2
  6
CONTINUOUS
  2
*D14
 10
486.5613643817
 20
296.9974904534
 11
458.4093613618
 21
281.4032876805
 70
162
 71
2
 42
0.6744726558
  1
(<>)
  3
DIMSTYLE_8
100
AcDb2LineAngularDimension
 13
426.683268913
 23
305.580659922
 14
426.683268913
 24
304.6218211222
 15
485.962583427
 25
297.7463784372
 16
458.4093613618
 26
281.4032876805
1001
ACAD
1000
DSTYLE
1002
{
1070
77
1070
2
1002
}
  0
ACAD_TABLE
  5
589
100
AcDbEntity
  8
0
 62
2
  6
CONTINUOUS
100
AcDbBlockReference
  2
*T1
 10
25.0000035102
 20
54.999995862
 30
0.0
100
AcDbTable
342
       6D5
343
250
 11
1.0
 21
0.0
 31
0.0
 90
22
 91
4
 92
3
 93
0
 94
0
 95
0
 96
0
141
20.0
141
12.0
141
9.0
141
9.0
142
11.0
142
22.0
142
9.0
171
1
172
0
173
0
174
0
175
3
176
1
 91
57
178
0
145
0.0
  7
TEXTSTYLE_4
301
CELL_VALUE
 90
4
  1
 
304
ACVALUE_END
170
1
140
3.5
 64
5
171
1
172
0
173
1
174
0
175
1
176
1
 91
1
178
0
145
0.0
170
1
171
1
172
0
173
1
174
0
175
1
176
1
 91
1
178
0
145
0.0
170
1
171
1
172
0
173
0
174
0
175
3
176
1
 91
57
178
0
145
0.0
  7
TEXTSTYLE_4
301
CELL_VALUE
 90
4
  1
B-74010-00-0_BD01
304
ACVALUE_END
170
5
140
3.0
 64
5
171
1
172
0
173
1
174
0
175
1
176
1
 91
1
178
0
145
0.0
170
1
171
1
172
0
173
1
174
0
175
1
176
1
 91
1
178
0
145
0.0
170
1
171
1
172
0
173
0
174
0
175
3
176
1
 91
57
178
0
145
0.0
  7
TEXTSTYLE_4
301
CELL_VALUE
 90
4
  1
Scale\P1:1 
304
ACVALUE_END
170
1
140
2.5
 64
5
171
1
172
0
173
1
174
0
175
1
176
1
 91
1
178
0
145
0.0
170
1
171
1
172
0
173
1
174
0
175
1
176
1
 91
1
178
0
145
0.0
170
1
171
1
172
0
173
0
174
0
175
1
176
1
 91
57
178
0
145
0.0
  7
TEXTSTYLE_4
301
CELL_VALUE
 90
4
  1
Draft
304
ACVALUE_END
170
5
140
2.5
 64
5
171
1
172
0
173
0
174
0
175
1
176
1
 91
57
178
0
145
0.0
  7
TEXTSTYLE_4
301
CELL_VALUE
 90
4
  1
07.11.2018
304
ACVALUE_END
170
5
140
2.5
 64
5
171
1
172
0
173
0
174
0
175
1
176
1
 91
57
178
0
145
0.0
  7
TEXTSTYLE_4
301
CELL_VALUE
 90
4
  1
EB-RT
304
ACVALUE_END
170
5
140
2.0
 64
5
  0
MTEXT
  5
58A
100
AcDbEntity
  8
0
100
AcDbMText
 62
5
  6
CONTINUOUS
  7
TEXTSTYLE_2
 71
1
 72
1
 10
511.477701302
 20
131.2454105739
 30
0.0
 11
1.0
 21
0.0
 31
0.0
 73
2
 44
0.9
  1
Griffrohr\Pkein Lieferumfang
 40
4.0
 41
44.5373134328
  0
MTEXT
  5
58B
100
AcDbEntity
  8
0
100
AcDbMText
 62
5
  6
CONTINUOUS
  7
STANDARD
 71
3
 72
1
 10
486.0684618984
 20
67.0080676661
 30
0.0
 11
1.0
 21
0.0
 31
0.0
 73
2
 44
0.9
  1
A-A\P\H3.5;2:1
 40
5.0
 41
17.4256505576
  0
LINE
  5
58C
100
AcDbEntity
  8
0
100
AcDbLine
 62
5
  6
CONTINUOUS
 10
25.0
 20
415.0
 11
25.0
 21
5.0
  0
LINE
  5
58D
100
AcDbEntity
  8
0
100
AcDbLine
 62
5
  6
CONTINUOUS
 10
25.0
 20
5.0
 11
589.0
 21
5.0
  0
LINE
  5
58E
100
AcDbEntity
  8
0
100
AcDbLine
 62
5
  6
CONTINUOUS
 10
25.0
 20
415.0
 11
589.0
 21
415.0
  0
LINE
  5
58F
100
AcDbEntity
  8
0
100
AcDbLine
 62
5
  6
CONTINUOUS
 10
589.0
 20
415.0
 11
589.0
 21
5.0
  0
LINE
  5
590
100
AcDbEntity
  8
0
100
AcDbLine
 62
2
  6
CONTINUOUS
 10
216.8449631572
 20
236.5336119519
 11
216.8553166765
 21
236.5365329926
  0
LINE
  5
591
100
AcDbEntity
  8
0
100
AcDbLine
 62
2
  6
CONTINUOUS
 10
210.5439481883
 20
236.5365329926
 11
210.5543017075
 21
236.5394540333
  0
LINE
  5
592
100
AcDbEntity
  8
0
100
AcDbLine
 62
2
  6
CONTINUOUS
 10
216.7290893067
 20
236.5365329926
 11
216.747481742
 21
236.5372562445
  0
LINE
  5
593
100
AcDbEntity
  8
0
100
AcDbLine
 62
2
  6
CONTINUOUS
 10
210.6517831227
 20
236.5358097407
 11
210.6701755581
 21
236.5365329926
  0
LINE
  5
594
100
AcDbEntity
  8
S-AXIS
100
AcDbLine
 62
7
  6
CENTER
 10
66.973413308
 20
299.5439798382
 11
66.973413308
 21
397.6218211222
  0
LINE
  5
595
100
AcDbEntity
  8
0
100
AcDbLine
 62
2
  6
CONTINUOUS
 10
216.747481742
 20
236.5372562445
 11
216.7678428915
 21
236.5374412625
  0
LINE
  5
596
100
AcDbEntity
  8
0
100
AcDbLine
 62
2
  6
CONTINUOUS
 10
210.6314219733
 20
236.5356247228
 11
210.6517831227
 21
236.5358097407
  0
LINE
  5
597
100
AcDbEntity
  8
0
100
AcDbLine
 62
2
  6
CONTINUOUS
 10
214.7724502432
 20
236.5193095049
 11
216.7290893067
 21
236.5365329926
  0
LINE
  5
598
100
AcDbEntity
  8
0
100
AcDbLine
 62
2
  6
CONTINUOUS
 10
210.6701755581
 20
236.5365329926
 11
212.6268146215
 21
236.5537564803
  0
LINE
  5
599
100
AcDbEntity
  8
0
100
AcDbLine
 62
2
  6
CONTINUOUS
 10
212.6268146215
 20
236.5537564803
 11
214.7724502432
 21
236.5193095049
  0
LINE
  5
59A
100
AcDbEntity
  8
0
100
AcDbLine
 62
2
  6
CONTINUOUS
 10
210.6070618732
 20
236.5365329926
 11
210.6314219733
 21
236.5356247228
  0
LINE
  5
59B
100
AcDbEntity
  8
0
100
AcDbLine
 62
2
  6
CONTINUOUS
 10
216.7678428915
 20
236.5374412625
 11
216.7922029916
 21
236.5365329926
  0
LINE
  5
59C
100
AcDbEntity
  8
0
100
AcDbLine
 62
2
  6
CONTINUOUS
 10
210.5543017075
 20
236.5394540333
 11
210.578682315
 21
236.5385401569
  0
LINE
  5
59D
100
AcDbEntity
  8
0
100
AcDbLine
 62
2
  6
CONTINUOUS
 10
216.8205825497
 20
236.5345258284
 11
216.8449631572
 21
236.5336119519
  0
LINE
  5
59E
100
AcDbEntity
  8
0
100
AcDbLine
 62
2
  6
CONTINUOUS
 10
210.578682315
 20
236.5385401569
 11
210.6070618732
 21
236.5365329926
  0
LINE
  5
59F
100
AcDbEntity
  8
0
100
AcDbLine
 62
2
  6
CONTINUOUS
 10
216.7922029916
 20
236.5365329926
 11
216.8205825497
 21
236.5345258284
  0
LINE
  5
5A0
100
AcDbEntity
  8
0
100
AcDbLine
 62
2
  6
CONTINUOUS
 10
213.6612389495
 20
234.8339473076
 11
213.6365187475
 21
234.8454499072
  0
LINE
  5
5A1
100
AcDbEntity
  8
0
100
AcDbLine
 62
2
  6
CONTINUOUS
 10
213.7627461173
 20
238.227616078
 11
213.7380259153
 21
238.2391186776
  0
LINE
  5
5A2
100
AcDbEntity
  8
0
100
AcDbLine
 62
2
  6
CONTINUOUS
 10
210.6070618732
 20
236.5020210929
 11
210.5786883984
 21
236.5155313515
  0
LINE
  5
5A3
100
AcDbEntity
  8
0
100
AcDbLine
 62
2
  6
CONTINUOUS
 10
216.8205764664
 20
236.5575346337
 11
216.7922029916
 21
236.5710448923
  0
LINE
  5
5A4
100
AcDbEntity
  8
0
100
AcDbLine
 62
2
  6
CONTINUOUS
 10
213.6839582491
 20
234.8224429318
 11
213.6612389495
 21
234.8339473076
  0
LINE
  5
5A5
100
AcDbEntity
  8
0
100
AcDbLine
 62
2
  6
CONTINUOUS
 10
213.7380259153
 20
238.2391186776
 11
213.7153066156
 21
238.2506230534
  0
LINE
  5
5A6
100
AcDbEntity
  8
0
100
AcDbLine
 62
2
  6
CONTINUOUS
 10
213.6365187475
 20
234.8454499072
 11
213.61382742
 21
234.8569505043
  0
LINE
  5
5A7
100
AcDbEntity
  8
0
100
AcDbLine
 62
2
  6
CONTINUOUS
 10
213.7854374448
 20
238.216115481
 11
213.7627461173
 21
238.227616078
  0
LINE
  5
5A8
100
AcDbEntity
  8
0
100
AcDbLine
 62
2
  6
CONTINUOUS
 10
210.5786883984
 20
236.5155313515
 11
210.5543065742
 21
236.527949369
  0
LINE
  5
5A9
100
AcDbEntity
  8
0
100
AcDbLine
 62
2
  6
CONTINUOUS
 10
216.8449582906
 20
236.5451166162
 11
216.8205764664
 21
236.5575346337
  0
LINE
  5
5AA
100
AcDbEntity
  8
0
100
AcDbLine
 62
2
  6
CONTINUOUS
 10
210.63140859
 20
236.4896107753
 11
210.6070618732
 21
236.5020210929
  0
LINE
  5
5AB
100
AcDbEntity
  8
0
100
AcDbLine
 62
2
  6
CONTINUOUS
 10
216.7922029916
 20
236.5710448923
 11
216.7678562748
 21
236.5834552099
  0
LINE
  5
5AC
100
AcDbEntity
  8
0
100
AcDbLine
 62
2
  6
CONTINUOUS
 10
212.6052604957
 20
235.4175420744
 11
211.59302525
 21
235.9548207607
  0
LINE
  5
5AD
100
AcDbEntity
  8
0
100
AcDbLine
 62
2
  6
CONTINUOUS
 10
215.8062396148
 20
237.1182452246
 11
214.794004369
 21
237.6555239109
  0
LINE
  5
5AE
100
AcDbEntity
  8
0
100
AcDbLine
 62
2
  6
CONTINUOUS
 10
213.5734050626
 20
234.8799618069
 11
212.6052604957
 21
235.4175420744
  0
LINE
  5
5AF
100
AcDbEntity
  8
0
100
AcDbLine
 62
2
  6
CONTINUOUS
 10
214.794004369
 20
237.6555239109
 11
213.8258598021
 21
238.1931041783
  0
LINE
  5
5B0
100
AcDbEntity
  8
0
100
AcDbLine
 62
2
  6
CONTINUOUS
 10
211.59302525
 20
235.9548207607
 11
210.6701755581
 21
236.4675091932
  0
LINE
  5
5B1
100
AcDbEntity
  8
0
100
AcDbLine
 62
2
  6
CONTINUOUS
 10
216.7290893067
 20
236.605556792
 11
215.8062396148
 21
237.1182452246
  0
LINE
  5
5B2
100
AcDbEntity
  8
0
100
AcDbLine
 62
2
  6
CONTINUOUS
 10
213.61382742
 20
234.8569505043
 11
213.5931369948
 21
234.8684528775
  0
LINE
  5
5B3
100
AcDbEntity
  8
0
100
AcDbLine
 62
2
  6
CONTINUOUS
 10
213.80612787
 20
238.2046131077
 11
213.7854374448
 21
238.216115481
  0
LINE
  5
5B4
100
AcDbEntity
  8
0
100
AcDbLine
 62
2
  6
CONTINUOUS
 10
210.6517636561
 20
236.4782926989
 11
210.63140859
 21
236.4896107753
  0
LINE
  5
5B5
100
AcDbEntity
  8
0
100
AcDbLine
 62
2
  6
CONTINUOUS
 10
216.7678562748
 20
236.5834552099
 11
216.7475012086
 21
236.5947732863
  0
LINE
  5
5B6
100
AcDbEntity
  8
0
100
AcDbLine
 62
2
  6
CONTINUOUS
 10
213.5931369948
 20
234.8684528775
 11
213.5734050626
 21
234.8799618069
  0
LINE
  5
5B7
100
AcDbEntity
  8
0
100
AcDbLine
 62
2
  6
CONTINUOUS
 10
213.8258598021
 20
238.1931041783
 11
213.80612787
 21
238.2046131077
  0
LINE
  5
5B8
100
AcDbEntity
  8
0
100
AcDbLine
 62
2
  6
CONTINUOUS
 10
210.6701755581
 20
236.4675091932
 11
210.6517636561
 21
236.4782926989
  0
LINE
  5
5B9
100
AcDbEntity
  8
0
100
AcDbLine
 62
2
  6
CONTINUOUS
 10
216.7475012086
 20
236.5947732863
 11
216.7290893067
 21
236.605556792
  0
LINE
  5
5BA
100
AcDbEntity
  8
0
100
AcDbLine
 62
2
  6
CONTINUOUS
 10
213.6996324324
 20
234.8109380075
 11
213.6839582491
 21
234.8224429318
  0
LINE
  5
5BB
100
AcDbEntity
  8
0
100
AcDbLine
 62
2
  6
CONTINUOUS
 10
213.7153066156
 20
238.2506230534
 11
213.6996324324
 21
238.2621279777
  0
LINE
  5
5BC
100
AcDbEntity
  8
0
100
AcDbLine
 62
2
  6
CONTINUOUS
 10
210.5543065742
 20
236.527949369
 11
210.5439481883
 21
236.5365329926
  0
LINE
  5
5BD
100
AcDbEntity
  8
0
100
AcDbLine
 62
2
  6
CONTINUOUS
 10
216.8553166765
 20
236.5365329926
 11
216.8449582906
 21
236.5451166162
  0
LINE
  5
5BE
100
AcDbEntity
  8
S-AXIS
100
AcDbLine
 62
7
  6
CENTER
 10
46.823413308
 20
339.2218211222
 11
387.1391996656
 21
339.2218211222
  0
LINE
  5
5BF
100
AcDbEntity
  8
0
100
AcDbLine
 62
2
  6
CONTINUOUS
 10
213.7049095182
 20
234.7994335359
 11
213.6996324324
 21
234.8109380075
  0
LINE
  5
5C0
100
AcDbEntity
  8
0
100
AcDbLine
 62
2
  6
CONTINUOUS
 10
213.6996324324
 20
238.2621279777
 11
213.6943553466
 21
238.2736324494
  0
LINE
  5
5C1
100
AcDbEntity
  8
0
100
AcDbLine
 62
2
  6
CONTINUOUS
 10
213.6996324324
 20
234.7419142081
 11
213.6986729732
 21
234.7534190632
  0
LINE
  5
5C2
100
AcDbEntity
  8
0
100
AcDbLine
 62
2
  6
CONTINUOUS
 10
213.7005918915
 20
238.319646922
 11
213.6996324324
 21
238.3311517771
  0
LINE
  5
5C3
100
AcDbEntity
  8
0
100
AcDbLine
 62
2
  6
CONTINUOUS
 10
213.6986729732
 20
234.7534190632
 11
213.6982172211
 21
234.7649227946
  0
LINE
  5
5C4
100
AcDbEntity
  8
0
100
AcDbLine
 62
2
  6
CONTINUOUS
 10
213.7010476437
 20
238.3081431907
 11
213.7005918915
 21
238.319646922
  0
LINE
  5
5C5
100
AcDbEntity
  8
0
100
AcDbLine
 62
2
  6
CONTINUOUS
 10
213.7000161919
 20
234.7304081332
 11
213.6996324324
 21
234.7419142081
  0
LINE
  5
5C6
100
AcDbEntity
  8
0
100
AcDbLine
 62
2
  6
CONTINUOUS
 10
213.6996324324
 20
238.3311517771
 11
213.6992486729
 21
238.342657852
  0
LINE
  5
5C7
100
AcDbEntity
  8
0
100
AcDbLine
 62
2
  6
CONTINUOUS
 10
213.6996324324
 20
234.6728904087
 11
213.6995366435
 21
234.6844058577
  0
LINE
  5
5C8
100
AcDbEntity
  8
0
100
AcDbLine
 62
2
  6
CONTINUOUS
 10
213.6997282213
 20
238.3886601275
 11
213.6996324324
 21
238.4001755765
  0
LINE
  5
5C9
100
AcDbEntity
  8
0
100
AcDbLine
 62
2
  6
CONTINUOUS
 10
213.7185747146
 20
228.6710092582
 11
213.6996324324
 21
234.6728904087
  0
LINE
  5
5CA
100
AcDbEntity
  8
0
100
AcDbLine
 62
2
  6
CONTINUOUS
 10
213.6996324324
 20
238.4001755765
 11
213.6806901501
 21
244.402056727
  0
LINE
  5
5CB
100
AcDbEntity
  8
0
100
AcDbLine
 62
2
  6
CONTINUOUS
 10
213.6995366435
 20
234.6844058577
 11
213.6995126057
 21
234.6959061217
  0
LINE
  5
5CC
100
AcDbEntity
  8
0
100
AcDbLine
 62
2
  6
CONTINUOUS
 10
213.6997522591
 20
238.3771598636
 11
213.6997282213
 21
238.3886601275
  0
LINE
  5
5CD
100
AcDbEntity
  8
0
100
AcDbLine
 62
2
  6
CONTINUOUS
 10
213.6996324324
 20
253.7924828438
 11
213.6996324324
 21
254.1395236556
  0
LINE
  5
5CE
100
AcDbEntity
  8
0
100
AcDbLine
 62
2
  6
CONTINUOUS
 10
213.6806901501
 20
244.402056727
 11
213.6901612913
 21
250.7813901485
  0
LINE
  5
5CF
100
AcDbEntity
  8
0
100
AcDbLine
 62
2
  6
CONTINUOUS
 10
213.7091035735
 20
222.2916758368
 11
213.7185747146
 21
228.6710092582
  0
LINE
  5
5D0
100
AcDbEntity
  8
0
100
AcDbLine
 62
2
  6
CONTINUOUS
 10
213.6901612913
 20
250.7813901485
 11
213.6996324324
 21
253.7924828438
  0
LINE
  5
5D1
100
AcDbEntity
  8
0
100
AcDbLine
 62
2
  6
CONTINUOUS
 10
213.6996324324
 20
219.2782518897
 11
213.7091035735
 21
222.2916758368
  0
LINE
  5
5D2
100
AcDbEntity
  8
0
100
AcDbLine
 62
2
  6
CONTINUOUS
 10
213.6996324324
 20
238.3656636768
 11
213.6997522591
 21
238.3771598636
  0
LINE
  5
5D3
100
AcDbEntity
  8
0
100
AcDbLine
 62
2
  6
CONTINUOUS
 10
213.6992486729
 20
238.342657852
 11
213.6993686204
 21
238.354162803
  0
LINE
  5
5D4
100
AcDbEntity
  8
0
100
AcDbLine
 62
2
  6
CONTINUOUS
 10
213.6995126057
 20
234.6959061217
 11
213.6996324324
 21
234.7074023084
  0
LINE
  5
5D5
100
AcDbEntity
  8
0
100
AcDbLine
 62
2
  6
CONTINUOUS
 10
213.6998962444
 20
234.7189031822
 11
213.7000161919
 21
234.7304081332
  0
LINE
  5
5D6
100
AcDbEntity
  8
0
100
AcDbLine
 62
2
  6
CONTINUOUS
 10
213.6993686204
 20
238.354162803
 11
213.6996324324
 21
238.3656636768
  0
LINE
  5
5D7
100
AcDbEntity
  8
0
100
AcDbLine
 62
2
  6
CONTINUOUS
 10
213.6996324324
 20
234.7074023084
 11
213.6998962444
 21
234.7189031822
  0
LINE
  5
5D8
100
AcDbEntity
  8
0
100
AcDbLine
 62
2
  6
CONTINUOUS
 10
213.6996324324
 20
238.2966398774
 11
213.7010476437
 21
238.3081431907
  0
LINE
  5
5D9
100
AcDbEntity
  8
0
100
AcDbLine
 62
2
  6
CONTINUOUS
 10
213.6982172211
 20
234.7649227946
 11
213.6996324324
 21
234.7764261078
  0
LINE
  5
5DA
100
AcDbEntity
  8
0
100
AcDbLine
 62
2
  6
CONTINUOUS
 10
213.6943553466
 20
238.2736324494
 11
213.6960584077
 21
238.2851363725
  0
LINE
  5
5DB
100
AcDbEntity
  8
0
100
AcDbLine
 62
2
  6
CONTINUOUS
 10
213.703206457
 20
234.7879296128
 11
213.7049095182
 21
234.7994335359
  0
LINE
  5
5DC
100
AcDbEntity
  8
0
100
AcDbLine
 62
2
  6
CONTINUOUS
 10
213.6960584077
 20
238.2851363725
 11
213.6996324324
 21
238.2966398774
  0
LINE
  5
5DD
100
AcDbEntity
  8
0
100
AcDbLine
 62
2
  6
CONTINUOUS
 10
213.6996324324
 20
234.7764261078
 11
213.703206457
 21
234.7879296128
  0
LINE
  5
5DE
100
AcDbEntity
  8
0
100
AcDbLine
 62
2
  6
CONTINUOUS
 10
223.6841602491
 20
234.8224429318
 11
223.6998344324
 21
234.8109380075
  0
LINE
  5
5DF
100
AcDbEntity
  8
0
100
AcDbLine
 62
2
  6
CONTINUOUS
 10
220.5441501883
 20
236.5365329926
 11
220.5545085742
 21
236.527949369
  0
LINE
  5
5E0
100
AcDbEntity
  8
0
100
AcDbLine
 62
2
  6
CONTINUOUS
 10
223.6367207475
 20
234.8454499072
 11
223.6614409495
 21
234.8339473076
  0
LINE
  5
5E1
100
AcDbEntity
  8
0
100
AcDbLine
 62
2
  6
CONTINUOUS
 10
220.5788903984
 20
236.5155313515
 11
220.6072638732
 21
236.5020210929
  0
LINE
  5
5E2
100
AcDbEntity
  8
0
100
AcDbLine
 62
2
  6
CONTINUOUS
 10
223.6614409495
 20
234.8339473076
 11
223.6841602491
 21
234.8224429318
  0
LINE
  5
5E3
100
AcDbEntity
  8
0
100
AcDbLine
 62
2
  6
CONTINUOUS
 10
223.7155086156
 20
238.2506230534
 11
223.7382279153
 21
238.2391186776
  0
LINE
  5
5E4
100
AcDbEntity
  8
0
100
AcDbLine
 62
2
  6
CONTINUOUS
 10
223.61402942
 20
234.8569505043
 11
223.6367207475
 21
234.8454499072
  0
LINE
  5
5E5
100
AcDbEntity
  8
0
100
AcDbLine
 62
2
  6
CONTINUOUS
 10
223.7629481173
 20
238.227616078
 11
223.7856394448
 21
238.216115481
  0
LINE
  5
5E6
100
AcDbEntity
  8
0
100
AcDbLine
 62
2
  6
CONTINUOUS
 10
220.5545085742
 20
236.527949369
 11
220.5788903984
 21
236.5155313515
  0
LINE
  5
5E7
100
AcDbEntity
  8
0
100
AcDbLine
 62
2
  6
CONTINUOUS
 10
226.8207784664
 20
236.5575346337
 11
226.8451602906
 21
236.5451166162
  0
LINE
  5
5E8
100
AcDbEntity
  8
0
100
AcDbLine
 62
2
  6
CONTINUOUS
 10
220.6072638732
 20
236.5020210929
 11
220.63161059
 21
236.4896107753
  0
LINE
  5
5E9
100
AcDbEntity
  8
0
100
AcDbLine
 62
2
  6
CONTINUOUS
 10
226.7680582748
 20
236.5834552099
 11
226.7924049916
 21
236.5710448923
  0
LINE
  5
5EA
100
AcDbEntity
  8
0
100
AcDbLine
 62
2
  6
CONTINUOUS
 10
221.59322725
 20
235.9548207607
 11
222.6054624957
 21
235.4175420744
  0
LINE
  5
5EB
100
AcDbEntity
  8
0
100
AcDbLine
 62
2
  6
CONTINUOUS
 10
224.794206369
 20
237.6555239109
 11
225.8064416148
 21
237.1182452246
  0
LINE
  5
5EC
100
AcDbEntity
  8
0
100
AcDbLine
 62
2
  6
CONTINUOUS
 10
222.6054624957
 20
235.4175420744
 11
223.5736070626
 21
234.8799618069
  0
LINE
  5
5ED
100
AcDbEntity
  8
0
100
AcDbLine
 62
2
  6
CONTINUOUS
 10
223.8260618021
 20
238.1931041783
 11
224.794206369
 21
237.6555239109
  0
LINE
  5
5EE
100
AcDbEntity
  8
0
100
AcDbLine
 62
2
  6
CONTINUOUS
 10
220.6703775581
 20
236.4675091932
 11
221.59322725
 21
235.9548207607
  0
LINE
  5
5EF
100
AcDbEntity
  8
0
100
AcDbLine
 62
2
  6
CONTINUOUS
 10
225.8064416148
 20
237.1182452246
 11
226.7292913067
 21
236.605556792
  0
LINE
  5
5F0
100
AcDbEntity
  8
0
100
AcDbLine
 62
2
  6
CONTINUOUS
 10
223.5933389948
 20
234.8684528775
 11
223.61402942
 21
234.8569505043
  0
LINE
  5
5F1
100
AcDbEntity
  8
0
100
AcDbLine
 62
2
  6
CONTINUOUS
 10
223.7856394448
 20
238.216115481
 11
223.80632987
 21
238.2046131077
  0
LINE
  5
5F2
100
AcDbEntity
  8
0
100
AcDbLine
 62
2
  6
CONTINUOUS
 10
220.63161059
 20
236.4896107753
 11
220.6519656561
 21
236.4782926989
  0
LINE
  5
5F3
100
AcDbEntity
  8
0
100
AcDbLine
 62
2
  6
CONTINUOUS
 10
226.7477032086
 20
236.5947732863
 11
226.7680582748
 21
236.5834552099
  0
LINE
  5
5F4
100
AcDbEntity
  8
0
100
AcDbLine
 62
2
  6
CONTINUOUS
 10
223.5736070626
 20
234.8799618069
 11
223.5933389948
 21
234.8684528775
  0
LINE
  5
5F5
100
AcDbEntity
  8
0
100
AcDbLine
 62
2
  6
CONTINUOUS
 10
223.80632987
 20
238.2046131077
 11
223.8260618021
 21
238.1931041783
  0
LINE
  5
5F6
100
AcDbEntity
  8
0
100
AcDbLine
 62
2
  6
CONTINUOUS
 10
220.6519656561
 20
236.4782926989
 11
220.6703775581
 21
236.4675091932
  0
LINE
  5
5F7
100
AcDbEntity
  8
0
100
AcDbLine
 62
2
  6
CONTINUOUS
 10
226.7292913067
 20
236.605556792
 11
226.7477032086
 21
236.5947732863
  0
LINE
  5
5F8
100
AcDbEntity
  8
0
100
AcDbLine
 62
2
  6
CONTINUOUS
 10
223.6998344324
 20
238.2621279777
 11
223.7155086156
 21
238.2506230534
  0
LINE
  5
5F9
100
AcDbEntity
  8
0
100
AcDbLine
 62
2
  6
CONTINUOUS
 10
226.8451602906
 20
236.5451166162
 11
226.8555186765
 21
236.5365329926
  0
LINE
  5
5FA
100
AcDbEntity
  8
0
100
AcDbLine
 62
2
  6
CONTINUOUS
 10
223.6998344324
 20
234.8109380075
 11
223.7051115182
 21
234.7994335359
  0
LINE
  5
5FB
100
AcDbEntity
  8
0
100
AcDbLine
 62
2
  6
CONTINUOUS
 10
223.6945573466
 20
238.2736324494
 11
223.6998344324
 21
238.2621279777
  0
LINE
  5
5FC
100
AcDbEntity
  8
0
100
AcDbLine
 62
2
  6
CONTINUOUS
 10
223.7382279153
 20
238.2391186776
 11
223.7629481173
 21
238.227616078
  0
LINE
  5
5FD
100
AcDbEntity
  8
0
100
AcDbLine
 62
2
  6
CONTINUOUS
 10
226.7924049916
 20
236.5710448923
 11
226.8207784664
 21
236.5575346337
  0
LINE
  5
5FE
100
AcDbEntity
  8
0
100
AcDbLine
 62
2
  6
CONTINUOUS
 10
223.6988749732
 20
234.7534190632
 11
223.6998344324
 21
234.7419142081
  0
LINE
  5
5FF
100
AcDbEntity
  8
0
100
AcDbLine
 62
2
  6
CONTINUOUS
 10
223.6998344324
 20
238.3311517771
 11
223.7007938915
 21
238.319646922
  0
LINE
  5
600
100
AcDbEntity
  8
0
100
AcDbLine
 62
2
  6
CONTINUOUS
 10
223.6984192211
 20
234.7649227946
 11
223.6988749732
 21
234.7534190632
  0
LINE
  5
601
100
AcDbEntity
  8
0
100
AcDbLine
 62
2
  6
CONTINUOUS
 10
223.7007938915
 20
238.319646922
 11
223.7012496437
 21
238.3081431907
  0
LINE
  5
602
100
AcDbEntity
  8
0
100
AcDbLine
 62
2
  6
CONTINUOUS
 10
223.6998344324
 20
234.7419142081
 11
223.7002181919
 21
234.7304081332
  0
LINE
  5
603
100
AcDbEntity
  8
0
100
AcDbLine
 62
2
  6
CONTINUOUS
 10
223.6994506729
 20
238.342657852
 11
223.6998344324
 21
238.3311517771
  0
LINE
  5
604
100
AcDbEntity
  8
0
100
AcDbLine
 62
2
  6
CONTINUOUS
 10
223.6997386435
 20
234.6844058577
 11
223.6998344324
 21
234.6728904087
  0
LINE
  5
605
100
AcDbEntity
  8
0
100
AcDbLine
 62
2
  6
CONTINUOUS
 10
223.6998344324
 20
238.4001755765
 11
223.6999302213
 21
238.3886601275
  0
LINE
  5
606
100
AcDbEntity
  8
0
100
AcDbLine
 62
2
  6
CONTINUOUS
 10
223.6998344324
 20
234.6728904087
 11
223.7187767146
 21
228.6710092582
  0
LINE
  5
607
100
AcDbEntity
  8
0
100
AcDbLine
 62
2
  6
CONTINUOUS
 10
223.6808921501
 20
244.402056727
 11
223.6998344324
 21
238.4001755765
  0
LINE
  5
608
100
AcDbEntity
  8
0
100
AcDbLine
 62
2
  6
CONTINUOUS
 10
223.6997146057
 20
234.6959061217
 11
223.6997386435
 21
234.6844058577
  0
LINE
  5
609
100
AcDbEntity
  8
0
100
AcDbLine
 62
2
  6
CONTINUOUS
 10
223.6999302213
 20
238.3886601275
 11
223.6999542591
 21
238.3771598636
  0
LINE
  5
60A
100
AcDbEntity
  8
0
100
AcDbLine
 62
2
  6
CONTINUOUS
 10
223.6998344324
 20
254.1395236556
 11
223.6998344324
 21
253.7924828438
  0
LINE
  5
60B
100
AcDbEntity
  8
0
100
AcDbLine
 62
2
  6
CONTINUOUS
 10
223.6903632913
 20
250.7813901485
 11
223.6808921501
 21
244.402056727
  0
LINE
  5
60C
100
AcDbEntity
  8
0
100
AcDbLine
 62
2
  6
CONTINUOUS
 10
223.7187767146
 20
228.6710092582
 11
223.7093055735
 21
222.2916758368
  0
LINE
  5
60D
100
AcDbEntity
  8
0
100
AcDbLine
 62
2
  6
CONTINUOUS
 10
223.6998344324
 20
253.7924828438
 11
223.6903632913
 21
250.7813901485
  0
LINE
  5
60E
100
AcDbEntity
  8
0
100
AcDbLine
 62
2
  6
CONTINUOUS
 10
223.7093055735
 20
222.2916758368
 11
223.6998344324
 21
219.2782518897
  0
LINE
  5
60F
100
AcDbEntity
  8
0
100
AcDbLine
 62
2
  6
CONTINUOUS
 10
223.6999542591
 20
238.3771598636
 11
223.6998344324
 21
238.3656636768
  0
LINE
  5
610
100
AcDbEntity
  8
0
100
AcDbLine
 62
2
  6
CONTINUOUS
 10
223.6995706204
 20
238.354162803
 11
223.6994506729
 21
238.342657852
  0
LINE
  5
611
100
AcDbEntity
  8
0
100
AcDbLine
 62
2
  6
CONTINUOUS
 10
223.6998344324
 20
234.7074023084
 11
223.6997146057
 21
234.6959061217
  0
LINE
  5
612
100
AcDbEntity
  8
0
100
AcDbLine
 62
2
  6
CONTINUOUS
 10
223.7002181919
 20
234.7304081332
 11
223.7000982444
 21
234.7189031822
  0
LINE
  5
613
100
AcDbEntity
  8
0
100
AcDbLine
 62
2
  6
CONTINUOUS
 10
223.6998344324
 20
238.3656636768
 11
223.6995706204
 21
238.354162803
  0
LINE
  5
614
100
AcDbEntity
  8
0
100
AcDbLine
 62
2
  6
CONTINUOUS
 10
223.7000982444
 20
234.7189031822
 11
223.6998344324
 21
234.7074023084
  0
LINE
  5
615
100
AcDbEntity
  8
0
100
AcDbLine
 62
2
  6
CONTINUOUS
 10
220.6316239733
 20
236.5356247228
 11
220.6072638732
 21
236.5365329926
  0
LINE
  5
616
100
AcDbEntity
  8
0
100
AcDbLine
 62
2
  6
CONTINUOUS
 10
226.7924049916
 20
236.5365329926
 11
226.7680448915
 21
236.5374412625
  0
LINE
  5
617
100
AcDbEntity
  8
0
100
AcDbLine
 62
2
  6
CONTINUOUS
 10
220.578884315
 20
236.5385401569
 11
220.5545037075
 21
236.5394540333
  0
LINE
  5
618
100
AcDbEntity
  8
0
100
AcDbLine
 62
2
  6
CONTINUOUS
 10
226.8451651573
 20
236.5336119519
 11
226.8207845497
 21
236.5345258284
  0
LINE
  5
619
100
AcDbEntity
  8
0
100
AcDbLine
 62
2
  6
CONTINUOUS
 10
220.6072638732
 20
236.5365329926
 11
220.578884315
 21
236.5385401569
  0
LINE
  5
61A
100
AcDbEntity
  8
0
100
AcDbLine
 62
2
  6
CONTINUOUS
 10
226.8207845497
 20
236.5345258284
 11
226.7924049916
 21
236.5365329926
  0
LINE
  5
61B
100
AcDbEntity
  8
0
100
AcDbLine
 62
2
  6
CONTINUOUS
 10
223.7012496437
 20
238.3081431907
 11
223.6998344324
 21
238.2966398774
  0
LINE
  5
61C
100
AcDbEntity
  8
0
100
AcDbLine
 62
2
  6
CONTINUOUS
 10
223.6998344324
 20
234.7764261078
 11
223.6984192211
 21
234.7649227946
  0
LINE
  5
61D
100
AcDbEntity
  8
0
100
AcDbLine
 62
2
  6
CONTINUOUS
 10
223.6962604077
 20
238.2851363725
 11
223.6945573466
 21
238.2736324494
  0
LINE
  5
61E
100
AcDbEntity
  8
0
100
AcDbLine
 62
2
  6
CONTINUOUS
 10
223.7051115182
 20
234.7994335359
 11
223.703408457
 21
234.7879296128
  0
LINE
  5
61F
100
AcDbEntity
  8
0
100
AcDbLine
 62
2
  6
CONTINUOUS
 10
226.747683742
 20
236.5372562445
 11
226.7292913067
 21
236.5365329926
  0
LINE
  5
620
100
AcDbEntity
  8
0
100
AcDbLine
 62
2
  6
CONTINUOUS
 10
220.6703775581
 20
236.5365329926
 11
220.6519851227
 21
236.5358097407
  0
LINE
  5
621
100
AcDbEntity
  8
0
100
AcDbLine
 62
2
  6
CONTINUOUS
 10
226.7680448915
 20
236.5374412625
 11
226.747683742
 21
236.5372562445
  0
LINE
  5
622
100
AcDbEntity
  8
0
100
AcDbLine
 62
2
  6
CONTINUOUS
 10
220.6519851227
 20
236.5358097407
 11
220.6316239733
 21
236.5356247228
  0
LINE
  5
623
100
AcDbEntity
  8
0
100
AcDbLine
 62
2
  6
CONTINUOUS
 10
226.7292913067
 20
236.5365329926
 11
224.7726522432
 21
236.5193095049
  0
LINE
  5
624
100
AcDbEntity
  8
0
100
AcDbLine
 62
2
  6
CONTINUOUS
 10
222.6270166215
 20
236.5537564803
 11
220.6703775581
 21
236.5365329926
  0
LINE
  5
625
100
AcDbEntity
  8
0
100
AcDbLine
 62
2
  6
CONTINUOUS
 10
224.7726522432
 20
236.5193095049
 11
222.6270166215
 21
236.5537564803
  0
LINE
  5
626
100
AcDbEntity
  8
0
100
AcDbLine
 62
2
  6
CONTINUOUS
 10
223.6998344324
 20
238.2966398774
 11
223.6962604077
 21
238.2851363725
  0
LINE
  5
627
100
AcDbEntity
  8
0
100
AcDbLine
 62
2
  6
CONTINUOUS
 10
223.703408457
 20
234.7879296128
 11
223.6998344324
 21
234.7764261078
  0
LINE
  5
628
100
AcDbEntity
  8
0
100
AcDbLine
 62
2
  6
CONTINUOUS
 10
226.8555186765
 20
236.5365329926
 11
226.8451651573
 21
236.5336119519
  0
LINE
  5
629
100
AcDbEntity
  8
0
100
AcDbLine
 62
2
  6
CONTINUOUS
 10
220.5545037075
 20
236.5394540333
 11
220.5441501883
 21
236.5365329926
  0
LINE
  5
62A
100
AcDbEntity
  8
0
100
AcDbLine
 62
2
  6
CONTINUOUS
 10
217.3053162087
 20
41.7551185357
 11
217.317185077
 21
41.7577964623
  0
LINE
  5
62B
100
AcDbEntity
  8
0
100
AcDbLine
 62
2
  6
CONTINUOUS
 10
210.0820797878
 20
41.7577964623
 11
210.0939486561
 21
41.7604743888
  0
LINE
  5
62C
100
AcDbEntity
  8
0
100
AcDbLine
 62
2
  6
CONTINUOUS
 10
217.1724829712
 20
41.7577964623
 11
217.1935673377
 21
41.7584595189
  0
LINE
  5
62D
100
AcDbEntity
  8
0
100
AcDbLine
 62
2
  6
CONTINUOUS
 10
210.2056975271
 20
41.7571334056
 11
210.2267818936
 21
41.7577964623
  0
LINE
  5
62E
100
AcDbEntity
  8
0
100
AcDbLine
 62
2
  6
CONTINUOUS
 10
217.1935673377
 20
41.7584595189
 11
217.2169085608
 21
41.7586291381
  0
LINE
  5
62F
100
AcDbEntity
  8
0
100
AcDbLine
 62
2
  6
CONTINUOUS
 10
210.1823563039
 20
41.7569637864
 11
210.2056975271
 21
41.7571334056
  0
LINE
  5
630
100
AcDbEntity
  8
0
100
AcDbLine
 62
2
  6
CONTINUOUS
 10
214.9294686925
 20
41.7420064614
 11
217.1724829712
 21
41.7577964623
  0
LINE
  5
631
100
AcDbEntity
  8
0
100
AcDbLine
 62
2
  6
CONTINUOUS
 10
210.2267818936
 20
41.7577964623
 11
212.4697961723
 21
41.7735864631
  0
LINE
  5
632
100
AcDbEntity
  8
0
100
AcDbLine
 62
2
  6
CONTINUOUS
 10
212.4697961723
 20
41.7735864631
 11
214.9294686925
 21
41.7420064614
  0
LINE
  5
633
100
AcDbEntity
  8
0
100
AcDbLine
 62
2
  6
CONTINUOUS
 10
210.1544308407
 20
41.7577964623
 11
210.1823563039
 21
41.7569637864
  0
LINE
  5
634
100
AcDbEntity
  8
0
100
AcDbLine
 62
2
  6
CONTINUOUS
 10
217.2169085608
 20
41.7586291381
 11
217.2448340241
 21
41.7577964623
  0
LINE
  5
635
100
AcDbEntity
  8
0
100
AcDbLine
 62
2
  6
CONTINUOUS
 10
210.0939486561
 20
41.7604743888
 11
210.1218976283
 21
41.759636573
  0
LINE
  5
636
100
AcDbEntity
  8
0
100
AcDbLine
 62
2
  6
CONTINUOUS
 10
217.2773672364
 20
41.7559563515
 11
217.3053162087
 21
41.7551185357
  0
LINE
  5
637
100
AcDbEntity
  8
0
100
AcDbLine
 62
2
  6
CONTINUOUS
 10
210.1218976283
 20
41.759636573
 11
210.1544308407
 21
41.7577964623
  0
LINE
  5
638
100
AcDbEntity
  8
0
100
AcDbLine
 62
2
  6
CONTINUOUS
 10
217.2448340241
 20
41.7577964623
 11
217.2773672364
 21
41.7559563515
  0
LINE
  5
639
100
AcDbEntity
  8
0
100
AcDbLine
 62
2
  6
CONTINUOUS
 10
213.6556196495
 20
40.1969146076
 11
213.6272813795
 21
40.2074598619
  0
LINE
  5
63A
100
AcDbEntity
  8
0
100
AcDbLine
 62
2
  6
CONTINUOUS
 10
213.7719834853
 20
43.3081330626
 11
213.7436452153
 21
43.3186783169
  0
LINE
  5
63B
100
AcDbEntity
  8
0
100
AcDbLine
 62
2
  6
CONTINUOUS
 10
210.1544308407
 20
41.7261569398
 11
210.121904602
 21
41.7385427585
  0
LINE
  5
63C
100
AcDbEntity
  8
0
100
AcDbLine
 62
2
  6
CONTINUOUS
 10
217.2773602628
 20
41.7770501661
 11
217.2448340241
 21
41.7894359847
  0
LINE
  5
63D
100
AcDbEntity
  8
0
100
AcDbLine
 62
2
  6
CONTINUOUS
 10
213.6816641635
 20
40.1863677249
 11
213.6556196495
 21
40.1969146076
  0
LINE
  5
63E
100
AcDbEntity
  8
0
100
AcDbLine
 62
2
  6
CONTINUOUS
 10
213.7436452153
 20
43.3186783169
 11
213.7176007013
 21
43.3292251996
  0
LINE
  5
63F
100
AcDbEntity
  8
0
100
AcDbLine
 62
2
  6
CONTINUOUS
 10
213.6272813795
 20
40.2074598619
 11
213.6012689316
 21
40.2180032804
  0
LINE
  5
640
100
AcDbEntity
  8
0
100
AcDbLine
 62
2
  6
CONTINUOUS
 10
213.7979959332
 20
43.2975896442
 11
213.7719834853
 21
43.3081330626
  0
LINE
  5
641
100
AcDbEntity
  8
0
100
AcDbLine
 62
2
  6
CONTINUOUS
 10
210.121904602
 20
41.7385427585
 11
210.0939542351
 21
41.7499272417
  0
LINE
  5
642
100
AcDbEntity
  8
0
100
AcDbLine
 62
2
  6
CONTINUOUS
 10
217.3053106297
 20
41.7656656829
 11
217.2773602628
 21
41.7770501661
  0
LINE
  5
643
100
AcDbEntity
  8
0
100
AcDbLine
 62
2
  6
CONTINUOUS
 10
210.1823409619
 20
41.7147795156
 11
210.1544308407
 21
41.7261569398
  0
LINE
  5
644
100
AcDbEntity
  8
0
100
AcDbLine
 62
2
  6
CONTINUOUS
 10
217.2448340241
 20
41.7894359847
 11
217.2169239029
 21
41.8008134089
  0
LINE
  5
645
100
AcDbEntity
  8
0
100
AcDbLine
 62
2
  6
CONTINUOUS
 10
212.4450873679
 20
40.7319375961
 11
211.2847005842
 21
41.2244993273
  0
LINE
  5
646
100
AcDbEntity
  8
0
100
AcDbLine
 62
2
  6
CONTINUOUS
 10
216.1145642805
 20
42.2910935972
 11
214.9541774969
 21
42.7836553284
  0
LINE
  5
647
100
AcDbEntity
  8
0
100
AcDbLine
 62
2
  6
CONTINUOUS
 10
213.5549303266
 20
40.2390993844
 11
212.4450873679
 21
40.7319375961
  0
LINE
  5
648
100
AcDbEntity
  8
0
100
AcDbLine
 62
2
  6
CONTINUOUS
 10
211.2847005842
 20
41.2244993273
 11
210.2267818936
 21
41.6945174173
  0
LINE
  5
649
100
AcDbEntity
  8
0
100
AcDbLine
 62
2
  6
CONTINUOUS
 10
213.6012689316
 20
40.2180032804
 11
213.5775502397
 21
40.2285483271
  0
LINE
  5
64A
100
AcDbEntity
  8
0
100
AcDbLine
 62
2
  6
CONTINUOUS
 10
210.2056752113
 20
41.7044034269
 11
210.1823409619
 21
41.7147795156
  0
LINE
  5
64B
100
AcDbEntity
  8
0
100
AcDbLine
 62
2
  6
CONTINUOUS
 10
214.9541774969
 20
42.7836553284
 11
213.8443345382
 21
43.2764935402
  0
LINE
  5
64C
100
AcDbEntity
  8
0
100
AcDbLine
 62
2
  6
CONTINUOUS
 10
217.1724829712
 20
41.8210755072
 11
216.1145642805
 21
42.2910935972
  0
LINE
  5
64D
100
AcDbEntity
  8
0
100
AcDbLine
 62
2
  6
CONTINUOUS
 10
213.8217146251
 20
43.2870445974
 11
213.7979959332
 21
43.2975896442
  0
LINE
  5
64E
100
AcDbEntity
  8
0
100
AcDbLine
 62
2
  6
CONTINUOUS
 10
217.2169239029
 20
41.8008134089
 11
217.1935896534
 21
41.8111894976
  0
LINE
  5
64F
100
AcDbEntity
  8
0
100
AcDbLine
 62
2
  6
CONTINUOUS
 10
213.5775502397
 20
40.2285483271
 11
213.5549303266
 21
40.2390993844
  0
LINE
  5
650
100
AcDbEntity
  8
0
100
AcDbLine
 62
2
  6
CONTINUOUS
 10
213.8443345382
 20
43.2764935402
 11
213.8217146251
 21
43.2870445974
  0
LINE
  5
651
100
AcDbEntity
  8
0
100
AcDbLine
 62
2
  6
CONTINUOUS
 10
210.2267818936
 20
41.6945174173
 11
210.2056752113
 21
41.7044034269
  0
LINE
  5
652
100
AcDbEntity
  8
0
100
AcDbLine
 62
2
  6
CONTINUOUS
 10
217.1935896534
 20
41.8111894976
 11
217.1724829712
 21
41.8210755072
  0
LINE
  5
653
100
AcDbEntity
  8
0
100
AcDbLine
 62
2
  6
CONTINUOUS
 10
213.6996324324
 20
40.1758203395
 11
213.6816641635
 21
40.1863677249
  0
LINE
  5
654
100
AcDbEntity
  8
0
100
AcDbLine
 62
2
  6
CONTINUOUS
 10
213.7176007013
 20
43.3292251996
 11
213.6996324324
 21
43.3397725851
  0
LINE
  5
655
100
AcDbEntity
  8
0
100
AcDbLine
 62
2
  6
CONTINUOUS
 10
210.0939542351
 20
41.7499272417
 11
210.0820797878
 21
41.7577964623
  0
LINE
  5
656
100
AcDbEntity
  8
0
100
AcDbLine
 62
2
  6
CONTINUOUS
 10
217.317185077
 20
41.7577964623
 11
217.3053106297
 21
41.7656656829
  0
LINE
  5
657
100
AcDbEntity
  8
0
100
AcDbLine
 62
2
  6
CONTINUOUS
 10
213.7056818766
 20
40.1652733691
 11
213.6996324324
 21
40.1758203395
  0
LINE
  5
658
100
AcDbEntity
  8
0
100
AcDbLine
 62
2
  6
CONTINUOUS
 10
213.6996324324
 20
43.3397725851
 11
213.6935829882
 21
43.3503195554
  0
LINE
  5
659
100
AcDbEntity
  8
0
100
AcDbLine
 62
2
  6
CONTINUOUS
 10
213.6996324324
 20
40.1125412945
 11
213.698532546
 21
40.1230886158
  0
LINE
  5
65A
100
AcDbEntity
  8
0
100
AcDbLine
 62
2
  6
CONTINUOUS
 10
213.7007323187
 20
43.3925043087
 11
213.6996324324
 21
43.40305163
  0
LINE
  5
65B
100
AcDbEntity
  8
0
100
AcDbLine
 62
2
  6
CONTINUOUS
 10
213.698532546
 20
40.1230886158
 11
213.6980100896
 21
40.1336349079
  0
LINE
  5
65C
100
AcDbEntity
  8
0
100
AcDbLine
 62
2
  6
CONTINUOUS
 10
213.7012547751
 20
43.3819580166
 11
213.7007323187
 21
43.3925043087
  0
LINE
  5
65D
100
AcDbEntity
  8
0
100
AcDbLine
 62
2
  6
CONTINUOUS
 10
213.7000723592
 20
40.1019928564
 11
213.6996324324
 21
40.1125412945
  0
LINE
  5
65E
100
AcDbEntity
  8
0
100
AcDbLine
 62
2
  6
CONTINUOUS
 10
213.6996324324
 20
43.40305163
 11
213.6991925055
 21
43.4136000681
  0
LINE
  5
65F
100
AcDbEntity
  8
0
100
AcDbLine
 62
2
  6
CONTINUOUS
 10
213.6996324324
 20
40.0492622496
 11
213.6995226238
 21
40.0598192718
  0
LINE
  5
660
100
AcDbEntity
  8
0
100
AcDbLine
 62
2
  6
CONTINUOUS
 10
213.699742241
 20
43.4557736527
 11
213.6996324324
 21
43.4663306749
  0
LINE
  5
661
100
AcDbEntity
  8
0
100
AcDbLine
 62
2
  6
CONTINUOUS
 10
213.7213471218
 20
34.5483636824
 11
213.6996324324
 21
40.0492622496
  0
LINE
  5
662
100
AcDbEntity
  8
0
100
AcDbLine
 62
2
  6
CONTINUOUS
 10
213.6996324324
 20
43.4663306749
 11
213.677917743
 21
48.9672292421
  0
LINE
  5
663
100
AcDbEntity
  8
0
100
AcDbLine
 62
2
  6
CONTINUOUS
 10
213.6995226238
 20
40.0598192718
 11
213.6994950678
 21
40.0703623887
  0
LINE
  5
664
100
AcDbEntity
  8
0
100
AcDbLine
 62
2
  6
CONTINUOUS
 10
213.699769797
 20
43.4452305358
 11
213.699742241
 21
43.4557736527
  0
LINE
  5
665
100
AcDbEntity
  8
0
100
AcDbLine
 62
2
  6
CONTINUOUS
 10
213.6996324324
 20
25.7409737745
 11
213.6996324324
 21
25.9380352342
  0
LINE
  5
666
100
AcDbEntity
  8
0
100
AcDbLine
 62
2
  6
CONTINUOUS
 10
213.677917743
 20
48.9672292421
 11
213.6887750877
 21
54.814171579
  0
LINE
  5
667
100
AcDbEntity
  8
0
100
AcDbLine
 62
2
  6
CONTINUOUS
 10
213.7104897771
 20
28.7014213455
 11
213.7213471218
 21
34.5483636824
  0
LINE
  5
668
100
AcDbEntity
  8
0
100
AcDbLine
 62
2
  6
CONTINUOUS
 10
213.6887750877
 20
54.814171579
 11
213.6971824133
 21
56.9539845318
  0
LINE
  5
669
100
AcDbEntity
  8
0
100
AcDbLine
 62
2
  6
CONTINUOUS
 10
213.6996324324
 20
25.9380352342
 11
213.7104897771
 21
28.7014213455
  0
LINE
  5
66A
100
AcDbEntity
  8
0
100
AcDbLine
 62
2
  6
CONTINUOUS
 10
213.6991925055
 20
43.4136000681
 11
213.6993300086
 21
43.4241474771
  0
LINE
  5
66B
100
AcDbEntity
  8
0
100
AcDbLine
 62
2
  6
CONTINUOUS
 10
213.6996324324
 20
43.4346911524
 11
213.699769797
 21
43.4452305358
  0
LINE
  5
66C
100
AcDbEntity
  8
0
100
AcDbLine
 62
2
  6
CONTINUOUS
 10
213.6994950678
 20
40.0703623887
 11
213.6996324324
 21
40.0809017721
  0
LINE
  5
66D
100
AcDbEntity
  8
0
100
AcDbLine
 62
2
  6
CONTINUOUS
 10
213.6999348561
 20
40.0914454475
 11
213.7000723592
 21
40.1019928564
  0
LINE
  5
66E
100
AcDbEntity
  8
0
100
AcDbLine
 62
2
  6
CONTINUOUS
 10
213.6993300086
 20
43.4241474771
 11
213.6996324324
 21
43.4346911524
  0
LINE
  5
66F
100
AcDbEntity
  8
0
100
AcDbLine
 62
2
  6
CONTINUOUS
 10
213.6996324324
 20
40.0809017721
 11
213.6999348561
 21
40.0914454475
  0
LINE
  5
670
100
AcDbEntity
  8
0
100
AcDbLine
 62
2
  6
CONTINUOUS
 10
213.6996324324
 20
43.3714121075
 11
213.7012547751
 21
43.3819580166
  0
LINE
  5
671
100
AcDbEntity
  8
0
100
AcDbLine
 62
2
  6
CONTINUOUS
 10
213.6980100896
 20
40.1336349079
 11
213.6996324324
 21
40.144180817
  0
LINE
  5
672
100
AcDbEntity
  8
0
100
AcDbLine
 62
2
  6
CONTINUOUS
 10
213.6935829882
 20
43.3503195554
 11
213.6955353107
 21
43.360866023
  0
LINE
  5
673
100
AcDbEntity
  8
0
100
AcDbLine
 62
2
  6
CONTINUOUS
 10
213.703729554
 20
40.1547269015
 11
213.7056818766
 21
40.1652733691
  0
LINE
  5
674
100
AcDbEntity
  8
0
100
AcDbLine
 62
2
  6
CONTINUOUS
 10
213.6955353107
 20
43.360866023
 11
213.6996324324
 21
43.3714121075
  0
LINE
  5
675
100
AcDbEntity
  8
0
100
AcDbLine
 62
2
  6
CONTINUOUS
 10
213.6996324324
 20
40.144180817
 11
213.703729554
 21
40.1547269015
  0
LINE
  5
676
100
AcDbEntity
  8
0
100
AcDbLine
 62
2
  6
CONTINUOUS
 10
223.6998344324
 20
40.1758203395
 11
223.7058838766
 21
40.1652733691
  0
LINE
  5
677
100
AcDbEntity
  8
0
100
AcDbLine
 62
2
  6
CONTINUOUS
 10
223.6937849882
 20
43.3503195554
 11
223.6998344324
 21
43.3397725851
  0
LINE
  5
678
100
AcDbEntity
  8
0
100
AcDbLine
 62
2
  6
CONTINUOUS
 10
223.6818661635
 20
40.1863677249
 11
223.6998344324
 21
40.1758203395
  0
LINE
  5
679
100
AcDbEntity
  8
0
100
AcDbLine
 62
2
  6
CONTINUOUS
 10
220.0822817878
 20
41.7577964623
 11
220.0941562351
 21
41.7499272417
  0
LINE
  5
67A
100
AcDbEntity
  8
0
100
AcDbLine
 62
2
  6
CONTINUOUS
 10
223.698734546
 20
40.1230886158
 11
223.6998344324
 21
40.1125412945
  0
LINE
  5
67B
100
AcDbEntity
  8
0
100
AcDbLine
 62
2
  6
CONTINUOUS
 10
223.6998344324
 20
43.40305163
 11
223.7009343187
 21
43.3925043087
  0
LINE
  5
67C
100
AcDbEntity
  8
0
100
AcDbLine
 62
2
  6
CONTINUOUS
 10
223.6982120896
 20
40.1336349079
 11
223.698734546
 21
40.1230886158
  0
LINE
  5
67D
100
AcDbEntity
  8
0
100
AcDbLine
 62
2
  6
CONTINUOUS
 10
223.7009343187
 20
43.3925043087
 11
223.7014567751
 21
43.3819580166
  0
LINE
  5
67E
100
AcDbEntity
  8
0
100
AcDbLine
 62
2
  6
CONTINUOUS
 10
223.6998344324
 20
40.1125412945
 11
223.7002743592
 21
40.1019928564
  0
LINE
  5
67F
100
AcDbEntity
  8
0
100
AcDbLine
 62
2
  6
CONTINUOUS
 10
223.6993945055
 20
43.4136000681
 11
223.6998344324
 21
43.40305163
  0
LINE
  5
680
100
AcDbEntity
  8
0
100
AcDbLine
 62
2
  6
CONTINUOUS
 10
223.6997246238
 20
40.0598192718
 11
223.6998344324
 21
40.0492622496
  0
LINE
  5
681
100
AcDbEntity
  8
0
100
AcDbLine
 62
2
  6
CONTINUOUS
 10
223.6998344324
 20
43.4663306749
 11
223.699944241
 21
43.4557736527
  0
LINE
  5
682
100
AcDbEntity
  8
0
100
AcDbLine
 62
2
  6
CONTINUOUS
 10
223.6998344324
 20
40.0492622496
 11
223.7215491218
 21
34.5483636824
  0
LINE
  5
683
100
AcDbEntity
  8
0
100
AcDbLine
 62
2
  6
CONTINUOUS
 10
223.678119743
 20
48.9672292421
 11
223.6998344324
 21
43.4663306749
  0
LINE
  5
684
100
AcDbEntity
  8
0
100
AcDbLine
 62
2
  6
CONTINUOUS
 10
223.6996970678
 20
40.0703623887
 11
223.6997246238
 21
40.0598192718
  0
LINE
  5
685
100
AcDbEntity
  8
0
100
AcDbLine
 62
2
  6
CONTINUOUS
 10
223.699944241
 20
43.4557736527
 11
223.699971797
 21
43.4452305358
  0
LINE
  5
686
100
AcDbEntity
  8
0
100
AcDbLine
 62
2
  6
CONTINUOUS
 10
223.6998344324
 20
25.9380352342
 11
223.6998344324
 21
25.7409737745
  0
LINE
  5
687
100
AcDbEntity
  8
0
100
AcDbLine
 62
2
  6
CONTINUOUS
 10
223.6889770877
 20
54.814171579
 11
223.678119743
 21
48.9672292421
  0
LINE
  5
688
100
AcDbEntity
  8
0
100
AcDbLine
 62
2
  6
CONTINUOUS
 10
223.7215491218
 20
34.5483636824
 11
223.7106917771
 21
28.7014213455
  0
LINE
  5
689
100
AcDbEntity
  8
0
100
AcDbLine
 62
2
  6
CONTINUOUS
 10
223.6973844133
 20
56.9539845318
 11
223.6889770877
 21
54.814171579
  0
LINE
  5
68A
100
AcDbEntity
  8
0
100
AcDbLine
 62
2
  6
CONTINUOUS
 10
223.6558216495
 20
40.1969146076
 11
223.6818661635
 21
40.1863677249
  0
LINE
  5
68B
100
AcDbEntity
  8
0
100
AcDbLine
 62
2
  6
CONTINUOUS
 10
223.6014709316
 20
40.2180032804
 11
223.6274833795
 21
40.2074598619
  0
LINE
  5
68C
100
AcDbEntity
  8
0
100
AcDbLine
 62
2
  6
CONTINUOUS
 10
220.0941562351
 20
41.7499272417
 11
220.122106602
 21
41.7385427585
  0
LINE
  5
68D
100
AcDbEntity
  8
0
100
AcDbLine
 62
2
  6
CONTINUOUS
 10
220.1546328407
 20
41.7261569398
 11
220.1825429619
 21
41.7147795156
  0
LINE
  5
68E
100
AcDbEntity
  8
0
100
AcDbLine
 62
2
  6
CONTINUOUS
 10
221.2849025842
 20
41.2244993273
 11
222.4452893679
 21
40.7319375961
  0
LINE
  5
68F
100
AcDbEntity
  8
0
100
AcDbLine
 62
2
  6
CONTINUOUS
 10
222.4452893679
 20
40.7319375961
 11
223.5551323266
 21
40.2390993844
  0
LINE
  5
690
100
AcDbEntity
  8
0
100
AcDbLine
 62
2
  6
CONTINUOUS
 10
220.2269838936
 20
41.6945174173
 11
221.2849025842
 21
41.2244993273
  0
LINE
  5
691
100
AcDbEntity
  8
0
100
AcDbLine
 62
2
  6
CONTINUOUS
 10
223.5777522397
 20
40.2285483271
 11
223.6014709316
 21
40.2180032804
  0
LINE
  5
692
100
AcDbEntity
  8
0
100
AcDbLine
 62
2
  6
CONTINUOUS
 10
220.1825429619
 20
41.7147795156
 11
220.2058772113
 21
41.7044034269
  0
LINE
  5
693
100
AcDbEntity
  8
0
100
AcDbLine
 62
2
  6
CONTINUOUS
 10
223.5551323266
 20
40.2390993844
 11
223.5777522397
 21
40.2285483271
  0
LINE
  5
694
100
AcDbEntity
  8
0
100
AcDbLine
 62
2
  6
CONTINUOUS
 10
223.8219166251
 20
43.2870445974
 11
223.8445365382
 21
43.2764935402
  0
LINE
  5
695
100
AcDbEntity
  8
0
100
AcDbLine
 62
2
  6
CONTINUOUS
 10
220.2058772113
 20
41.7044034269
 11
220.2269838936
 21
41.6945174173
  0
LINE
  5
696
100
AcDbEntity
  8
0
100
AcDbLine
 62
2
  6
CONTINUOUS
 10
227.1726849712
 20
41.8210755072
 11
227.1937916534
 21
41.8111894976
  0
LINE
  5
697
100
AcDbEntity
  8
0
100
AcDbLine
 62
2
  6
CONTINUOUS
 10
223.6998344324
 20
43.3397725851
 11
223.7178027013
 21
43.3292251996
  0
LINE
  5
698
100
AcDbEntity
  8
0
100
AcDbLine
 62
2
  6
CONTINUOUS
 10
227.3055126297
 20
41.7656656829
 11
227.317387077
 21
41.7577964623
  0
LINE
  5
699
100
AcDbEntity
  8
0
100
AcDbLine
 62
2
  6
CONTINUOUS
 10
223.7106917771
 20
28.7014213455
 11
223.6998344324
 21
25.9380352342
  0
LINE
  5
69A
100
AcDbEntity
  8
0
100
AcDbLine
 62
2
  6
CONTINUOUS
 10
223.6995320086
 20
43.4241474771
 11
223.6993945055
 21
43.4136000681
  0
LINE
  5
69B
100
AcDbEntity
  8
0
100
AcDbLine
 62
2
  6
CONTINUOUS
 10
223.699971797
 20
43.4452305358
 11
223.6998344324
 21
43.4346911524
  0
LINE
  5
69C
100
AcDbEntity
  8
0
100
AcDbLine
 62
2
  6
CONTINUOUS
 10
223.6998344324
 20
40.0809017721
 11
223.6996970678
 21
40.0703623887
  0
LINE
  5
69D
100
AcDbEntity
  8
0
100
AcDbLine
 62
2
  6
CONTINUOUS
 10
223.7002743592
 20
40.1019928564
 11
223.7001368561
 21
40.0914454475
  0
LINE
  5
69E
100
AcDbEntity
  8
0
100
AcDbLine
 62
2
  6
CONTINUOUS
 10
223.6998344324
 20
43.4346911524
 11
223.6995320086
 21
43.4241474771
  0
LINE
  5
69F
100
AcDbEntity
  8
0
100
AcDbLine
 62
2
  6
CONTINUOUS
 10
223.7001368561
 20
40.0914454475
 11
223.6998344324
 21
40.0809017721
  0
LINE
  5
6A0
100
AcDbEntity
  8
0
100
AcDbLine
 62
2
  6
CONTINUOUS
 10
223.6274833795
 20
40.2074598619
 11
223.6558216495
 21
40.1969146076
  0
LINE
  5
6A1
100
AcDbEntity
  8
0
100
AcDbLine
 62
2
  6
CONTINUOUS
 10
223.7438472153
 20
43.3186783169
 11
223.7721854853
 21
43.3081330626
  0
LINE
  5
6A2
100
AcDbEntity
  8
0
100
AcDbLine
 62
2
  6
CONTINUOUS
 10
220.122106602
 20
41.7385427585
 11
220.1546328407
 21
41.7261569398
  0
LINE
  5
6A3
100
AcDbEntity
  8
0
100
AcDbLine
 62
2
  6
CONTINUOUS
 10
227.2450360241
 20
41.7894359847
 11
227.2775622628
 21
41.7770501661
  0
LINE
  5
6A4
100
AcDbEntity
  8
0
100
AcDbLine
 62
2
  6
CONTINUOUS
 10
223.7178027013
 20
43.3292251996
 11
223.7438472153
 21
43.3186783169
  0
LINE
  5
6A5
100
AcDbEntity
  8
0
100
AcDbLine
 62
2
  6
CONTINUOUS
 10
223.7721854853
 20
43.3081330626
 11
223.7981979332
 21
43.2975896442
  0
LINE
  5
6A6
100
AcDbEntity
  8
0
100
AcDbLine
 62
2
  6
CONTINUOUS
 10
227.2775622628
 20
41.7770501661
 11
227.3055126297
 21
41.7656656829
  0
LINE
  5
6A7
100
AcDbEntity
  8
0
100
AcDbLine
 62
2
  6
CONTINUOUS
 10
227.2171259029
 20
41.8008134089
 11
227.2450360241
 21
41.7894359847
  0
LINE
  5
6A8
100
AcDbEntity
  8
0
100
AcDbLine
 62
2
  6
CONTINUOUS
 10
224.9543794969
 20
42.7836553284
 11
226.1147662805
 21
42.2910935972
  0
LINE
  5
6A9
100
AcDbEntity
  8
0
100
AcDbLine
 62
2
  6
CONTINUOUS
 10
223.8445365382
 20
43.2764935402
 11
224.9543794969
 21
42.7836553284
  0
LINE
  5
6AA
100
AcDbEntity
  8
0
100
AcDbLine
 62
2
  6
CONTINUOUS
 10
226.1147662805
 20
42.2910935972
 11
227.1726849712
 21
41.8210755072
  0
LINE
  5
6AB
100
AcDbEntity
  8
0
100
AcDbLine
 62
2
  6
CONTINUOUS
 10
223.7981979332
 20
43.2975896442
 11
223.8219166251
 21
43.2870445974
  0
LINE
  5
6AC
100
AcDbEntity
  8
0
100
AcDbLine
 62
2
  6
CONTINUOUS
 10
227.1937916534
 20
41.8111894976
 11
227.2171259029
 21
41.8008134089
  0
LINE
  5
6AD
100
AcDbEntity
  8
0
100
AcDbLine
 62
2
  6
CONTINUOUS
 10
223.7014567751
 20
43.3819580166
 11
223.6998344324
 21
43.3714121075
  0
LINE
  5
6AE
100
AcDbEntity
  8
0
100
AcDbLine
 62
2
  6
CONTINUOUS
 10
223.6998344324
 20
40.144180817
 11
223.6982120896
 21
40.1336349079
  0
LINE
  5
6AF
100
AcDbEntity
  8
0
100
AcDbLine
 62
2
  6
CONTINUOUS
 10
223.6957373107
 20
43.360866023
 11
223.6937849882
 21
43.3503195554
  0
LINE
  5
6B0
100
AcDbEntity
  8
0
100
AcDbLine
 62
2
  6
CONTINUOUS
 10
223.7058838766
 20
40.1652733691
 11
223.703931554
 21
40.1547269015
  0
LINE
  5
6B1
100
AcDbEntity
  8
0
100
AcDbLine
 62
2
  6
CONTINUOUS
 10
223.6998344324
 20
43.3714121075
 11
223.6957373107
 21
43.360866023
  0
LINE
  5
6B2
100
AcDbEntity
  8
0
100
AcDbLine
 62
2
  6
CONTINUOUS
 10
223.703931554
 20
40.1547269015
 11
223.6998344324
 21
40.144180817
  0
LINE
  5
6B3
100
AcDbEntity
  8
0
100
AcDbLine
 62
2
  6
CONTINUOUS
 10
227.2171105608
 20
41.7586291381
 11
227.1937693377
 21
41.7584595189
  0
LINE
  5
6B4
100
AcDbEntity
  8
0
100
AcDbLine
 62
2
  6
CONTINUOUS
 10
220.2058995271
 20
41.7571334056
 11
220.1825583039
 21
41.7569637864
  0
LINE
  5
6B5
100
AcDbEntity
  8
0
100
AcDbLine
 62
2
  6
CONTINUOUS
 10
227.1726849712
 20
41.7577964623
 11
224.9296706925
 21
41.7420064614
  0
LINE
  5
6B6
100
AcDbEntity
  8
0
100
AcDbLine
 62
2
  6
CONTINUOUS
 10
222.4699981723
 20
41.7735864631
 11
220.2269838936
 21
41.7577964623
  0
LINE
  5
6B7
100
AcDbEntity
  8
0
100
AcDbLine
 62
2
  6
CONTINUOUS
 10
224.9296706925
 20
41.7420064614
 11
222.4699981723
 21
41.7735864631
  0
LINE
  5
6B8
100
AcDbEntity
  8
0
100
AcDbLine
 62
2
  6
CONTINUOUS
 10
220.1825583039
 20
41.7569637864
 11
220.1546328407
 21
41.7577964623
  0
LINE
  5
6B9
100
AcDbEntity
  8
0
100
AcDbLine
 62
2
  6
CONTINUOUS
 10
227.2450360241
 20
41.7577964623
 11
227.2171105608
 21
41.7586291381
  0
LINE
  5
6BA
100
AcDbEntity
  8
0
100
AcDbLine
 62
2
  6
CONTINUOUS
 10
220.1220996283
 20
41.759636573
 11
220.0941506561
 21
41.7604743888
  0
LINE
  5
6BB
100
AcDbEntity
  8
0
100
AcDbLine
 62
2
  6
CONTINUOUS
 10
227.3055182087
 20
41.7551185357
 11
227.2775692364
 21
41.7559563515
  0
LINE
  5
6BC
100
AcDbEntity
  8
0
100
AcDbLine
 62
2
  6
CONTINUOUS
 10
220.1546328407
 20
41.7577964623
 11
220.1220996283
 21
41.759636573
  0
LINE
  5
6BD
100
AcDbEntity
  8
0
100
AcDbLine
 62
2
  6
CONTINUOUS
 10
227.2775692364
 20
41.7559563515
 11
227.2450360241
 21
41.7577964623
  0
LINE
  5
6BE
100
AcDbEntity
  8
0
100
AcDbLine
 62
2
  6
CONTINUOUS
 10
227.1937693377
 20
41.7584595189
 11
227.1726849712
 21
41.7577964623
  0
LINE
  5
6BF
100
AcDbEntity
  8
0
100
AcDbLine
 62
2
  6
CONTINUOUS
 10
220.2269838936
 20
41.7577964623
 11
220.2058995271
 21
41.7571334056
  0
LINE
  5
6C0
100
AcDbEntity
  8
0
100
AcDbLine
 62
2
  6
CONTINUOUS
 10
227.317387077
 20
41.7577964623
 11
227.3055182087
 21
41.7551185357
  0
LINE
  5
6C1
100
AcDbEntity
  8
0
100
AcDbLine
 62
2
  6
CONTINUOUS
 10
220.0941506561
 20
41.7604743888
 11
220.0822817878
 21
41.7577964623
  0
INSERT
  5
6C2
100
AcDbEntity
  8
HATCHING_BL0
100
AcDbBlockReference
  2
HATCHING_BL0
 10
201.6321791637
 20
235.5366096213
  0
INSERT
  5
6C3
100
AcDbEntity
  8
Grp_symbol_75_BL2
100
AcDbBlockReference
  2
GRP_SYMBOL_75_BL2
 10
46.9666526624
 20
45.1363971203
  0
INSERT
  5
6C4
100
AcDbEntity
  8
X48000092_BD01_BL3
100
AcDbBlockReference
  2
X48000092_BD01_BL3
 10
322.1502118891
 20
139.9402487151
  0
INSERT
  5
6C5
100
AcDbEntity
  8
X48002254_KLEIN_BL4
100
AcDbBlockReference
  2
X48002254_KLEIN_BL4
 10
257.9342190881
 20
256.2874540244
  0
INSERT
  5
6C6
100
AcDbEntity
  8
X48002255_NEU_BL5
100
AcDbBlockReference
  2
X48002255_NEU_BL5
 10
446.4510138448
 20
348.8718211222
  0
INSERT
  5
6C7
100
AcDbEntity
  8
X48002256_BL6
100
AcDbBlockReference
  2
X48002256_BL6
 10
430.183268913
 20
392.3718211222
  0
INSERT
  5
6C8
100
AcDbEntity
  8
X48002257_BL7
100
AcDbBlockReference
  2
X48002257_BL7
 10
306.7596564681
 20
189.2275869135
  0
INSERT
  5
6C9
100
AcDbEntity
  8
X48002007_BL8
100
AcDbBlockReference
  2
X48002007_BL8
 10
468.2920412337
 20
336.0526068515
  0
INSERT
  5
6CA
100
AcDbEntity
  8
X48002258_BL9
100
AcDbBlockReference
  2
X48002258_BL9
 10
427.1279097868
 20
189.2275869135
  0
INSERT
  5
6CB
100
AcDbEntity
  8
X48002028_BL10
100
AcDbBlockReference
  2
X48002028_BL10
 10
147.3649285092
 20
139.9519642607
  0
INSERT
  5
6CC
100
AcDbEntity
  8
X48002024_BL11
100
AcDbBlockReference
  2
X48002024_BL11
 10
66.973413308
 20
344.9718211222
  0
INSERT
  5
6CD
100
AcDbEntity
  8
X48002028_BL12
100
AcDbBlockReference
  2
X48002028_BL12
 10
283.3039304054
 20
139.9519642607
  0
INSERT
  5
6CE
100
AcDbEntity
  8
X48002254_KLEIN_BL13
100
AcDbBlockReference
  2
X48002254_KLEIN_BL13
 10
363.6954456066
 20
256.2874540244
  0
INSERT
  5
6CF
100
AcDbEntity
  8
X48002014_BL14
100
AcDbBlockReference
  2
X48002014_BL14
 10
363.6954456066
 20
344.9718211222
  0
INSERT
  5
6D0
100
AcDbEntity
  8
X48002270_BL15
100
AcDbBlockReference
  2
X48002270_BL15
 10
363.6954456066
 20
348.7086791496
  0
INSERT
  5
6D1
100
AcDbEntity
  8
B_7100_4210_BD01_BL16
100
AcDbBlockReference
  2
B_7100_4210_BD01_BL16
 10
487.1953489145
 20
126.079674127
  0
ENDSEC
  0
SECTION
  2
OBJECTS
  0
DICTIONARY
  5
C
100
AcDbDictionary
280
0
281
1
  3
ACAD_GROUP
350
D
  3
ACAD_MLINESTYLE
350
17
  3
ACAD_LAYOUT
350
1A
  3
ACAD_PLOTSETTINGS
350
19
  3
ACAD_PLOTSTYLENAME
350
E
  3
ACAD_TABLESTYLE
350
       6D2
  0
DICTIONARY
  5
D
102
{ACAD_REACTORS
330
C
102
}
100
AcDbDictionary
280
0
281
1
  0
ACDBDICTIONARYWDFLT
  5
E
102
{ACAD_REACTORS
330
C
102
}
100
AcDbDictionary
281
1
  3
Normal
350
F
100
AcDbDictionaryWithDefault
340
F
  0
DICTIONARY
  5
17
102
{ACAD_REACTORS
330
C
102
}
100
AcDbDictionary
280
0
281
1
  3
Standard
350
18
  0
DICTIONARY
  5
6D2
330
C
100
AcDbDictionary
281
1
  3
Standard
350
       6D5
  3
Standard1
350
       6D6
  0
DICTIONARY
  5
19
102
{ACAD_REACTORS
330
C
102
}
100
AcDbDictionary
281
1
  0
DICTIONARY
  5
1A
102
{ACAD_REACTORS
330
C
102
}
100
AcDbDictionary
281
1
  3
Model
350
6D3
  3
Layout1
350
6D4
  0
ACDBPLACEHOLDER
  5
F
102
{ACAD_REACTORS
330
E
102
}
  0
MLINESTYLE
  5
18
102
{ACAD_REACTORS
330
17
102
}
100
AcDbMlineStyle
  2
STANDARD
 70
0
  3

 62
256
 51
90.0
 52
90.0
 71
2
 49
0.5
 62
256
  6
BYLAYER
 49
-0.5
 62
256
  6
BYLAYER
  0
LAYOUT
  5
6D3
102
{ACAD_REACTORS
330
1A
102
}
100
AcDbPlotSettings
  1

  2
none_device
  4
ISO_A2_(594.00_x_420.00_MM)
  6

 40
0.0
 41
0.0
 42
0.0
 43
0.0
 44
594.0
 45
420.0
 46
0.0
 47
0.0
 48
0.0
 49
0.0
140
0.0
141
0.0
142
1.0
143
1.0
 70
1024
 72
1
 73
0
 74
0
  7

 75
0
147
1.0
148
0.0
149
0.0
100
AcDbLayout
  1
Model
 70
0
 71
0
 10
0.0
 20
0.0
 11
594.0
 21
420.0
 12
0.0
 22
0.0
 32
0.0
 14
0.0
 24
0.0
 34
0.0
 15
0.0
 25
0.0
 35
0.0
146
0.0
 13
0.0
 23
0.0
 33
0.0
 16
1.0
 26
0.0
 36
0.0
 17
0.0
 27
1.0
 37
0.0
 76
0
330
22C
345
0
346
0
  0
LAYOUT
  5
6D4
102
{ACAD_REACTORS
330
1A
102
}
100
AcDbPlotSettings
  1

  2
none_device
  4
ISO_A2_(594.00_x_420.00_MM)
  6

 40
0.0
 41
0.0
 42
0.0
 43
0.0
 44
594.0
 45
420.0
 46
0.0
 47
0.0
 48
0.0
 49
0.0
140
0.0
141
0.0
142
1.0
143
1.0
 70
0
 72
1
 73
0
 74
0
  7

 75
0
147
1.0
148
0.0
149
0.0
100
AcDbLayout
  1
Layout1
 70
0
 71
1
 10
0.0
 20
0.0
 11
594.0
 21
420.0
 12
0.0
 22
0.0
 32
0.0
 14
0.0
 24
0.0
 34
0.0
 15
0.0
 25
0.0
 35
0.0
146
0.0
 13
0.0
 23
0.0
 33
0.0
 16
1.0
 26
0.0
 36
0.0
 17
0.0
 27
1.0
 37
0.0
 76
0
330
22D
345
0
346
0
  0
TABLESTYLE
  5
6D5
102
{ACAD_REACTORS
330
6D2
330
589
102
}
330
6D2
100
AcDbTableStyle
  3
Standard
 70
0
 71
0
 40
0.06
 41
0.06
280
1
281
1
  7
Standard
140
0.18
170
1
 62
0
 63
7
283
0
  7
Standard
140
0.18
170
1
 62
0
 63
7
283
0
  7
Standard
140
0.18
170
1
 62
0
 63
7
283
0
  0
TABLESTYLE
  5
6D6
102
{ACAD_REACTORS
330
6D2
102
}
330
6D2
100
AcDbTableStyle
  3
Standard1
 70
1
 71
0
 40
0.06
 41
0.06
280
1
281
1
  7
Standard
140
0.18
170
1
 62
0
 63
7
283
0
  7
Standard
140
0.18
170
1
 62
0
 63
7
283
0
  7
Standard
140
0.18
170
1
 62
0
 63
7
283
0
  0
ENDSEC
  0
EOF
